  0
SECTION
  2
HEADER
  9
$ACADVER
  1
AC1018
  9
$ACADMAINTVER
 70
   104
  9
$DWGCODEPAGE
  3
ANSI_1252
  9
$LASTSAVEDBY
  1
lengelbach
  9
$INSBASE
 10
0.0
 20
0.0
 30
0.0
  9
$EXTMIN
 10
0.0
 20
0.0
 30
0.0
  9
$EXTMAX
 10
210.0
 20
297.0000000000001
 30
0.0
  9
$LIMMIN
 10
0.0
 20
0.0
  9
$LIMMAX
 10
210.0
 20
297.0000000000001
  9
$ORTHOMODE
 70
     1
  9
$REGENMODE
 70
     1
  9
$FILLMODE
 70
     1
  9
$QTEXTMODE
 70
     0
  9
$MIRRTEXT
 70
     0
  9
$LTSCALE
 40
10.0
  9
$ATTMODE
 70
     1
  9
$TEXTSIZE
 40
2.5
  9
$TRACEWID
 40
1.0
  9
$TEXTSTYLE
  7
RomanS
  9
$CLAYER
  8
Bemaßung
  9
$CELTYPE
  6
ByLayer
  9
$CECOLOR
 62
   256
  9
$CELTSCALE
 40
1.0
  9
$DISPSILH
 70
     0
  9
$DIMSCALE
 40
1.0
  9
$DIMASZ
 40
2.5
  9
$DIMEXO
 40
0.625
  9
$DIMDLI
 40
3.75
  9
$DIMRND
 40
0.0
  9
$DIMDLE
 40
0.0
  9
$DIMEXE
 40
1.25
  9
$DIMTP
 40
0.0
  9
$DIMTM
 40
0.0
  9
$DIMTXT
 40
2.5
  9
$DIMCEN
 40
2.5
  9
$DIMTSZ
 40
0.0
  9
$DIMTOL
 70
     0
  9
$DIMLIM
 70
     0
  9
$DIMTIH
 70
     0
  9
$DIMTOH
 70
     0
  9
$DIMSE1
 70
     0
  9
$DIMSE2
 70
     0
  9
$DIMTAD
 70
     1
  9
$DIMZIN
 70
     8
  9
$DIMBLK
  1
Oblique
  9
$DIMASO
 70
     1
  9
$DIMSHO
 70
     1
  9
$DIMPOST
  1

  9
$DIMAPOST
  1

  9
$DIMALT
 70
     0
  9
$DIMALTD
 70
     3
  9
$DIMALTF
 40
0.03937007874016
  9
$DIMLFAC
 40
1.0
  9
$DIMTOFL
 70
     1
  9
$DIMTVP
 40
0.0
  9
$DIMTIX
 70
     0
  9
$DIMSOXD
 70
     0
  9
$DIMSAH
 70
     0
  9
$DIMBLK1
  1

  9
$DIMBLK2
  1

  9
$DIMSTYLE
  2
IDEAL Holz
  9
$DIMCLRD
 70
     0
  9
$DIMCLRE
 70
     0
  9
$DIMCLRT
 70
     0
  9
$DIMTFAC
 40
1.0
  9
$DIMGAP
 40
0.625
  9
$DIMJUST
 70
     0
  9
$DIMSD1
 70
     0
  9
$DIMSD2
 70
     0
  9
$DIMTOLJ
 70
     0
  9
$DIMTZIN
 70
     8
  9
$DIMALTZ
 70
     0
  9
$DIMALTTZ
 70
     0
  9
$DIMUPT
 70
     0
  9
$DIMDEC
 70
     1
  9
$DIMTDEC
 70
     1
  9
$DIMALTU
 70
     2
  9
$DIMALTTD
 70
     3
  9
$DIMTXSTY
  7
RomanS
  9
$DIMAUNIT
 70
     0
  9
$DIMADEC
 70
     0
  9
$DIMALTRND
 40
0.0
  9
$DIMAZIN
 70
     0
  9
$DIMDSEP
 70
    44
  9
$DIMATFIT
 70
     3
  9
$DIMFRAC
 70
     0
  9
$DIMLDRBLK
  1
Oblique
  9
$DIMLUNIT
 70
     2
  9
$DIMLWD
 70
    -2
  9
$DIMLWE
 70
    -2
  9
$DIMTMOVE
 70
     0
  9
$LUNITS
 70
     2
  9
$LUPREC
 70
     4
  9
$SKETCHINC
 40
1.0
  9
$FILLETRAD
 40
3.0
  9
$AUNITS
 70
     0
  9
$AUPREC
 70
     0
  9
$MENU
  1
.
  9
$ELEVATION
 40
0.0
  9
$PELEVATION
 40
0.0
  9
$THICKNESS
 40
0.0
  9
$LIMCHECK
 70
     0
  9
$CHAMFERA
 40
0.0
  9
$CHAMFERB
 40
0.0
  9
$CHAMFERC
 40
0.0
  9
$CHAMFERD
 40
0.0
  9
$SKPOLY
 70
     0
  9
$TDCREATE
 40
2454587.317474965
  9
$TDUCREATE
 40
2454587.275808299
  9
$TDUPDATE
 40
2455232.573048264
  9
$TDUUPDATE
 40
2455232.531381597
  9
$TDINDWG
 40
0.2982802199
  9
$TDUSRTIMER
 40
0.2982398727
  9
$USRTIMER
 70
     1
  9
$ANGBASE
 50
0.0
  9
$ANGDIR
 70
     0
  9
$PDMODE
 70
     0
  9
$PDSIZE
 40
0.0
  9
$PLINEWID
 40
0.0
  9
$SPLFRAME
 70
     0
  9
$SPLINETYPE
 70
     6
  9
$SPLINESEGS
 70
     8
  9
$HANDSEED
  5
2C36
  9
$SURFTAB1
 70
     6
  9
$SURFTAB2
 70
     6
  9
$SURFTYPE
 70
     6
  9
$SURFU
 70
     6
  9
$SURFV
 70
     6
  9
$UCSBASE
  2

  9
$UCSNAME
  2

  9
$UCSORG
 10
0.0
 20
0.0
 30
0.0
  9
$UCSXDIR
 10
1.0
 20
0.0
 30
0.0
  9
$UCSYDIR
 10
0.0
 20
1.0
 30
0.0
  9
$UCSORTHOREF
  2

  9
$UCSORTHOVIEW
 70
     0
  9
$UCSORGTOP
 10
0.0
 20
0.0
 30
0.0
  9
$UCSORGBOTTOM
 10
0.0
 20
0.0
 30
0.0
  9
$UCSORGLEFT
 10
0.0
 20
0.0
 30
0.0
  9
$UCSORGRIGHT
 10
0.0
 20
0.0
 30
0.0
  9
$UCSORGFRONT
 10
0.0
 20
0.0
 30
0.0
  9
$UCSORGBACK
 10
0.0
 20
0.0
 30
0.0
  9
$PUCSBASE
  2

  9
$PUCSNAME
  2

  9
$PUCSORG
 10
0.0
 20
0.0
 30
0.0
  9
$PUCSXDIR
 10
1.0
 20
0.0
 30
0.0
  9
$PUCSYDIR
 10
0.0
 20
1.0
 30
0.0
  9
$PUCSORTHOREF
  2

  9
$PUCSORTHOVIEW
 70
     0
  9
$PUCSORGTOP
 10
0.0
 20
0.0
 30
0.0
  9
$PUCSORGBOTTOM
 10
0.0
 20
0.0
 30
0.0
  9
$PUCSORGLEFT
 10
0.0
 20
0.0
 30
0.0
  9
$PUCSORGRIGHT
 10
0.0
 20
0.0
 30
0.0
  9
$PUCSORGFRONT
 10
0.0
 20
0.0
 30
0.0
  9
$PUCSORGBACK
 10
0.0
 20
0.0
 30
0.0
  9
$USERI1
 70
     0
  9
$USERI2
 70
     0
  9
$USERI3
 70
     0
  9
$USERI4
 70
     0
  9
$USERI5
 70
     0
  9
$USERR1
 40
0.0
  9
$USERR2
 40
0.0
  9
$USERR3
 40
0.0
  9
$USERR4
 40
0.0
  9
$USERR5
 40
0.0
  9
$WORLDVIEW
 70
     1
  9
$SHADEDGE
 70
     3
  9
$SHADEDIF
 70
    70
  9
$TILEMODE
 70
     1
  9
$MAXACTVP
 70
    64
  9
$PINSBASE
 10
0.0
 20
0.0
 30
0.0
  9
$PLIMCHECK
 70
     0
  9
$PEXTMIN
 10
-6.009609552272422
 20
-6.013593655315842
 30
-0.0000000000000058
  9
$PEXTMAX
 10
203.9829408217793
 20
291.0454288085755
 30
0.0000000000000104
  9
$PLIMMIN
 10
-5.999999999999997
 20
-5.999999999999997
  9
$PLIMMAX
 10
203.9733276367186
 20
291.0318298339844
  9
$UNITMODE
 70
     0
  9
$VISRETAIN
 70
     1
  9
$PLINEGEN
 70
     0
  9
$PSLTSCALE
 70
     1
  9
$TREEDEPTH
 70
  3020
  9
$CMLSTYLE
  2
Standard
  9
$CMLJUST
 70
     0
  9
$CMLSCALE
 40
20.0
  9
$PROXYGRAPHICS
 70
     1
  9
$MEASUREMENT
 70
     1
  9
$CELWEIGHT
370
    -1
  9
$ENDCAPS
280
     0
  9
$JOINSTYLE
280
     0
  9
$LWDISPLAY
290
     0
  9
$INSUNITS
 70
     4
  9
$HYPERLINKBASE
  1

  9
$STYLESHEET
  1
GRAYSCALE.CTB
  9
$XEDIT
290
     1
  9
$CEPSNTYPE
380
     0
  9
$PSTYLEMODE
290
     1
  9
$FINGERPRINTGUID
  2
{6CA3B094-A75F-41C3-8665-51827AA2356D}
  9
$VERSIONGUID
  2
{67A40930-238C-4F46-98A5-A2748AC203E3}
  9
$EXTNAMES
290
     1
  9
$PSVPSCALE
 40
1.0
  9
$OLESTARTUP
290
     0
  9
$SORTENTS
280
   127
  9
$INDEXCTL
280
     0
  9
$HIDETEXT
280
     1
  9
$XCLIPFRAME
290
     0
  9
$HALOGAP
280
     0
  9
$OBSCOLOR
 70
   257
  9
$OBSLTYPE
280
     0
  9
$INTERSECTIONDISPLAY
280
     0
  9
$INTERSECTIONCOLOR
 70
   257
  9
$DIMASSOC
280
     2
  9
$PROJECTNAME
  1

  0
ENDSEC
  0
SECTION
  2
CLASSES
  0
CLASS
  1
ACDBDICTIONARYWDFLT
  2
AcDbDictionaryWithDefault
  3
ObjectDBX Classes
 90
        0
 91
        1
280
     0
281
     0
  0
CLASS
  1
DICTIONARYVAR
  2
AcDbDictionaryVar
  3
ObjectDBX Classes
 90
        0
 91
        9
280
     0
281
     0
  0
CLASS
  1
TABLESTYLE
  2
AcDbTableStyle
  3
ObjectDBX Classes
 90
     4095
 91
        1
280
     0
281
     0
  0
CLASS
  1
MATERIAL
  2
AcDbMaterial
  3
ObjectDBX Classes
 90
     1024
 91
        3
280
     0
281
     0
  0
CLASS
  1
VISUALSTYLE
  2
AcDbVisualStyle
  3
ObjectDBX Classes
 90
     4095
 91
       16
280
     0
281
     0
  0
CLASS
  1
SORTENTSTABLE
  2
AcDbSortentsTable
  3
ObjectDBX Classes
 90
        0
 91
        3
280
     0
281
     0
  0
CLASS
  1
DIMASSOC
  2
AcDbDimAssoc
  3
"AcDbDimAssoc|Product Desc:     AcDim ARX App For Dimension|Company:          Autodesk, Inc.|WEB Address:      www.autodesk.com"
 90
        0
 91
        3
280
     0
281
     0
  0
CLASS
  1
ACAD_EVALUATION_GRAPH
  2
AcDbEvalGraph
  3
ObjectDBX Classes
 90
     1153
 91
        0
280
     0
281
     0
  0
CLASS
  1
ACAECUSTOBJ
  2
AcAeEditorObj
  3
AcAeEditorObj
 90
     1024
 91
        0
280
     0
281
     0
  0
CLASS
  1
ACDB_DYNAMICBLOCKPURGEPREVENTER_VERSION
  2
AcDbDynamicBlockPurgePreventer
  3
ObjectDBX Classes
 90
     1153
 91
        0
280
     0
281
     0
  0
CLASS
  1
ACDB_BLOCKREPRESENTATION_DATA
  2
AcDbBlockRepresentationData
  3
ObjectDBX Classes
 90
     1153
 91
        0
280
     0
281
     0
  0
ENDSEC
  0
SECTION
  2
TABLES
  0
TABLE
  2
VPORT
  5
8
330
0
100
AcDbSymbolTable
 70
     1
  0
VPORT
  5
EA
330
8
100
AcDbSymbolTableRecord
100
AcDbViewportTableRecord
  2
*Active
 70
     0
 10
0.0
 20
0.0
 11
1.0
 21
1.0
 12
117.2371552711653
 22
148.500572954305
 13
0.0
 23
0.0
 14
10.0
 24
10.0
 15
10.0
 25
10.0
 16
0.0
 26
0.0
 36
1.0
 17
0.0
 27
0.0
 37
0.0
 40
299.4188347112888
 41
2.134130146082337
 42
50.0
 43
0.0
 44
0.0
 50
0.0
 51
0.0
 71
     0
 72
  1000
 73
     1
 74
     3
 75
     0
 76
     0
 77
     0
 78
     0
281
     0
 65
     1
110
0.0
120
0.0
130
0.0
111
1.0
121
0.0
131
0.0
112
0.0
122
1.0
132
0.0
 79
     0
146
0.0
  0
ENDTAB
  0
TABLE
  2
LTYPE
  5
5
330
0
100
AcDbSymbolTable
 70
     3
  0
LTYPE
  5
14
330
5
100
AcDbSymbolTableRecord
100
AcDbLinetypeTableRecord
  2
ByBlock
 70
     0
  3

 72
    65
 73
     0
 40
0.0
  0
LTYPE
  5
15
330
5
100
AcDbSymbolTableRecord
100
AcDbLinetypeTableRecord
  2
ByLayer
 70
     0
  3

 72
    65
 73
     0
 40
0.0
  0
LTYPE
  5
16
330
5
100
AcDbSymbolTableRecord
100
AcDbLinetypeTableRecord
  2
Continuous
 70
     0
  3
Solid line
 72
    65
 73
     0
 40
0.0
  0
LTYPE
  5
1F66
330
5
100
AcDbSymbolTableRecord
100
AcDbLinetypeTableRecord
  2
STRICHPUNKT
 70
     0
  3
Strichpunkt __ . __ . __ . __ . __ . __ . __ . 
 72
    65
 73
     4
 40
1.0
 49
0.5
 74
     0
 49
-0.25
 74
     0
 49
0.0
 74
     0
 49
-0.25
 74
     0
  0
LTYPE
  5
1F67
330
5
100
AcDbSymbolTableRecord
100
AcDbLinetypeTableRecord
  2
VERDECKT
 70
     0
  3
Verdeckt __ __ __ __ __ __ __ __ __ __ __ __ __
 72
    65
 73
     2
 40
0.375
 49
0.25
 74
     0
 49
-0.125
 74
     0
  0
ENDTAB
  0
TABLE
  2
LAYER
  5
2
102
{ACAD_XDICTIONARY
360
120
102
}
330
0
100
AcDbSymbolTable
 70
    14
  0
LAYER
  5
10
330
2
100
AcDbSymbolTableRecord
100
AcDbLayerTableRecord
  2
0
 70
     0
 62
     7
  6
Continuous
370
    -3
390
F
  0
LAYER
  5
12AC
330
2
100
AcDbSymbolTableRecord
100
AcDbLayerTableRecord
  2
Defpoints
 70
     0
 62
     7
  6
Continuous
290
     0
370
    -3
390
F
  0
LAYER
  5
1D6A
330
2
100
AcDbSymbolTableRecord
100
AcDbLayerTableRecord
  2
Zusatzprofile
 70
     0
 62
    54
  6
Continuous
370
    -3
390
F
1001
AcAecLayerStandard
1000

1000

  0
LAYER
  5
1D6B
330
2
100
AcDbSymbolTableRecord
100
AcDbLayerTableRecord
  2
Bemaßung
 70
     0
 62
     1
  6
Continuous
370
    -3
390
F
  0
LAYER
  5
1D6C
330
2
100
AcDbSymbolTableRecord
100
AcDbLayerTableRecord
  2
Schraffur
 70
     0
 62
   251
  6
Continuous
370
    -3
390
F
1001
AcAecLayerStandard
1000

1000

  0
LAYER
  5
1F6A
330
2
100
AcDbSymbolTableRecord
100
AcDbLayerTableRecord
  2
Glas
 70
     0
 62
   141
  6
Continuous
370
    -3
390
F
  0
LAYER
  5
1F6B
330
2
100
AcDbSymbolTableRecord
100
AcDbLayerTableRecord
  2
Dichtungen
 70
     0
 62
     6
  6
Continuous
370
    -3
390
F
1001
AcAecLayerStandard
1000

1000

  0
LAYER
  5
1F6C
330
2
100
AcDbSymbolTableRecord
100
AcDbLayerTableRecord
  2
Glasleiste
 70
     0
 62
    84
  6
Continuous
370
    -3
390
F
  0
LAYER
  5
1F6D
330
2
100
AcDbSymbolTableRecord
100
AcDbLayerTableRecord
  2
Blendrahmen
 70
     0
 62
     5
  6
Continuous
370
    -3
390
F
1001
AcAecLayerStandard
1000

1000

  0
LAYER
  5
1F6E
330
2
100
AcDbSymbolTableRecord
100
AcDbLayerTableRecord
  2
Flügelrahmen
 70
     0
 62
    84
  6
Continuous
370
    -3
390
F
1001
AcAecLayerStandard
1000

1000

  0
LAYER
  5
1F6F
330
2
100
AcDbSymbolTableRecord
100
AcDbLayerTableRecord
  2
Silikon
 70
     0
 62
    10
  6
Continuous
370
    -3
390
F
1001
AcAecLayerStandard
1000

1000

  0
LAYER
  5
1F70
330
2
100
AcDbSymbolTableRecord
100
AcDbLayerTableRecord
  2
Belüftung
 70
     0
 62
     7
  6
VERDECKT
370
    -3
390
F
1001
AcAecLayerStandard
1000

1000

  0
LAYER
  5
1F74
330
2
100
AcDbSymbolTableRecord
100
AcDbLayerTableRecord
  2
Schlitz-Zapfen
 70
     0
 62
   253
  6
STRICHPUNKT
370
    -3
390
F
1001
AcAecLayerStandard
1000

1000

  0
LAYER
  5
2A2D
330
2
100
AcDbSymbolTableRecord
100
AcDbLayerTableRecord
  2
Aluhalter
 70
     0
 62
     3
  6
Continuous
370
    -3
390
F
1001
AcAecLayerStandard
1000

1000

  0
ENDTAB
  0
TABLE
  2
STYLE
  5
3
330
0
100
AcDbSymbolTable
 70
     2
  0
STYLE
  5
11
330
3
100
AcDbSymbolTableRecord
100
AcDbTextStyleTableRecord
  2
Standard
 70
     0
 40
0.0
 41
1.0
 50
0.0
 71
     0
 42
2.5
  3
txt
  4

  0
STYLE
  5
11D
330
3
100
AcDbSymbolTableRecord
100
AcDbTextStyleTableRecord
  2
RomanS
 70
     0
 40
0.0
 41
0.7
 50
0.0
 71
     0
 42
2.5
  3
romans.shx
  4

  0
ENDTAB
  0
TABLE
  2
VIEW
  5
6
330
0
100
AcDbSymbolTable
 70
     0
  0
ENDTAB
  0
TABLE
  2
UCS
  5
7
330
0
100
AcDbSymbolTable
 70
     0
  0
ENDTAB
  0
TABLE
  2
APPID
  5
9
330
0
100
AcDbSymbolTable
 70
     9
  0
APPID
  5
12
330
9
100
AcDbSymbolTableRecord
100
AcDbRegAppTableRecord
  2
ACAD
 70
     0
  0
APPID
  5
9E
330
9
100
AcDbSymbolTableRecord
100
AcDbRegAppTableRecord
  2
ACAD_PSEXT
 70
     0
  0
APPID
  5
1B4
330
9
100
AcDbSymbolTableRecord
100
AcDbRegAppTableRecord
  2
AcAecLayerStandard
 70
     0
  0
APPID
  5
3F2
330
9
100
AcDbSymbolTableRecord
100
AcDbRegAppTableRecord
  2
AcDbBlockRepETag
 70
     0
  0
APPID
  5
722
330
9
100
AcDbSymbolTableRecord
100
AcDbRegAppTableRecord
  2
ACAD_EXEMPT_FROM_CAD_STANDARDS
 70
     0
  0
APPID
  5
12AF
330
9
100
AcDbSymbolTableRecord
100
AcDbRegAppTableRecord
  2
AcDbDynamicBlockGUID
 70
     0
  0
APPID
  5
17A4
330
9
100
AcDbSymbolTableRecord
100
AcDbRegAppTableRecord
  2
ACAUTHENVIRON
 70
     0
  0
APPID
  5
17AA
330
9
100
AcDbSymbolTableRecord
100
AcDbRegAppTableRecord
  2
AcDbDynamicBlockTrueName
 70
     0
  0
APPID
  5
186B
330
9
100
AcDbSymbolTableRecord
100
AcDbRegAppTableRecord
  2
AcDbBlockRepBTag
 70
     0
  0
ENDTAB
  0
TABLE
  2
DIMSTYLE
  5
A
330
0
100
AcDbSymbolTable
 70
     2
100
AcDbDimStyleTable
 71
     1
340
142C
  0
DIMSTYLE
105
11E
330
A
100
AcDbSymbolTableRecord
100
AcDbDimStyleTableRecord
  2
Standard
 70
     0
 41
0.5
 42
1.0
 43
2.0
 44
0.2
140
1.5
147
1.0
172
     1
271
     1
272
     1
340
11
371
     5
372
     5
  0
DIMSTYLE
105
142C
102
{ACAD_REACTORS
330
20A5
330
20A6
330
20A7
330
20D8
330
22CB
330
2382
330
23D7
330
2401
330
2430
330
2464
330
2497
330
24A4
330
24BC
330
24D4
330
2506
330
2B64
102
}
330
A
100
AcDbSymbolTableRecord
100
AcDbDimStyleTableRecord
  2
IDEAL Holz
 70
     0
 41
2.5
 42
0.625
 43
3.75
 44
1.25
 73
     0
 74
     0
 77
     1
 78
     8
140
2.5
141
2.5
143
0.03937007874016
147
0.625
171
     3
172
     1
271
     1
272
     1
274
     3
278
    44
283
     0
284
     8
340
11D
341
117
342
117
  0
ENDTAB
  0
TABLE
  2
BLOCK_RECORD
  5
1
330
0
100
AcDbSymbolTable
 70
    21
  0
BLOCK_RECORD
  5
1F
102
{ACAD_XDICTIONARY
360
732
102
}
330
1
100
AcDbSymbolTableRecord
100
AcDbBlockTableRecord
  2
*Model_Space
340
22
  0
BLOCK_RECORD
  5
D2
330
1
100
AcDbSymbolTableRecord
100
AcDbBlockTableRecord
  2
*Paper_Space
340
D3
  0
BLOCK_RECORD
  5
117
330
1
100
AcDbSymbolTableRecord
100
AcDbBlockTableRecord
  2
_Oblique
340
0
102
{BLKREFS
331
2273
331
2274
331
227C
331
227D
331
228E
331
228F
331
23B2
331
23B3
331
23E8
331
23E9
331
23FB
331
23FC
331
2425
331
2426
331
2800
331
2801
331
283F
331
2840
331
288B
331
288C
331
28A6
331
28A7
331
28AF
331
28B0
331
28B8
331
28B9
331
28DC
331
28DD
331
28EE
331
28EF
331
2B83
331
2B84
102
}
  0
BLOCK_RECORD
  5
1F37
102
{ACAD_XDICTIONARY
360
2C0A
102
}
330
1
100
AcDbSymbolTableRecord
100
AcDbBlockTableRecord
  2
D-Mitteldichtung
340
0
102
{BLKREFS
331
20CC
102
}
1001
AcDbDynamicBlockGUID
1000
{BAC8BE43-CF8F-48E1-863B-721047EDC574}
1001
AcDbBlockRepETag
1070
     1
1071
        6
1001
ACAD
1000
DesignCenter Data
1002
{
1070
     1
1070
     4
1002
}
  0
BLOCK_RECORD
  5
1F40
102
{ACAD_XDICTIONARY
360
2BF4
102
}
330
1
100
AcDbSymbolTableRecord
100
AcDbBlockTableRecord
  2
D-Überschlag
340
0
102
{BLKREFS
331
20CD
102
}
1001
AcDbDynamicBlockGUID
1000
{21B8627F-7112-4441-9338-D2D1051AE01A}
1001
AcDbBlockRepETag
1070
     1
1071
        3
1001
ACAD
1000
DesignCenter Data
1002
{
1070
     1
1070
     4
1002
}
  0
BLOCK_RECORD
  5
20FE
330
1
100
AcDbSymbolTableRecord
100
AcDbBlockTableRecord
  2
*D3
340
0
  0
BLOCK_RECORD
  5
210A
330
1
100
AcDbSymbolTableRecord
100
AcDbBlockTableRecord
  2
*D4
340
0
  0
BLOCK_RECORD
  5
2116
330
1
100
AcDbSymbolTableRecord
100
AcDbBlockTableRecord
  2
*D5
340
0
  0
BLOCK_RECORD
  5
2167
330
1
100
AcDbSymbolTableRecord
100
AcDbBlockTableRecord
  2
*D6
340
0
  0
BLOCK_RECORD
  5
22CC
330
1
100
AcDbSymbolTableRecord
100
AcDbBlockTableRecord
  2
*D7
340
0
  0
BLOCK_RECORD
  5
2383
330
1
100
AcDbSymbolTableRecord
100
AcDbBlockTableRecord
  2
*D8
340
0
  0
BLOCK_RECORD
  5
23D8
330
1
100
AcDbSymbolTableRecord
100
AcDbBlockTableRecord
  2
*D9
340
0
  0
BLOCK_RECORD
  5
2402
330
1
100
AcDbSymbolTableRecord
100
AcDbBlockTableRecord
  2
*D10
340
0
  0
BLOCK_RECORD
  5
2434
330
1
100
AcDbSymbolTableRecord
100
AcDbBlockTableRecord
  2
*D11
340
0
  0
BLOCK_RECORD
  5
2465
330
1
100
AcDbSymbolTableRecord
100
AcDbBlockTableRecord
  2
*D12
340
0
  0
BLOCK_RECORD
  5
2498
330
1
100
AcDbSymbolTableRecord
100
AcDbBlockTableRecord
  2
*D13
340
0
  0
BLOCK_RECORD
  5
24A5
330
1
100
AcDbSymbolTableRecord
100
AcDbBlockTableRecord
  2
*D14
340
0
  0
BLOCK_RECORD
  5
24BD
330
1
100
AcDbSymbolTableRecord
100
AcDbBlockTableRecord
  2
*D15
340
0
  0
BLOCK_RECORD
  5
24D5
330
1
100
AcDbSymbolTableRecord
100
AcDbBlockTableRecord
  2
*D16
340
0
  0
BLOCK_RECORD
  5
2507
330
1
100
AcDbSymbolTableRecord
100
AcDbBlockTableRecord
  2
*D17
340
0
  0
BLOCK_RECORD
  5
261F
102
{ACAD_XDICTIONARY
360
2665
102
}
330
1
100
AcDbSymbolTableRecord
100
AcDbBlockTableRecord
  2
I-Verbr30mm
340
0
102
{BLKREFS
331
2648
102
}
1001
AcDbDynamicBlockGUID
1000
{EDA653F5-53A5-482A-B18B-AF74C77E2F2F}
1001
AcDbBlockRepETag
1070
     1
1071
       25
1001
ACAD
1000
DesignCenter Data
1002
{
1070
     1
1070
     4
1002
}
  0
BLOCK_RECORD
  5
2B31
102
{ACAD_XDICTIONARY
360
2B32
102
}
330
1
100
AcDbSymbolTableRecord
100
AcDbBlockTableRecord
  2
Glas 18mm ob IV
340
0
102
{BLKREFS
331
2B63
102
}
1001
AcDbDynamicBlockGUID
1000
{5C21FE2B-80D8-437C-88B1-A2FE8BD8CBC4}
1001
AcDbBlockRepETag
1070
     1
1071
       28
1001
ACAD
1000
DesignCenter Data
1002
{
1070
     1
1070
     4
1002
}
  0
BLOCK_RECORD
  5
2B65
330
1
100
AcDbSymbolTableRecord
100
AcDbBlockTableRecord
  2
*D20
340
0
  0
ENDTAB
  0
ENDSEC
  0
SECTION
  2
BLOCKS
  0
BLOCK
  5
20
330
1F
100
AcDbEntity
  8
0
100
AcDbBlockBegin
  2
*Model_Space
 70
     0
 10
0.0
 20
0.0
 30
0.0
  3
*Model_Space
  1

  0
ENDBLK
  5
21
330
1F
100
AcDbEntity
  8
0
100
AcDbBlockEnd
  0
BLOCK
  5
D4
330
D2
100
AcDbEntity
 67
     1
  8
0
100
AcDbBlockBegin
  2
*Paper_Space
 70
     0
 10
0.0
 20
0.0
 30
0.0
  3
*Paper_Space
  1

  0
ENDBLK
  5
D5
330
D2
100
AcDbEntity
 67
     1
  8
0
100
AcDbBlockEnd
  0
BLOCK
  5
118
330
117
100
AcDbEntity
  8
0
 62
     1
 48
0.3
100
AcDbBlockBegin
  2
_Oblique
 70
     0
 10
0.0
 20
0.0
 30
0.0
  3
_Oblique
  1

  0
LINE
  5
119
330
117
100
AcDbEntity
  8
0
  6
ByBlock
 62
     0
370
    -2
100
AcDbLine
 10
-0.5
 20
-0.5
 30
0.0
 11
0.5
 21
0.5
 31
0.0
  0
ENDBLK
  5
11A
330
117
100
AcDbEntity
  8
0
 62
     1
 48
0.3
100
AcDbBlockEnd
  0
BLOCK
  5
1F3A
330
1F37
100
AcDbEntity
  8
0
100
AcDbBlockBegin
  2
D-Mitteldichtung
 70
     0
 10
0.0
 20
0.0
 30
0.0
  3
D-Mitteldichtung
  1

  0
LWPOLYLINE
  5
2C06
102
{ACAD_REACTORS
330
2C09
102
}
330
1F37
100
AcDbEntity
  8
Dichtungen
100
AcDbPolyline
 90
       31
 70
     0
 43
0.0
 10
-2.199999999999854
 20
-18.20710678118664
 10
-3.846446609406528
 20
-19.85355339059342
 10
-2.199999999999854
 20
-18.20710678118664
 10
-0.5535533905931961
 20
-19.85355339059342
 42
0.6681786379192989
 10
0.3000000000001375
 20
-19.5000000000002
 10
0.3000000000001375
 20
-9.500000000000195
 42
0.2015127546239996
 10
0.000000000000183
 20
-8.785857157145841
 10
0.000000000000183
 20
-2.000000000000198
 42
0.6068148963145977
 10
-1.573576436350814
 20
-1.180847955711186
 10
-4.699999999999862
 20
-3.580055564077468
 10
-4.241138850919055
 20
-4.235377199508633
 10
-1.472072930905178
 20
-2.08639410705254
 42
-0.6068148963145489
 10
-0.9999999999998159
 20
-2.332139720339311
 10
-0.9999999999998159
 20
-3.604729044764866
 10
-3.282702335169731
 20
-8.500000000000085
 10
-6.19999999999986
 20
-8.500000000000197
 10
-6.19999999999986
 20
-8.500000000000197
 42
0.4142135623730951
 10
-5.19999999999986
 20
-9.500000000000195
 10
-3.199999999999861
 20
-9.500000000000195
 10
-3.199999999999861
 20
-11.50000000000008
 10
-4.199999999999858
 20
-11.50000000000008
 42
0.4142135623731117
 10
-4.699999999999862
 20
-12.00000000000008
 10
-4.699999999999862
 20
-14.81801488286712
 42
0.1763269807084733
 10
-4.583022221559343
 20
-15.1394086877103
 10
-3.596074994209216
 20
-16.3156065916057
 42
-0.3152987888789738
 10
-3.546084513876435
 20
-16.88700039644888
 10
-3.899999999999907
 20
-17.5000000000002
 10
-3.899999999999907
 20
-17.40000000000017
 42
0.9999999999999998
 10
-4.699999999999862
 20
-17.40000000000017
 10
-4.699999999999862
 20
-19.5000000000002
 42
0.6681786379192989
 10
-3.846446609406528
 20
-19.85355339059342
1001
AcDbBlockRepETag
1070
     1
1071
        0
1005
2C06
  0
LWPOLYLINE
  5
2C07
102
{ACAD_REACTORS
330
2C09
102
}
330
1F37
100
AcDbEntity
  8
Dichtungen
100
AcDbPolyline
 90
       11
 70
     1
 43
0.0
 10
-4.299999999999908
 20
-15.01996857795925
 10
-3.559843884025843
 20
-15.90205228825172
 42
-0.3152987888789714
 10
-3.459862923360513
 20
-17.0448398979382
 10
-4.299999999999908
 20
-18.5000000000002
 10
-4.299999999999908
 20
-18.77573593128815
 10
-2.953553390593191
 20
-17.42928932188144
 42
-0.4142135623730922
 10
-2.246446609406529
 20
-17.42928932188144
 10
-1.199999999999771
 20
-18.4757359312882
 10
-1.199999999999771
 20
-14.23137084989864
 10
-3.131370849898253
 20
-12.30000000000015
 10
-4.299999999999908
 20
-12.30000000000015
1001
AcDbBlockRepETag
1070
     1
1071
        1
1005
2C07
  0
LWPOLYLINE
  5
2C08
102
{ACAD_REACTORS
330
2C09
102
}
330
1F37
100
AcDbEntity
  8
Dichtungen
100
AcDbPolyline
 90
        6
 70
     1
 43
0.0
 10
-0.9999999999998159
 20
-5.497690311286845
 10
-2.399999999999904
 20
-8.499999999999971
 10
-2.399999999999904
 20
-11.50000000000008
 10
-0.7999999999997716
 20
-13.10000000000011
 10
-0.7999999999997716
 20
-10.0000000000002
 10
-0.9999999999998159
 20
-8.865743636076528
1001
AcDbBlockRepETag
1070
     1
1071
        2
1005
2C08
  0
HATCH
  5
2C09
330
1F37
100
AcDbEntity
  8
Schraffur
 62
     6
100
AcDbHatch
 10
0.0
 20
0.0
 30
0.0
210
0.0
220
0.0
230
1.0
  2
ANSI37
 70
     0
 71
     1
 91
        3
 92
        7
 72
     1
 73
     1
 93
       28
 10
-4.699999999999863
 20
-3.580055564077468
 42
0.0
 10
-4.241138850919055
 20
-4.235377199508631
 42
0.0
 10
-1.472072930905178
 20
-2.08639410705254
 42
-0.6068148963145466
 10
-0.9999999999998159
 20
-2.332139720339306
 42
0.0
 10
-0.9999999999998159
 20
-3.604729044764863
 42
0.0
 10
-3.282702335169731
 20
-8.500000000000085
 42
0.0
 10
-6.19999999999986
 20
-8.500000000000197
 42
0.4142135623730951
 10
-5.19999999999986
 20
-9.500000000000195
 42
0.0
 10
-3.199999999999861
 20
-9.500000000000195
 42
0.0
 10
-3.199999999999861
 20
-11.50000000000008
 42
0.0
 10
-4.199999999999858
 20
-11.50000000000008
 42
0.4142135623731033
 10
-4.699999999999862
 20
-12.00000000000007
 42
0.0
 10
-4.699999999999862
 20
-14.81801488286712
 42
0.1763269807084436
 10
-4.583022221559382
 20
-15.13940868771026
 42
0.0
 10
-3.596074994209216
 20
-16.3156065916057
 42
-0.3152987888790008
 10
-3.546084513876461
 20
-16.88700039644892
 42
0.0
 10
-3.899999999999908
 20
-17.5000000000002
 42
0.0
 10
-3.899999999999907
 20
-17.40000000000017
 42
1.0
 10
-4.699999999999862
 20
-17.40000000000017
 42
0.0
 10
-4.699999999999862
 20
-19.5000000000002
 42
0.6681786379192989
 10
-3.846446609406528
 20
-19.85355339059342
 42
0.0
 10
-2.199999999999863
 20
-18.20710678118664
 42
0.0
 10
-0.5535533905931961
 20
-19.85355339059342
 42
0.6681786379193274
 10
0.3000000000001375
 20
-19.50000000000016
 42
0.0
 10
0.3000000000001375
 20
-9.500000000000195
 42
0.2015127546239996
 10
0.000000000000183
 20
-8.785857157145841
 42
0.0
 10
0.000000000000183
 20
-2.000000000000198
 42
0.6068148963145996
 10
-1.57357643635082
 20
-1.180847955711187
 42
0.0
 97
        1
330
2C06
 92
       22
 72
     0
 73
     1
 93
        6
 10
-0.9999999999998163
 20
-5.497690311286846
 10
-0.9999999999998159
 20
-8.865743636076528
 10
-0.7999999999997717
 20
-10.00000000000019
 10
-0.7999999999997716
 20
-13.10000000000011
 10
-2.399999999999908
 20
-11.50000000000008
 10
-2.399999999999904
 20
-8.499999999999971
 97
        1
330
2C08
 92
       22
 72
     1
 73
     1
 93
       11
 10
-3.131370849898253
 20
-12.30000000000015
 42
0.0
 10
-1.199999999999771
 20
-14.23137084989864
 42
0.0
 10
-1.199999999999771
 20
-18.4757359312882
 42
0.0
 10
-2.246446609406529
 20
-17.42928932188144
 42
0.4142135623730922
 10
-2.953553390593191
 20
-17.42928932188144
 42
0.0
 10
-4.299999999999908
 20
-18.77573593128815
 42
0.0
 10
-4.299999999999909
 20
-18.50000000000019
 42
0.0
 10
-3.459862923360513
 20
-17.0448398979382
 42
0.3152987888789714
 10
-3.559843884025843
 20
-15.90205228825172
 42
0.0
 10
-4.299999999999907
 20
-15.01996857795924
 42
0.0
 10
-4.299999999999909
 20
-12.30000000000015
 42
0.0
 97
        1
330
2C07
 75
     0
 76
     1
 52
0.0
 41
0.4
 77
     0
 78
     2
 53
45.0
 43
0.0
 44
0.0
 45
-0.8980256121069151
 46
0.8980256121069153
 79
     0
 53
135.0
 43
0.0
 44
0.0
 45
-0.8980256121069153
 46
-0.8980256121069151
 79
     0
 47
0.0569593147751606
 98
        3
 10
-2.80745315721924
 20
-2.411777091431304
 10
-2.80745315721924
 20
-2.411777091431304
 10
-2.80745315721924
 20
-2.411777091431304
1001
ACAD
1010
0.0
1020
0.0
1030
0.0
1001
AcDbBlockRepETag
1070
     1
1071
        4
1005
2C09
  0
HATCH
  5
2C1D
330
1F37
100
AcDbEntity
  8
Dichtungen
100
AcDbHatch
 10
0.0
 20
0.0
 30
0.0
210
0.0
220
0.0
230
1.0
  2
SOLID
 70
     1
 71
     1
 91
        1
 92
        1
 93
        1
 72
     2
 10
-0.1999999999998838
 20
-19.50000000000016
 40
0.2270269807753889
 50
0.0
 51
360.0
 73
     1
 97
        1
330
2C1E
 75
     0
 76
     1
 98
        1
 10
-1006.175094846241
 20
-441.6450035416293
450
        0
451
        0
460
0.0
461
0.0
452
        0
462
0.0
453
        0
470

1001
ACAD
1010
0.0
1020
0.0
1030
0.0
1001
AcDbBlockRepETag
1070
     1
1071
        3
1005
2C1D
  0
CIRCLE
  5
2C1E
102
{ACAD_REACTORS
330
2C1D
102
}
330
1F37
100
AcDbEntity
  8
Dichtungen
100
AcDbCircle
 10
-0.1999999999998838
 20
-19.50000000000016
 30
0.0
 40
0.2270269807753889
1001
AcDbBlockRepETag
1070
     1
1071
        5
1005
2C1E
  0
ENDBLK
  5
1F3F
330
1F37
100
AcDbEntity
  8
0
100
AcDbBlockEnd
  0
BLOCK
  5
1F42
330
1F40
100
AcDbEntity
  8
0
100
AcDbBlockBegin
  2
D-Überschlag
 70
     0
 10
0.0
 20
0.0
 30
0.0
  3
D-Überschlag
  1

  0
LWPOLYLINE
  5
2BEF
330
1F40
100
AcDbEntity
  8
Dichtungen
100
AcDbPolyline
 90
       20
 70
     1
 43
0.0
 10
-1.100000000000362
 20
2.541421356237831
 10
-1.100000000000362
 20
4.500000000000452
 42
0.4142135623730864
 10
-2.100000000000362
 20
5.500000000000452
 10
-5.24199999999996
 20
5.500000000000452
 10
-5.24199999999996
 20
5.500000000000452
 42
-0.4142135623730951
 10
-4.24199999999996
 20
6.500000000000452
 10
-5.0
 20
12.15358983848682
 10
-5.200000000000271
 20
12.50000000000045
 10
-5.200000000000271
 20
12.40000000000054
 42
-0.9999999999999998
 10
-6.0
 20
12.40000000000054
 10
-6.0
 20
14.50000000000023
 42
-0.6068148963145993
 10
-5.213211781824611
 20
14.90957602214507
 10
-3.0
 20
13.35986844885701
 10
-0.7867882181758433
 20
14.90957602214507
 42
-0.6068148963145922
 10
0.0
 20
14.50000000000023
 10
0.0
 20
2.000000000000452
 42
-0.6681786379192928
 10
-1.707106781186894
 20
1.292893218814014
 10
-3.0
 20
2.585786437627346
 10
-2.434314575050847
 20
3.151471862576725
 10
-1.612132034356363
 20
2.329289321882014
 42
0.6681786379192941
1001
AcDbBlockRepETag
1070
     1
1071
        0
1005
2BEF
  0
LWPOLYLINE
  5
2BF0
330
1F40
100
AcDbEntity
  8
Dichtungen
100
AcDbPolyline
 90
       10
 70
     1
 43
0.0
 10
-4.467949192431206
 20
12.23205080756929
 10
-5.200000000000271
 20
13.50000000000045
 10
-5.200000000000271
 20
13.92370536190924
 10
-3.286788218175843
 20
12.58406005008373
 42
0.3152987888789827
 10
-2.71321178182461
 20
12.58406005008373
 10
-1.100000000000362
 20
13.71364310044623
 10
-1.100000000000362
 20
7.000000000000452
 42
-0.4142135623730951
 10
-1.600000000000362
 20
6.500000000000452
 10
-3.442000000000233
 20
6.500000000000452
 10
-4.118586108390444
 20
11.23205080756929
 42
0.0557712343996485
1001
AcDbBlockRepETag
1070
     1
1071
        1
1005
2BF0
  0
HATCH
  5
2BF1
330
1F40
100
AcDbEntity
  8
Dichtungen
100
AcDbHatch
 10
0.0
 20
0.0
 30
0.0
210
0.0
220
0.0
230
1.0
  2
ANSI37
 70
     0
 71
     0
 91
        3
 92
        5
 93
       19
 72
     3
 10
-5.5
 20
14.50000000000045
 11
-0.3535533905932914
 21
-0.3535533905932913
 40
0.9999999999999099
 50
190.0000000000208
 51
314.9999999999999
 73
     1
 72
     1
 10
-6.0
 20
14.50000000000045
 11
-6.0
 21
12.40000000000054
 72
     3
 10
-5.600000000000137
 20
12.40000000000054
 11
-0.2828427124745469
 21
-0.2828427124745469
 40
0.999999999999828
 50
314.9999999999999
 51
494.9999999999997
 73
     1
 72
     1
 10
-5.200000000000271
 20
12.40000000000054
 11
-5.200000000000271
 21
12.50000000000045
 72
     1
 10
-5.200000000000271
 20
12.50000000000045
 11
-5.0
 21
12.15358983848682
 72
     1
 10
-5.0
 20
12.15358983848682
 11
-4.24199999999996
 21
6.500000000000453
 72
     3
 10
-4.24199999999996
 20
5.500000000000452
 11
0.7071067811865533
 21
-0.7071067811865534
 40
0.9999999999999838
 50
135.0
 51
225.0
 73
     1
 72
     1
 10
-5.24199999999996
 20
5.500000000000452
 11
-2.100000000000362
 21
5.500000000000452
 72
     3
 10
-2.100000000000362
 20
4.500000000000452
 11
-0.7071067811865533
 21
-0.7071067811865534
 40
0.9999999999999838
 50
135.0
 51
225.0
 73
     0
 72
     1
 10
-1.100000000000362
 20
4.500000000000452
 11
-1.100000000000362
 21
2.541421356237831
 72
     3
 10
-1.400000000000318
 20
2.541421356237889
 11
-0.2121320343559602
 21
-0.2121320343559602
 40
0.9999999999998323
 50
225.0000000000109
 51
360.000000000023
 73
     0
 72
     1
 10
-1.612132034356363
 20
2.329289321882014
 11
-2.434314575050847
 21
3.151471862576725
 72
     1
 10
-2.434314575050847
 20
3.151471862576725
 11
-3.0
 21
2.585786437627346
 72
     1
 10
-3.0
 20
2.585786437627346
 11
-1.707106781186894
 21
1.292893218814014
 72
     3
 10
-1.000000000000113
 20
2.000000000000566
 11
-0.707106781186667
 21
-0.707106781186667
 40
0.9999999999999499
 50
0.0
 51
135.0
 73
     1
 72
     1
 10
0.0
 20
2.000000000000566
 11
0.0
 21
14.50000000000028
 72
     3
 10
-0.5000000000002274
 20
14.50000000000028
 11
0.3535533905934777
 21
-0.3535533905934777
 40
0.9999999999999491
 50
44.99999999999999
 51
169.9999999999893
 73
     1
 72
     1
 10
-0.7867882181758433
 20
14.90957602214507
 11
-3.0
 21
13.35986844885701
 72
     1
 10
-3.0
 20
13.35986844885701
 11
-5.213211781824611
 21
14.90957602214507
 97
        0
 92
       20
 93
       10
 72
     3
 10
-3.000000000000226
 20
12.99363607222835
 11
0.3535533905933945
 21
-0.3535533905933946
 40
0.9999999999999602
 50
-80.00000000000055
 51
-9.999999999985018
 73
     1
 72
     1
 10
-2.713211781824496
 20
12.58406005008379
 11
-1.100000000000362
 21
13.71364310044623
 72
     1
 10
-1.100000000000362
 20
13.71364310044623
 11
-1.100000000000362
 21
7.000000000000453
 72
     3
 10
-1.600000000000362
 20
7.000000000000452
 11
-0.353553390593285
 21
-0.3535533905932851
 40
0.9999999999999358
 50
225.0
 51
315.0
 73
     0
 72
     1
 10
-1.600000000000362
 20
6.500000000000452
 11
-3.442000000000233
 21
6.500000000000452
 72
     1
 10
-3.442000000000233
 20
6.500000000000452
 11
-4.118586108390444
 21
11.23205080756929
 72
     3
 10
-8.761922415472895
 20
10.17086779733375
 11
3.367987636698287
 21
-3.367987636698287
 40
0.9999999999996191
 50
57.87323078304551
 51
70.64182853094493
 73
     1
 72
     1
 10
-4.467949192431206
 20
12.23205080756929
 11
-5.200000000000271
 21
13.50000000000045
 72
     1
 10
-5.200000000000271
 20
13.50000000000045
 11
-5.200000000000271
 21
13.92370536190924
 72
     1
 10
-5.200000000000271
 20
13.92370536190924
 11
-3.286788218175843
 21
12.58406005008373
 97
        0
 92
       20
 93
        2
 72
     3
 10
-0.5779999999999747
 20
14.39100000000047
 11
0.1605323176186189
 21
-0.1605323176186188
 40
0.9999999999993606
 50
135.0
 51
315.0
 73
     0
 72
     3
 10
-0.5779999999999747
 20
14.39100000000047
 11
0.1605323176186244
 21
-0.1605323176186244
 40
0.9999999999995424
 50
314.9999999999999
 51
494.9999999999997
 73
     0
 97
        0
 75
     0
 76
     1
 52
0.0
 41
0.4
 77
     0
 78
     2
 53
45.0
 43
0.0
 44
-0.0000000000000009
 45
-0.8980256121069151
 46
0.898025612106915
 79
     0
 53
135.0
 43
0.0
 44
-0.0000000000000009
 45
-0.898025612106915
 46
-0.8980256121069151
 79
     0
 47
0.0737449119884942
 98
        5
 10
-950.7515759401572
 20
-394.0578210732006
 10
-950.7515759401572
 20
-394.0578210732006
 10
-950.7515759401572
 20
-394.0578210732006
 10
-947.6904334609178
 20
-397.4644045633183
 10
-947.6904334609178
 20
-397.4644045633183
1001
AcDbBlockRepETag
1070
     1
1071
        2
1005
2BF1
1001
ACAD
1010
0.0
1020
0.0
1030
0.0
  0
HATCH
  5
2BF2
330
1F40
100
AcDbEntity
  8
Dichtungen
100
AcDbHatch
 10
0.0
 20
0.0
 30
0.0
210
0.0
220
0.0
230
1.0
  2
SOLID
 70
     1
 71
     1
 91
        1
 92
        1
 93
        1
 72
     2
 10
-0.5779999999999747
 20
14.39100000000047
 40
0.2270269807753889
 50
0.0
 51
360.0
 73
     1
 97
        1
330
2BF3
 75
     0
 76
     1
 98
        1
 10
-1006.553094846241
 20
-407.7540035416286
450
        0
451
        0
460
0.0
461
0.0
452
        0
462
0.0
453
        0
470

1001
ACAD
1010
0.0
1020
0.0
1030
0.0
1001
AcDbBlockRepETag
1070
     1
1071
        3
1005
2BF2
  0
CIRCLE
  5
2BF3
102
{ACAD_REACTORS
330
2BF2
102
}
330
1F40
100
AcDbEntity
  8
Dichtungen
100
AcDbCircle
 10
-0.5779999999999747
 20
14.39100000000047
 30
0.0
 40
0.2270269807753889
1001
AcDbBlockRepETag
1070
     1
1071
        4
1005
2BF3
  0
ENDBLK
  5
1F46
330
1F40
100
AcDbEntity
  8
0
100
AcDbBlockEnd
  0
BLOCK
  5
2108
330
20FE
100
AcDbEntity
  8
0
100
AcDbBlockBegin
  2
*D3
 70
     1
 10
0.0
 20
0.0
 30
0.0
  3
*D3
  1

  0
LINE
  5
2270
330
20FE
100
AcDbEntity
  8
Bemaßung
 62
     0
370
    -2
100
AcDbLine
 10
142.4856009037604
 20
185.686802528423
 30
0.0
 11
150.5461294456066
 21
185.686802528423
 31
0.0
  0
LINE
  5
2271
330
20FE
100
AcDbEntity
  8
Bemaßung
 62
     0
370
    -2
100
AcDbLine
 10
148.6711294456066
 20
148.6868051195223
 30
0.0
 11
148.0461294456066
 21
148.6868051195223
 31
0.0
  0
LINE
  5
2272
330
20FE
100
AcDbEntity
  8
Bemaßung
 62
     0
370
    -2
100
AcDbLine
 10
149.2961294456066
 20
185.686802528423
 30
0.0
 11
149.2961294456066
 21
148.6868051195223
 31
0.0
  0
INSERT
  5
2273
330
20FE
100
AcDbEntity
  8
Bemaßung
 62
     0
370
    -2
100
AcDbBlockReference
  2
_Oblique
 10
149.2961294456066
 20
185.686802528423
 30
0.0
 41
2.5
 42
2.5
 43
2.5
 50
90.0
  0
INSERT
  5
2274
330
20FE
100
AcDbEntity
  8
Bemaßung
 62
     0
370
    -2
100
AcDbBlockReference
  2
_Oblique
 10
149.2961294456066
 20
148.6868051195223
 30
0.0
 41
2.5
 42
2.5
 43
2.5
 50
270.0
  0
MTEXT
  5
2275
330
20FE
100
AcDbEntity
  8
Bemaßung
 62
     0
100
AcDbMText
 10
147.4211294456065
 20
167.1868038239727
 30
0.0
 40
2.5
 41
0.0
 71
     5
 72
     1
  1
37
  7
RomanS
 11
0.0000000000000001
 21
1.0
 31
0.0
 73
     1
 44
1.0
  0
POINT
  5
2276
330
20FE
100
AcDbEntity
  8
Defpoints
 62
     0
100
AcDbPoint
 10
141.8606009037604
 20
185.686802528423
 30
0.0
  0
POINT
  5
2277
330
20FE
100
AcDbEntity
  8
Defpoints
 62
     0
100
AcDbPoint
 10
149.2961294456066
 20
148.6868051195223
 30
0.0
  0
POINT
  5
2278
330
20FE
100
AcDbEntity
  8
Defpoints
 62
     0
100
AcDbPoint
 10
149.2961294456066
 20
148.6868051195223
 30
0.0
  0
ENDBLK
  5
2109
330
20FE
100
AcDbEntity
  8
0
100
AcDbBlockEnd
  0
BLOCK
  5
2114
330
210A
100
AcDbEntity
  8
0
100
AcDbBlockBegin
  2
*D4
 70
     1
 10
0.0
 20
0.0
 30
0.0
  3
*D4
  1

  0
LINE
  5
2279
330
210A
100
AcDbEntity
  8
Bemaßung
 62
     0
370
    -2
100
AcDbLine
 10
86.42112944560722
 20
88.68680511952252
 30
0.0
 11
79.42093226343968
 21
88.68680511952252
 31
0.0
  0
LINE
  5
227A
330
210A
100
AcDbEntity
  8
Bemaßung
 62
     0
370
    -2
100
AcDbLine
 10
85.48605697658604
 20
70.68680511952229
 30
0.0
 11
79.42093226343968
 21
70.68680511952229
 31
0.0
  0
LINE
  5
227B
330
210A
100
AcDbEntity
  8
Bemaßung
 62
     0
370
    -2
100
AcDbLine
 10
80.67093226343969
 20
88.68680511952252
 30
0.0
 11
80.67093226343969
 21
70.68680511952229
 31
0.0
  0
INSERT
  5
227C
330
210A
100
AcDbEntity
  8
Bemaßung
 62
     0
370
    -2
100
AcDbBlockReference
  2
_Oblique
 10
80.67093226343969
 20
88.68680511952252
 30
0.0
 41
2.5
 42
2.5
 43
2.5
 50
90.0
  0
INSERT
  5
227D
330
210A
100
AcDbEntity
  8
Bemaßung
 62
     0
370
    -2
100
AcDbBlockReference
  2
_Oblique
 10
80.67093226343969
 20
70.68680511952229
 30
0.0
 41
2.5
 42
2.5
 43
2.5
 50
270.0
  0
MTEXT
  5
227E
330
210A
100
AcDbEntity
  8
Bemaßung
 62
     0
100
AcDbMText
 10
78.79593226343968
 20
79.68680511952242
 30
0.0
 40
2.5
 41
0.0
 71
     5
 72
     1
  1
18
  7
RomanS
 11
0.0000000000000001
 21
1.0
 31
0.0
 73
     1
 44
1.0
  0
POINT
  5
227F
330
210A
100
AcDbEntity
  8
Defpoints
 62
     0
100
AcDbPoint
 10
87.04612944560722
 20
88.68680511952252
 30
0.0
  0
POINT
  5
2280
330
210A
100
AcDbEntity
  8
Defpoints
 62
     0
100
AcDbPoint
 10
86.11105697658606
 20
70.68680511952229
 30
0.0
  0
POINT
  5
2281
330
210A
100
AcDbEntity
  8
Defpoints
 62
     0
100
AcDbPoint
 10
80.67093226343969
 20
70.68680511952229
 30
0.0
  0
ENDBLK
  5
2115
330
210A
100
AcDbEntity
  8
0
100
AcDbBlockEnd
  0
BLOCK
  5
2120
330
2116
100
AcDbEntity
  8
0
100
AcDbBlockBegin
  2
*D5
 70
     1
 10
0.0
 20
0.0
 30
0.0
  3
*D5
  1

  0
LINE
  5
228B
330
2116
100
AcDbEntity
  8
Bemaßung
 62
     0
370
    -2
100
AcDbLine
 10
69.31482780912779
 20
107.686805119522
 30
0.0
 11
64.63398883541163
 21
107.686805119522
 31
0.0
  0
LINE
  5
228C
330
2116
100
AcDbEntity
  8
Bemaßung
 62
     0
370
    -2
100
AcDbLine
 10
65.25898883541163
 20
114.7546554689262
 30
0.0
 11
64.63398883541163
 21
114.7546554689262
 31
0.0
  0
LINE
  5
228D
330
2116
100
AcDbEntity
  8
Bemaßung
 62
     0
370
    -2
100
AcDbLine
 10
65.88398883541163
 20
107.686805119522
 30
0.0
 11
65.88398883541163
 21
114.7546554689262
 31
0.0
  0
INSERT
  5
228E
330
2116
100
AcDbEntity
  8
Bemaßung
 62
     0
370
    -2
100
AcDbBlockReference
  2
_Oblique
 10
65.88398883541163
 20
107.686805119522
 30
0.0
 41
2.5
 42
2.5
 43
2.5
 50
270.0
  0
INSERT
  5
228F
330
2116
100
AcDbEntity
  8
Bemaßung
 62
     0
370
    -2
100
AcDbBlockReference
  2
_Oblique
 10
65.88398883541163
 20
114.7546554689262
 30
0.0
 41
2.5
 42
2.5
 43
2.5
 50
90.0
  0
MTEXT
  5
2290
330
2116
100
AcDbEntity
  8
Bemaßung
 62
     0
100
AcDbMText
 10
63.77089359731638
 20
111.2207302942241
 30
0.0
 40
2.5
 41
0.0
 71
     5
 72
     1
  1
7,1
  7
RomanS
 11
0.0000000000000001
 21
1.0
 31
0.0
 73
     1
 44
1.0
  0
POINT
  5
2291
330
2116
100
AcDbEntity
  8
Defpoints
 62
     0
100
AcDbPoint
 10
69.93982780912779
 20
107.686805119522
 30
0.0
  0
POINT
  5
2292
330
2116
100
AcDbEntity
  8
Defpoints
 62
     0
100
AcDbPoint
 10
65.88398883541163
 20
114.7546554689262
 30
0.0
  0
POINT
  5
2293
330
2116
100
AcDbEntity
  8
Defpoints
 62
     0
100
AcDbPoint
 10
65.88398883541163
 20
114.7546554689262
 30
0.0
  0
ENDBLK
  5
2121
330
2116
100
AcDbEntity
  8
0
100
AcDbBlockEnd
  0
BLOCK
  5
2171
330
2167
100
AcDbEntity
  8
0
100
AcDbBlockBegin
  2
*D6
 70
     1
 10
0.0
 20
0.0
 30
0.0
  3
*D6
  1

  0
LINE
  5
23F8
330
2167
100
AcDbEntity
  8
Bemaßung
 62
     0
370
    -2
100
AcDbLine
 10
126.5570252574796
 20
130.6868051195225
 30
0.0
 11
125.9320252574796
 21
130.6868051195225
 31
0.0
  0
LINE
  5
23F9
330
2167
100
AcDbEntity
  8
Bemaßung
 62
     0
370
    -2
100
AcDbLine
 10
126.5570252574796
 20
142.6868051195222
 30
0.0
 11
125.9320252574796
 21
142.6868051195222
 31
0.0
  0
LINE
  5
23FA
330
2167
100
AcDbEntity
  8
Bemaßung
 62
     0
370
    -2
100
AcDbLine
 10
127.1820252574796
 20
130.6868051195225
 30
0.0
 11
127.1820252574796
 21
142.6868051195222
 31
0.0
  0
INSERT
  5
23FB
330
2167
100
AcDbEntity
  8
Bemaßung
 62
     0
370
    -2
100
AcDbBlockReference
  2
_Oblique
 10
127.1820252574796
 20
130.6868051195225
 30
0.0
 41
2.5
 42
2.5
 43
2.5
 50
270.0
  0
INSERT
  5
23FC
330
2167
100
AcDbEntity
  8
Bemaßung
 62
     0
370
    -2
100
AcDbBlockReference
  2
_Oblique
 10
127.1820252574796
 20
142.6868051195222
 30
0.0
 41
2.5
 42
2.5
 43
2.5
 50
90.0
  0
MTEXT
  5
23FD
330
2167
100
AcDbEntity
  8
Bemaßung
 62
     0
100
AcDbMText
 10
125.3070252574796
 20
136.6868051195224
 30
0.0
 40
2.5
 41
0.0
 71
     5
 72
     1
  1
12
  7
RomanS
 11
0.0000000000000001
 21
1.0
 31
0.0
 73
     1
 44
1.0
  0
POINT
  5
23FE
330
2167
100
AcDbEntity
  8
Defpoints
 62
     0
100
AcDbPoint
 10
127.1820252574796
 20
130.6868051195225
 30
0.0
  0
POINT
  5
23FF
330
2167
100
AcDbEntity
  8
Defpoints
 62
     0
100
AcDbPoint
 10
127.1820252574796
 20
142.6868051195222
 30
0.0
  0
POINT
  5
2400
330
2167
100
AcDbEntity
  8
Defpoints
 62
     0
100
AcDbPoint
 10
127.1820252574796
 20
142.6868051195222
 30
0.0
  0
ENDBLK
  5
2172
330
2167
100
AcDbEntity
  8
0
100
AcDbBlockEnd
  0
BLOCK
  5
22D6
330
22CC
100
AcDbEntity
  8
0
100
AcDbBlockBegin
  2
*D7
 70
     1
 10
0.0
 20
0.0
 30
0.0
  3
*D7
  1

  0
LINE
  5
283C
330
22CC
100
AcDbEntity
  8
Bemaßung
 62
     0
370
    -2
100
AcDbLine
 10
148.6711294456066
 20
185.686802528423
 30
0.0
 11
148.0461294456065
 21
185.686802528423
 31
0.0
  0
LINE
  5
283D
330
22CC
100
AcDbEntity
  8
Bemaßung
 62
     0
370
    -2
100
AcDbLine
 10
143.9836294456068
 20
210.6868051195222
 30
0.0
 11
150.5461294456066
 21
210.6868051195222
 31
0.0
  0
LINE
  5
283E
330
22CC
100
AcDbEntity
  8
Bemaßung
 62
     0
370
    -2
100
AcDbLine
 10
149.2961294456065
 20
185.686802528423
 30
0.0
 11
149.2961294456066
 21
210.6868051195222
 31
0.0
  0
INSERT
  5
283F
330
22CC
100
AcDbEntity
  8
Bemaßung
 62
     0
370
    -2
100
AcDbBlockReference
  2
_Oblique
 10
149.2961294456065
 20
185.686802528423
 30
0.0
 41
2.5
 42
2.5
 43
2.5
 50
270.0
  0
INSERT
  5
2840
330
22CC
100
AcDbEntity
  8
Bemaßung
 62
     0
370
    -2
100
AcDbBlockReference
  2
_Oblique
 10
149.2961294456066
 20
210.6868051195222
 30
0.0
 41
2.5
 42
2.5
 43
2.5
 50
90.0
  0
MTEXT
  5
2841
330
22CC
100
AcDbEntity
  8
Bemaßung
 62
     0
100
AcDbMText
 10
146.7663675408446
 20
198.1868038239726
 30
0.0
 40
2.5
 41
0.0
 71
     5
 72
     1
  1
25 (130)
  7
RomanS
 11
0.0000000000000001
 21
1.0
 31
0.0
 73
     1
 44
1.0
  0
POINT
  5
2842
330
22CC
100
AcDbEntity
  8
Defpoints
 62
     0
100
AcDbPoint
 10
149.2961294456066
 20
185.686802528423
 30
0.0
  0
POINT
  5
2843
330
22CC
100
AcDbEntity
  8
Defpoints
 62
     0
100
AcDbPoint
 10
143.3586294456068
 20
210.6868051195222
 30
0.0
  0
POINT
  5
2844
330
22CC
100
AcDbEntity
  8
Defpoints
 62
     0
100
AcDbPoint
 10
149.2961294456066
 20
210.6868051195222
 30
0.0
  0
ENDBLK
  5
22D7
330
22CC
100
AcDbEntity
  8
0
100
AcDbBlockEnd
  0
BLOCK
  5
238D
330
2383
100
AcDbEntity
  8
0
100
AcDbBlockBegin
  2
*D8
 70
     1
 10
0.0
 20
0.0
 30
0.0
  3
*D8
  1

  0
LINE
  5
23AF
330
2383
100
AcDbEntity
  8
Bemaßung
 62
     0
370
    -2
100
AcDbLine
 10
138.5461294456067
 20
126.6166609406773
 30
0.0
 11
138.5461294456067
 21
127.2416609406773
 31
0.0
  0
LINE
  5
23B0
330
2383
100
AcDbEntity
  8
Bemaßung
 62
     0
370
    -2
100
AcDbLine
 10
155.046129445607
 20
126.6166609406773
 30
0.0
 11
155.046129445607
 21
127.2416609406773
 31
0.0
  0
LINE
  5
23B1
330
2383
100
AcDbEntity
  8
Bemaßung
 62
     0
370
    -2
100
AcDbLine
 10
138.5461294456067
 20
125.9916609406773
 30
0.0
 11
155.046129445607
 21
125.9916609406773
 31
0.0
  0
INSERT
  5
23B2
330
2383
100
AcDbEntity
  8
Bemaßung
 62
     0
370
    -2
100
AcDbBlockReference
  2
_Oblique
 10
138.5461294456067
 20
125.9916609406773
 30
0.0
 41
2.5
 42
2.5
 43
2.5
 50
180.0
  0
INSERT
  5
23B3
330
2383
100
AcDbEntity
  8
Bemaßung
 62
     0
370
    -2
100
AcDbBlockReference
  2
_Oblique
 10
155.046129445607
 20
125.9916609406773
 30
0.0
 41
2.5
 42
2.5
 43
2.5
  0
MTEXT
  5
23B4
330
2383
100
AcDbEntity
  8
Bemaßung
 62
     0
100
AcDbMText
 10
146.7961294456068
 20
128.1047561787725
 30
0.0
 40
2.5
 41
0.0
 71
     5
 72
     1
  1
16,5
  7
RomanS
 73
     1
 44
1.0
  0
POINT
  5
23B5
330
2383
100
AcDbEntity
  8
Defpoints
 62
     0
100
AcDbPoint
 10
138.5461294456067
 20
125.9916609406773
 30
0.0
  0
POINT
  5
23B6
330
2383
100
AcDbEntity
  8
Defpoints
 62
     0
100
AcDbPoint
 10
155.046129445607
 20
125.9916609406773
 30
0.0
  0
POINT
  5
23B7
330
2383
100
AcDbEntity
  8
Defpoints
 62
     0
100
AcDbPoint
 10
155.046129445607
 20
125.9916609406773
 30
0.0
  0
ENDBLK
  5
238E
330
2383
100
AcDbEntity
  8
0
100
AcDbBlockEnd
  0
BLOCK
  5
23E2
330
23D8
100
AcDbEntity
  8
0
100
AcDbBlockBegin
  2
*D9
 70
     1
 10
0.0
 20
0.0
 30
0.0
  3
*D9
  1

  0
LINE
  5
23E5
330
23D8
100
AcDbEntity
  8
Bemaßung
 62
     0
370
    -2
100
AcDbLine
 10
98.42112944560746
 20
118.6868051195221
 30
0.0
 11
97.79612944560732
 21
118.6868051195221
 31
0.0
  0
LINE
  5
23E6
330
23D8
100
AcDbEntity
  8
Bemaßung
 62
     0
370
    -2
100
AcDbLine
 10
98.42112944560732
 20
122.6868051195221
 30
0.0
 11
97.79612944560732
 21
122.6868051195221
 31
0.0
  0
LINE
  5
23E7
330
23D8
100
AcDbEntity
  8
Bemaßung
 62
     0
370
    -2
100
AcDbLine
 10
99.04612944560732
 20
118.6868051195221
 30
0.0
 11
99.04612944560732
 21
122.6868051195221
 31
0.0
  0
INSERT
  5
23E8
330
23D8
100
AcDbEntity
  8
Bemaßung
 62
     0
370
    -2
100
AcDbBlockReference
  2
_Oblique
 10
99.04612944560732
 20
118.6868051195221
 30
0.0
 41
2.5
 42
2.5
 43
2.5
 50
270.0
  0
INSERT
  5
23E9
330
23D8
100
AcDbEntity
  8
Bemaßung
 62
     0
370
    -2
100
AcDbBlockReference
  2
_Oblique
 10
99.04612944560732
 20
122.6868051195221
 30
0.0
 41
2.5
 42
2.5
 43
2.5
 50
90.0
  0
MTEXT
  5
23EA
330
23D8
100
AcDbEntity
  8
Bemaßung
 62
     0
100
AcDbMText
 10
97.17112944560732
 20
120.6868051195221
 30
0.0
 40
2.5
 41
0.0
 71
     5
 72
     1
  1
4
  7
RomanS
 11
0.0000000000000001
 21
1.0
 31
0.0
 73
     1
 44
1.0
  0
POINT
  5
23EB
330
23D8
100
AcDbEntity
  8
Defpoints
 62
     0
100
AcDbPoint
 10
99.04612944560746
 20
118.6868051195221
 30
0.0
  0
POINT
  5
23EC
330
23D8
100
AcDbEntity
  8
Defpoints
 62
     0
100
AcDbPoint
 10
99.04612944560732
 20
122.6868051195221
 30
0.0
  0
POINT
  5
23ED
330
23D8
100
AcDbEntity
  8
Defpoints
 62
     0
100
AcDbPoint
 10
99.04612944560732
 20
122.6868051195221
 30
0.0
  0
ENDBLK
  5
23E3
330
23D8
100
AcDbEntity
  8
0
100
AcDbBlockEnd
  0
BLOCK
  5
240C
330
2402
100
AcDbEntity
  8
0
100
AcDbBlockBegin
  2
*D10
 70
     1
 10
0.0
 20
0.0
 30
0.0
  3
*D10
  1

  0
LINE
  5
2422
330
2402
100
AcDbEntity
  8
Bemaßung
 62
     0
370
    -2
100
AcDbLine
 10
126.5570252574796
 20
122.6868051195223
 30
0.0
 11
125.9320252574796
 21
122.6868051195223
 31
0.0
  0
LINE
  5
2423
330
2402
100
AcDbEntity
  8
Bemaßung
 62
     0
370
    -2
100
AcDbLine
 10
126.5570252574796
 20
130.6868051195225
 30
0.0
 11
125.9320252574796
 21
130.6868051195225
 31
0.0
  0
LINE
  5
2424
330
2402
100
AcDbEntity
  8
Bemaßung
 62
     0
370
    -2
100
AcDbLine
 10
127.1820252574796
 20
122.6868051195223
 30
0.0
 11
127.1820252574796
 21
130.6868051195225
 31
0.0
  0
INSERT
  5
2425
330
2402
100
AcDbEntity
  8
Bemaßung
 62
     0
370
    -2
100
AcDbBlockReference
  2
_Oblique
 10
127.1820252574796
 20
122.6868051195223
 30
0.0
 41
2.5
 42
2.5
 43
2.5
 50
270.0
  0
INSERT
  5
2426
330
2402
100
AcDbEntity
  8
Bemaßung
 62
     0
370
    -2
100
AcDbBlockReference
  2
_Oblique
 10
127.1820252574796
 20
130.6868051195225
 30
0.0
 41
2.5
 42
2.5
 43
2.5
 50
90.0
  0
MTEXT
  5
2427
330
2402
100
AcDbEntity
  8
Bemaßung
 62
     0
100
AcDbMText
 10
125.3070252574796
 20
126.6868051195224
 30
0.0
 40
2.5
 41
0.0
 71
     5
 72
     1
  1
8
  7
RomanS
 11
0.0000000000000001
 21
1.0
 31
0.0
 73
     1
 44
1.0
  0
POINT
  5
2428
330
2402
100
AcDbEntity
  8
Defpoints
 62
     0
100
AcDbPoint
 10
127.1820252574796
 20
122.6868051195223
 30
0.0
  0
POINT
  5
2429
330
2402
100
AcDbEntity
  8
Defpoints
 62
     0
100
AcDbPoint
 10
127.1820252574796
 20
130.6868051195225
 30
0.0
  0
POINT
  5
242A
330
2402
100
AcDbEntity
  8
Defpoints
 62
     0
100
AcDbPoint
 10
127.1820252574796
 20
130.6868051195225
 30
0.0
  0
ENDBLK
  5
240D
330
2402
100
AcDbEntity
  8
0
100
AcDbBlockEnd
  0
BLOCK
  5
243E
330
2434
100
AcDbEntity
  8
0
100
AcDbBlockBegin
  2
*D11
 70
     1
 10
0.0
 20
0.0
 30
0.0
  3
*D11
  1

  0
LINE
  5
28B5
330
2434
100
AcDbEntity
  8
Bemaßung
 62
     0
370
    -2
100
AcDbLine
 10
148.6711294456066
 20
210.6868025284231
 30
0.0
 11
148.0461294456066
 21
210.6868025284231
 31
0.0
  0
LINE
  5
28B6
330
2434
100
AcDbEntity
  8
Bemaßung
 62
     0
370
    -2
100
AcDbLine
 10
143.9836294456068
 20
235.6868051195223
 30
0.0
 11
150.5461294456066
 21
235.6868051195223
 31
0.0
  0
LINE
  5
28B7
330
2434
100
AcDbEntity
  8
Bemaßung
 62
     0
370
    -2
100
AcDbLine
 10
149.2961294456066
 20
210.6868025284231
 30
0.0
 11
149.2961294456066
 21
235.6868051195223
 31
0.0
  0
INSERT
  5
28B8
330
2434
100
AcDbEntity
  8
Bemaßung
 62
     0
370
    -2
100
AcDbBlockReference
  2
_Oblique
 10
149.2961294456066
 20
210.6868025284231
 30
0.0
 41
2.5
 42
2.5
 43
2.5
 50
270.0
  0
INSERT
  5
28B9
330
2434
100
AcDbEntity
  8
Bemaßung
 62
     0
370
    -2
100
AcDbBlockReference
  2
_Oblique
 10
149.2961294456066
 20
235.6868051195223
 30
0.0
 41
2.5
 42
2.5
 43
2.5
 50
90.0
  0
MTEXT
  5
28BA
330
2434
100
AcDbEntity
  8
Bemaßung
 62
     0
100
AcDbMText
 10
146.7663675408446
 20
223.1868038239727
 30
0.0
 40
2.5
 41
0.0
 71
     5
 72
     1
  1
25 (130)
  7
RomanS
 11
0.0000000000000001
 21
1.0
 31
0.0
 73
     1
 44
1.0
  0
POINT
  5
28BB
330
2434
100
AcDbEntity
  8
Defpoints
 62
     0
100
AcDbPoint
 10
149.2961294456066
 20
210.6868025284231
 30
0.0
  0
POINT
  5
28BC
330
2434
100
AcDbEntity
  8
Defpoints
 62
     0
100
AcDbPoint
 10
143.3586294456068
 20
235.6868051195223
 30
0.0
  0
POINT
  5
28BD
330
2434
100
AcDbEntity
  8
Defpoints
 62
     0
100
AcDbPoint
 10
149.2961294456066
 20
235.6868051195223
 30
0.0
  0
ENDBLK
  5
243F
330
2434
100
AcDbEntity
  8
0
100
AcDbBlockEnd
  0
BLOCK
  5
246F
330
2465
100
AcDbEntity
  8
0
100
AcDbBlockBegin
  2
*D12
 70
     1
 10
0.0
 20
0.0
 30
0.0
  3
*D12
  1

  0
LINE
  5
28AC
330
2465
100
AcDbEntity
  8
Bemaßung
 62
     0
370
    -2
100
AcDbLine
 10
70.54612944560739
 20
229.4661304081668
 30
0.0
 11
70.54612944560739
 21
230.0911304081668
 31
0.0
  0
LINE
  5
28AD
330
2465
100
AcDbEntity
  8
Bemaßung
 62
     0
370
    -2
100
AcDbLine
 10
82.44612944560726
 20
229.4661304081668
 30
0.0
 11
82.44612944560726
 21
230.0911304081668
 31
0.0
  0
LINE
  5
28AE
330
2465
100
AcDbEntity
  8
Bemaßung
 62
     0
370
    -2
100
AcDbLine
 10
70.54612944560739
 20
228.8411304081668
 30
0.0
 11
82.44612944560726
 21
228.8411304081668
 31
0.0
  0
INSERT
  5
28AF
330
2465
100
AcDbEntity
  8
Bemaßung
 62
     0
370
    -2
100
AcDbBlockReference
  2
_Oblique
 10
70.54612944560739
 20
228.8411304081668
 30
0.0
 41
2.5
 42
2.5
 43
2.5
 50
180.0
  0
INSERT
  5
28B0
330
2465
100
AcDbEntity
  8
Bemaßung
 62
     0
370
    -2
100
AcDbBlockReference
  2
_Oblique
 10
82.44612944560726
 20
228.8411304081668
 30
0.0
 41
2.5
 42
2.5
 43
2.5
  0
MTEXT
  5
28B1
330
2465
100
AcDbEntity
  8
Bemaßung
 62
     0
100
AcDbMText
 10
76.49612944560733
 20
230.954225646262
 30
0.0
 40
2.5
 41
0.0
 71
     5
 72
     1
  1
11,9
  7
RomanS
 73
     1
 44
1.0
  0
POINT
  5
28B2
330
2465
100
AcDbEntity
  8
Defpoints
 62
     0
100
AcDbPoint
 10
70.54612944560739
 20
228.8411304081668
 30
0.0
  0
POINT
  5
28B3
330
2465
100
AcDbEntity
  8
Defpoints
 62
     0
100
AcDbPoint
 10
82.44612944560726
 20
228.8411304081668
 30
0.0
  0
POINT
  5
28B4
330
2465
100
AcDbEntity
  8
Defpoints
 62
     0
100
AcDbPoint
 10
82.44612944560726
 20
228.8411304081668
 30
0.0
  0
ENDBLK
  5
2470
330
2465
100
AcDbEntity
  8
0
100
AcDbBlockEnd
  0
BLOCK
  5
24A2
330
2498
100
AcDbEntity
  8
0
100
AcDbBlockBegin
  2
*D13
 70
     1
 10
0.0
 20
0.0
 30
0.0
  3
*D13
  1

  0
LINE
  5
28A3
330
2498
100
AcDbEntity
  8
Bemaßung
 62
     0
370
    -2
100
AcDbLine
 10
82.44612944560726
 20
229.4661304081668
 30
0.0
 11
82.44612944560726
 21
230.0911304081668
 31
0.0
  0
LINE
  5
28A4
330
2498
100
AcDbEntity
  8
Bemaßung
 62
     0
370
    -2
100
AcDbLine
 10
92.14612944560736
 20
229.4661304081668
 30
0.0
 11
92.14612944560736
 21
230.0911304081668
 31
0.0
  0
LINE
  5
28A5
330
2498
100
AcDbEntity
  8
Bemaßung
 62
     0
370
    -2
100
AcDbLine
 10
82.44612944560726
 20
228.8411304081668
 30
0.0
 11
92.14612944560736
 21
228.8411304081668
 31
0.0
  0
INSERT
  5
28A6
330
2498
100
AcDbEntity
  8
Bemaßung
 62
     0
370
    -2
100
AcDbBlockReference
  2
_Oblique
 10
82.44612944560726
 20
228.8411304081668
 30
0.0
 41
2.5
 42
2.5
 43
2.5
 50
180.0
  0
INSERT
  5
28A7
330
2498
100
AcDbEntity
  8
Bemaßung
 62
     0
370
    -2
100
AcDbBlockReference
  2
_Oblique
 10
92.14612944560736
 20
228.8411304081668
 30
0.0
 41
2.5
 42
2.5
 43
2.5
  0
MTEXT
  5
28A8
330
2498
100
AcDbEntity
  8
Bemaßung
 62
     0
100
AcDbMText
 10
87.29612944560733
 20
230.954225646262
 30
0.0
 40
2.5
 41
0.0
 71
     5
 72
     1
  1
9,7
  7
RomanS
 73
     1
 44
1.0
  0
POINT
  5
28A9
330
2498
100
AcDbEntity
  8
Defpoints
 62
     0
100
AcDbPoint
 10
82.44612944560726
 20
228.8411304081668
 30
0.0
  0
POINT
  5
28AA
330
2498
100
AcDbEntity
  8
Defpoints
 62
     0
100
AcDbPoint
 10
92.14612944560736
 20
228.8411304081668
 30
0.0
  0
POINT
  5
28AB
330
2498
100
AcDbEntity
  8
Defpoints
 62
     0
100
AcDbPoint
 10
92.14612944560736
 20
228.8411304081668
 30
0.0
  0
ENDBLK
  5
24A3
330
2498
100
AcDbEntity
  8
0
100
AcDbBlockEnd
  0
BLOCK
  5
24AF
330
24A5
100
AcDbEntity
  8
0
100
AcDbBlockBegin
  2
*D14
 70
     1
 10
0.0
 20
0.0
 30
0.0
  3
*D14
  1

  0
LINE
  5
28D9
330
24A5
100
AcDbEntity
  8
Bemaßung
 62
     0
370
    -2
100
AcDbLine
 10
92.14612944560736
 20
229.4661304081668
 30
0.0
 11
92.14612944560736
 21
230.0911304081668
 31
0.0
  0
LINE
  5
28DA
330
24A5
100
AcDbEntity
  8
Bemaßung
 62
     0
370
    -2
100
AcDbLine
 10
102.9461294456077
 20
229.4661304081668
 30
0.0
 11
102.9461294456077
 21
230.0911304081668
 31
0.0
  0
LINE
  5
28DB
330
24A5
100
AcDbEntity
  8
Bemaßung
 62
     0
370
    -2
100
AcDbLine
 10
92.14612944560736
 20
228.8411304081668
 30
0.0
 11
102.9461294456077
 21
228.8411304081668
 31
0.0
  0
INSERT
  5
28DC
330
24A5
100
AcDbEntity
  8
Bemaßung
 62
     0
370
    -2
100
AcDbBlockReference
  2
_Oblique
 10
92.14612944560736
 20
228.8411304081668
 30
0.0
 41
2.5
 42
2.5
 43
2.5
 50
180.0
  0
INSERT
  5
28DD
330
24A5
100
AcDbEntity
  8
Bemaßung
 62
     0
370
    -2
100
AcDbBlockReference
  2
_Oblique
 10
102.9461294456077
 20
228.8411304081668
 30
0.0
 41
2.5
 42
2.5
 43
2.5
  0
MTEXT
  5
28DE
330
24A5
100
AcDbEntity
  8
Bemaßung
 62
     0
100
AcDbMText
 10
97.54612944560754
 20
230.954225646262
 30
0.0
 40
2.5
 41
0.0
 71
     5
 72
     1
  1
10,8
  7
RomanS
 73
     1
 44
1.0
  0
POINT
  5
28DF
330
24A5
100
AcDbEntity
  8
Defpoints
 62
     0
100
AcDbPoint
 10
92.14612944560736
 20
228.8411304081668
 30
0.0
  0
POINT
  5
28E0
330
24A5
100
AcDbEntity
  8
Defpoints
 62
     0
100
AcDbPoint
 10
102.9461294456077
 20
228.8411304081668
 30
0.0
  0
POINT
  5
28E1
330
24A5
100
AcDbEntity
  8
Defpoints
 62
     0
100
AcDbPoint
 10
102.9461294456077
 20
228.8411304081668
 30
0.0
  0
ENDBLK
  5
24B0
330
24A5
100
AcDbEntity
  8
0
100
AcDbBlockEnd
  0
BLOCK
  5
24C7
330
24BD
100
AcDbEntity
  8
0
100
AcDbBlockBegin
  2
*D15
 70
     1
 10
0.0
 20
0.0
 30
0.0
  3
*D15
  1

  0
LINE
  5
28EB
330
24BD
100
AcDbEntity
  8
Bemaßung
 62
     0
370
    -2
100
AcDbLine
 10
102.9461294456077
 20
229.4661304081668
 30
0.0
 11
102.9461294456077
 21
230.0911304081669
 31
0.0
  0
LINE
  5
28EC
330
24BD
100
AcDbEntity
  8
Bemaßung
 62
     0
370
    -2
100
AcDbLine
 10
115.146129445607
 20
229.4661304081669
 30
0.0
 11
115.146129445607
 21
230.0911304081669
 31
0.0
  0
LINE
  5
28ED
330
24BD
100
AcDbEntity
  8
Bemaßung
 62
     0
370
    -2
100
AcDbLine
 10
102.9461294456077
 20
228.8411304081669
 30
0.0
 11
115.146129445607
 21
228.8411304081669
 31
0.0
  0
INSERT
  5
28EE
330
24BD
100
AcDbEntity
  8
Bemaßung
 62
     0
370
    -2
100
AcDbBlockReference
  2
_Oblique
 10
102.9461294456077
 20
228.8411304081669
 30
0.0
 41
2.5
 42
2.5
 43
2.5
 50
180.0
  0
INSERT
  5
28EF
330
24BD
100
AcDbEntity
  8
Bemaßung
 62
     0
370
    -2
100
AcDbBlockReference
  2
_Oblique
 10
115.146129445607
 20
228.8411304081669
 30
0.0
 41
2.5
 42
2.5
 43
2.5
  0
MTEXT
  5
28F0
330
24BD
100
AcDbEntity
  8
Bemaßung
 62
     0
100
AcDbMText
 10
109.0461294456073
 20
230.9542256462621
 30
0.0
 40
2.5
 41
0.0
 71
     5
 72
     1
  1
12,2
  7
RomanS
 73
     1
 44
1.0
  0
POINT
  5
28F1
330
24BD
100
AcDbEntity
  8
Defpoints
 62
     0
100
AcDbPoint
 10
102.9461294456077
 20
228.8411304081668
 30
0.0
  0
POINT
  5
28F2
330
24BD
100
AcDbEntity
  8
Defpoints
 62
     0
100
AcDbPoint
 10
115.146129445607
 20
228.8411304081669
 30
0.0
  0
POINT
  5
28F3
330
24BD
100
AcDbEntity
  8
Defpoints
 62
     0
100
AcDbPoint
 10
115.146129445607
 20
228.8411304081669
 30
0.0
  0
ENDBLK
  5
24C8
330
24BD
100
AcDbEntity
  8
0
100
AcDbBlockEnd
  0
BLOCK
  5
24DF
330
24D5
100
AcDbEntity
  8
0
100
AcDbBlockBegin
  2
*D16
 70
     1
 10
0.0
 20
0.0
 30
0.0
  3
*D16
  1

  0
LINE
  5
2888
330
24D5
100
AcDbEntity
  8
Bemaßung
 62
     0
370
    -2
100
AcDbLine
 10
120.7579061053695
 20
225.6868051195221
 30
0.0
 11
120.1329061053695
 21
225.6868051195221
 31
0.0
  0
LINE
  5
2889
330
24D5
100
AcDbEntity
  8
Bemaßung
 62
     0
370
    -2
100
AcDbLine
 10
120.7579061053695
 20
235.6868051195223
 30
0.0
 11
120.1329061053695
 21
235.6868051195223
 31
0.0
  0
LINE
  5
288A
330
24D5
100
AcDbEntity
  8
Bemaßung
 62
     0
370
    -2
100
AcDbLine
 10
121.3829061053695
 20
225.6868051195221
 30
0.0
 11
121.3829061053695
 21
235.6868051195223
 31
0.0
  0
INSERT
  5
288B
330
24D5
100
AcDbEntity
  8
Bemaßung
 62
     0
370
    -2
100
AcDbBlockReference
  2
_Oblique
 10
121.3829061053695
 20
225.6868051195221
 30
0.0
 41
2.5
 42
2.5
 43
2.5
 50
270.0
  0
INSERT
  5
288C
330
24D5
100
AcDbEntity
  8
Bemaßung
 62
     0
370
    -2
100
AcDbBlockReference
  2
_Oblique
 10
121.3829061053695
 20
235.6868051195223
 30
0.0
 41
2.5
 42
2.5
 43
2.5
 50
90.0
  0
MTEXT
  5
288D
330
24D5
100
AcDbEntity
  8
Bemaßung
 62
     0
100
AcDbMText
 10
119.5079061053694
 20
230.6868051195222
 30
0.0
 40
2.5
 41
0.0
 71
     5
 72
     1
  1
10
  7
RomanS
 11
0.0000000000000001
 21
1.0
 31
0.0
 73
     1
 44
1.0
  0
POINT
  5
288E
330
24D5
100
AcDbEntity
  8
Defpoints
 62
     0
100
AcDbPoint
 10
121.3829061053695
 20
225.6868051195221
 30
0.0
  0
POINT
  5
288F
330
24D5
100
AcDbEntity
  8
Defpoints
 62
     0
100
AcDbPoint
 10
121.3829061053695
 20
235.6868051195223
 30
0.0
  0
POINT
  5
2890
330
24D5
100
AcDbEntity
  8
Defpoints
 62
     0
100
AcDbPoint
 10
121.3829061053695
 20
235.6868051195223
 30
0.0
  0
ENDBLK
  5
24E0
330
24D5
100
AcDbEntity
  8
0
100
AcDbBlockEnd
  0
BLOCK
  5
2511
330
2507
100
AcDbEntity
  8
0
100
AcDbBlockBegin
  2
*D17
 70
     1
 10
0.0
 20
0.0
 30
0.0
  3
*D17
  1

  0
LINE
  5
27FD
330
2507
100
AcDbEntity
  8
Bemaßung
 62
     0
370
    -2
100
AcDbLine
 10
87.09614792003277
 20
201.6868051195221
 30
0.0
 11
86.47114792003277
 21
201.6868051195221
 31
0.0
  0
LINE
  5
27FE
330
2507
100
AcDbEntity
  8
Bemaßung
 62
     0
370
    -2
100
AcDbLine
 10
87.09614792003277
 20
210.6868051195222
 30
0.0
 11
86.47114792003277
 21
210.6868051195222
 31
0.0
  0
LINE
  5
27FF
330
2507
100
AcDbEntity
  8
Bemaßung
 62
     0
370
    -2
100
AcDbLine
 10
87.72114792003277
 20
201.6868051195221
 30
0.0
 11
87.72114792003277
 21
210.6868051195222
 31
0.0
  0
INSERT
  5
2800
330
2507
100
AcDbEntity
  8
Bemaßung
 62
     0
370
    -2
100
AcDbBlockReference
  2
_Oblique
 10
87.72114792003277
 20
201.6868051195221
 30
0.0
 41
2.5
 42
2.5
 43
2.5
 50
270.0
  0
INSERT
  5
2801
330
2507
100
AcDbEntity
  8
Bemaßung
 62
     0
370
    -2
100
AcDbBlockReference
  2
_Oblique
 10
87.72114792003277
 20
210.6868051195222
 30
0.0
 41
2.5
 42
2.5
 43
2.5
 50
90.0
  0
MTEXT
  5
2802
330
2507
100
AcDbEntity
  8
Bemaßung
 62
     0
100
AcDbMText
 10
85.84614792003273
 20
206.1868051195221
 30
0.0
 40
2.5
 41
0.0
 71
     5
 72
     1
  1
9
  7
RomanS
 11
0.0000000000000001
 21
1.0
 31
0.0
 73
     1
 44
1.0
  0
POINT
  5
2803
330
2507
100
AcDbEntity
  8
Defpoints
 62
     0
100
AcDbPoint
 10
87.72114792003277
 20
201.6868051195221
 30
0.0
  0
POINT
  5
2804
330
2507
100
AcDbEntity
  8
Defpoints
 62
     0
100
AcDbPoint
 10
87.72114792003277
 20
210.6868051195222
 30
0.0
  0
POINT
  5
2805
330
2507
100
AcDbEntity
  8
Defpoints
 62
     0
100
AcDbPoint
 10
87.72114792003277
 20
210.6868051195222
 30
0.0
  0
ENDBLK
  5
2512
330
2507
100
AcDbEntity
  8
0
100
AcDbBlockEnd
  0
BLOCK
  5
2620
330
261F
100
AcDbEntity
  8
0
100
AcDbBlockBegin
  2
I-Verbr30mm
 70
     0
 10
0.0
 20
0.0
 30
0.0
  3
I-Verbr30mm
  1

  0
LWPOLYLINE
  5
264C
330
261F
100
AcDbEntity
  8
0
100
AcDbPolyline
 90
        4
 70
     1
 43
0.0
 10
-25.2
 20
0.0
 10
-5.199999999999993
 20
0.0
 10
-5.199999999999993
 20
20.0
 10
-25.2
 20
20.0
1001
AcDbBlockRepETag
1070
     1
1071
        0
1005
264C
  0
LWPOLYLINE
  5
264D
330
261F
100
AcDbEntity
  8
0
100
AcDbPolyline
 90
        4
 70
     1
 43
0.0
 10
-24.45999999999999
 20
1.089999999999986
 10
-5.940000000000002
 20
1.089999999999986
 10
-5.940000000000002
 20
19.25999999999999
 10
-24.45999999999999
 20
19.25999999999999
1001
AcDbBlockRepETag
1070
     1
1071
        1
1005
264D
  0
LWPOLYLINE
  5
264E
330
261F
100
AcDbEntity
  8
0
100
AcDbPolyline
 90
        4
 70
     1
 43
0.0
 10
-23.30000000000001
 20
2.25
 10
-7.099999999999972
 20
2.25
 10
-7.099999999999972
 20
18.09999999999998
 10
-23.30000000000001
 20
18.09999999999998
1001
AcDbBlockRepETag
1070
     1
1071
        2
1005
264E
  0
LWPOLYLINE
  5
264F
330
261F
100
AcDbEntity
  8
0
100
AcDbPolyline
 90
        4
 70
     1
 43
0.0
 10
-22.90000000000005
 20
2.64999999999999
 10
-7.499999999999946
 20
2.64999999999999
 10
-7.499999999999946
 20
17.69999999999999
 10
-22.90000000000005
 20
17.69999999999999
1001
AcDbBlockRepETag
1070
     1
1071
        3
1005
264F
  0
LINE
  5
2650
330
261F
100
AcDbEntity
  8
0
100
AcDbLine
 10
-24.45999999999999
 20
1.209999999999987
 30
0.0
 11
-25.2
 21
1.209999999999987
 31
0.0
1001
AcDbBlockRepETag
1070
     1
1071
        4
1005
2650
  0
LINE
  5
2651
330
261F
100
AcDbEntity
  8
0
100
AcDbLine
 10
-5.940000000000002
 20
1.209999999999987
 30
0.0
 11
-5.199999999999993
 21
1.209999999999987
 31
0.0
1001
AcDbBlockRepETag
1070
     1
1071
        5
1005
2651
  0
LINE
  5
2652
330
261F
100
AcDbEntity
  8
0
100
AcDbLine
 10
-25.2
 20
19.13999999999998
 30
0.0
 11
-24.45999999999999
 21
19.13999999999998
 31
0.0
1001
AcDbBlockRepETag
1070
     1
1071
        6
1005
2652
  0
LINE
  5
2653
330
261F
100
AcDbEntity
  8
0
100
AcDbLine
 10
-5.940000000000002
 20
19.13999999999998
 30
0.0
 11
-5.199999999999993
 21
19.13999999999998
 31
0.0
1001
AcDbBlockRepETag
1070
     1
1071
        7
1005
2653
  0
LINE
  5
2654
330
261F
100
AcDbEntity
  8
0
100
AcDbLine
 10
-23.30000000000001
 20
18.09999999999998
 30
0.0
 11
-23.30000000000001
 21
19.25999999999999
 31
0.0
1001
AcDbBlockRepETag
1070
     1
1071
        8
1005
2654
  0
LINE
  5
2655
330
261F
100
AcDbEntity
  8
0
100
AcDbLine
 10
-23.30000000000001
 20
2.25
 30
0.0
 11
-23.30000000000001
 21
1.089999999999986
 31
0.0
1001
AcDbBlockRepETag
1070
     1
1071
        9
1005
2655
  0
LINE
  5
2656
330
261F
100
AcDbEntity
  8
0
100
AcDbLine
 10
-7.099999999999972
 20
2.25
 30
0.0
 11
-7.099999999999972
 21
1.089999999999986
 31
0.0
1001
AcDbBlockRepETag
1070
     1
1071
       10
1005
2656
  0
LINE
  5
2657
330
261F
100
AcDbEntity
  8
0
100
AcDbLine
 10
-7.099999999999972
 20
18.09999999999998
 30
0.0
 11
-7.099999999999972
 21
19.25999999999999
 31
0.0
1001
AcDbBlockRepETag
1070
     1
1071
       11
1005
2657
  0
LINE
  5
2658
330
261F
100
AcDbEntity
  8
0
100
AcDbLine
 10
-7.499999999999946
 20
17.69999999999999
 30
0.0
 11
-7.099999999999972
 21
18.09999999999998
 31
0.0
1001
AcDbBlockRepETag
1070
     1
1071
       12
1005
2658
  0
LINE
  5
2659
330
261F
100
AcDbEntity
  8
0
100
AcDbLine
 10
-22.90000000000005
 20
17.69999999999999
 30
0.0
 11
-23.30000000000001
 21
18.09999999999998
 31
0.0
1001
AcDbBlockRepETag
1070
     1
1071
       13
1005
2659
  0
LINE
  5
265A
330
261F
100
AcDbEntity
  8
0
100
AcDbLine
 10
-23.30000000000001
 20
2.25
 30
0.0
 11
-22.90000000000005
 21
2.64999999999999
 31
0.0
1001
AcDbBlockRepETag
1070
     1
1071
       14
1005
265A
  0
LINE
  5
265B
330
261F
100
AcDbEntity
  8
0
100
AcDbLine
 10
-7.099999999999972
 20
2.25
 30
0.0
 11
-7.499999999999946
 21
2.64999999999999
 31
0.0
1001
AcDbBlockRepETag
1070
     1
1071
       15
1005
265B
  0
LINE
  5
265C
330
261F
100
AcDbEntity
  8
Schraffur
100
AcDbLine
 10
-5.940000000000002
 20
19.25999999999999
 30
0.0
 11
-24.45999999999999
 21
10.17499999999998
 31
0.0
1001
AcDbBlockRepETag
1070
     1
1071
       16
1005
265C
  0
LINE
  5
265D
330
261F
100
AcDbEntity
  8
Schraffur
100
AcDbLine
 10
-24.45999999999999
 20
10.17499999999998
 30
0.0
 11
-5.940000000000002
 21
1.089999999999986
 31
0.0
1001
AcDbBlockRepETag
1070
     1
1071
       17
1005
265D
  0
LINE
  5
265E
330
261F
100
AcDbEntity
  8
Schraffur
100
AcDbLine
 10
-5.940000000000002
 20
1.089999999999986
 30
0.0
 11
-15.19999999999999
 21
19.25999999999999
 31
0.0
1001
AcDbBlockRepETag
1070
     1
1071
       18
1005
265E
  0
LINE
  5
265F
330
261F
100
AcDbEntity
  8
Schraffur
100
AcDbLine
 10
-15.19999999999999
 20
19.25999999999999
 30
0.0
 11
-24.45999999999999
 21
1.089999999999986
 31
0.0
1001
AcDbBlockRepETag
1070
     1
1071
       19
1005
265F
  0
MTEXT
  5
2660
330
261F
100
AcDbEntity
  8
0
100
AcDbMText
 10
-22.33758549649833
 20
4.428533288152491
 30
0.0
 40
1.5
 41
18.74045823417145
 71
     1
 72
     5
  1
M1:50
  7
RomanS
 73
     1
 44
1.0
1001
AcDbBlockRepETag
1070
     1
1071
       20
1005
2660
  0
LWPOLYLINE
  5
2661
330
261F
100
AcDbEntity
  8
0
100
AcDbPolyline
 90
        4
 70
     0
 43
0.0
 10
-25.2
 20
20.0
 10
-25.2
 20
20.6
 10
-5.199999999999993
 20
20.6
 10
-5.199999999999993
 20
20.0
1001
AcDbBlockRepETag
1070
     1
1071
       21
1005
2661
  0
LWPOLYLINE
  5
2662
330
261F
100
AcDbEntity
  8
0
100
AcDbPolyline
 90
        4
 70
     0
 43
0.0
 10
-25.2
 20
20.6
 10
-25.2
 20
21.2
 10
-5.199999999999993
 20
21.2
 10
-5.199999999999993
 20
20.6
1001
AcDbBlockRepETag
1070
     1
1071
       22
1005
2662
  0
LWPOLYLINE
  5
2663
330
261F
100
AcDbEntity
  8
0
100
AcDbPolyline
 90
        4
 70
     0
 43
0.0
 10
-5.199999999999993
 20
21.2
 10
-4.599999999999994
 20
21.2
 10
-4.599999999999996
 20
0.0
 10
-5.199999999999998
 20
0.0
1001
AcDbBlockRepETag
1070
     1
1071
       23
1005
2663
  0
LWPOLYLINE
  5
2664
330
261F
100
AcDbEntity
  8
0
100
AcDbPolyline
 90
        4
 70
     0
 43
0.0
 10
-4.599999999999994
 20
21.2
 10
-3.999999999999996
 20
21.2
 10
-4.0
 20
0.0
 10
-4.599999999999996
 20
0.0
1001
AcDbBlockRepETag
1070
     1
1071
       24
1005
2664
  0
ENDBLK
  5
2621
330
261F
100
AcDbEntity
  8
0
100
AcDbBlockEnd
  0
BLOCK
  5
2B34
330
2B31
100
AcDbEntity
  8
0
100
AcDbBlockBegin
  2
Glas 18mm ob IV
 70
     0
 10
0.0
 20
0.0
 30
0.0
  3
Glas 18mm ob IV
  1

  0
TEXT
  5
2B35
330
2B31
100
AcDbEntity
  8
Glas
 62
   150
100
AcDbText
 10
4.20107802770395
 20
-22.36807215501347
 30
0.0
 40
2.5
  1
Glas 18
 41
0.7
  7
RomanS
100
AcDbText
1001
AcDbBlockRepETag
1070
     1
1071
        0
1005
2B35
  0
LINE
  5
2B36
330
2B31
100
AcDbEntity
  8
Glas
 62
   150
100
AcDbLine
 10
4.08772114999215
 20
-22.90224231187313
 30
0.0
 11
14.91227885000717
 21
-22.90224231187313
 31
0.0
1001
AcDbBlockRepETag
1070
     1
1071
        1
1005
2B36
  0
LINE
  5
2B37
330
2B31
100
AcDbEntity
  8
Aluhalter
100
AcDbLine
 10
1.5
 20
0.0
 30
0.0
 11
17.99999999999954
 21
-5.0
 31
0.0
1001
AcDbBlockRepETag
1070
     1
1071
        9
1005
2B37
  0
LINE
  5
2B38
330
2B31
100
AcDbEntity
  8
Aluhalter
100
AcDbLine
 10
17.99999999999954
 20
0.0
 30
0.0
 11
1.5
 21
-4.999999999999771
 31
0.0
1001
AcDbBlockRepETag
1070
     1
1071
       10
1005
2B38
  0
LWPOLYLINE
  5
2B39
330
2B31
100
AcDbEntity
  8
Aluhalter
100
AcDbPolyline
 90
        4
 70
     1
 43
0.0
 10
17.99999999999954
 20
0.0
 10
1.5
 20
0.0
 10
1.5
 20
-4.999999999999771
 10
17.99999999999954
 20
-4.999999999999771
1001
AcDbBlockRepETag
1070
     1
1071
       19
1005
2B39
  0
LWPOLYLINE
  5
2B3A
330
2B31
100
AcDbEntity
  8
Glas
 62
   150
100
AcDbPolyline
 90
        2
 70
     0
 43
0.0
 10
4.499999999999561
 20
-26.0045508201693
 10
4.499999999999561
 20
-23.42312564689337
1001
AcDbBlockRepETag
1070
     1
1071
       20
1005
2B3A
  0
LWPOLYLINE
  5
2B3B
102
{ACAD_REACTORS
330
2B3F
102
}
330
2B31
100
AcDbEntity
  8
Glas
 62
   251
100
AcDbPolyline
 90
        6
 70
     1
 43
0.0
 10
14.49999999999977
 20
-16.99999999999988
 10
4.499999999999561
 20
-16.99999999999988
 10
4.499999999999561
 20
-6.999999999999772
 10
6.499999999999553
 20
-4.999999999999771
 10
12.49999999999977
 20
-4.999999999999771
 10
14.49999999999977
 20
-6.999999999999772
1001
AcDbBlockRepETag
1070
     1
1071
       21
1005
2B3B
  0
HATCH
  5
2B3C
330
2B31
100
AcDbEntity
  8
Glas
 62
   150
100
AcDbHatch
 10
0.0
 20
0.0
 30
0.0
210
0.0
220
0.0
230
1.0
  2
AR-CONC
 70
     0
 71
     0
 91
        1
 92
        1
 93
       10
 72
     1
 10
4.499999999999561
 20
-23.42312564689337
 11
3.73262811120208
 21
-23.42312564689337
 72
     1
 10
3.73262811120208
 20
-23.42312564689337
 11
3.73262811120208
 21
-19.27730887200323
 72
     1
 10
3.73262811120208
 20
-19.27730887200323
 11
4.499999999999561
 21
-19.27730887200323
 72
     1
 10
4.499999999999561
 20
-19.27730887200323
 11
4.499999999999561
 21
-5.499999999999829
 72
     1
 10
4.499999999999561
 20
-5.499999999999829
 11
3.999999999999552
 21
-4.999999999999828
 72
     1
 10
3.999999999999552
 20
-4.999999999999828
 11
1.0
 21
-4.999999999999825
 72
     1
 10
1.0
 20
-4.999999999999825
 11
0.5
 21
-5.499999999999825
 72
     1
 10
0.5
 20
-5.499999999999825
 11
0.5
 21
-26.0045508201693
 72
     1
 10
0.5
 20
-26.0045508201693
 11
4.499999999999561
 21
-26.0045508201693
 72
     1
 10
4.499999999999561
 20
-26.0045508201693
 11
4.499999999999561
 21
-23.42312564689337
 97
        0
 75
     0
 76
     1
 52
180.0
 41
0.02
 77
     0
 78
    13
 53
230.0
 43
12.74999999999955
 44
-1.999999999999943
 45
-3.64369337992008
 46
0.3187817107780622
 79
     2
 49
0.381
 49
-4.190999999999998
 53
175.0
 43
12.74999999999955
 44
-1.999999999999943
 45
0.7048565195133396
 46
-3.821132857643598
 79
     2
 49
0.3048
 49
-3.352799999999998
 53
280.451
 43
12.44635999999951
 44
-1.973434999999938
 45
-2.938850033319181
 46
-3.502333756405834
 79
     2
 49
0.3237999999999999
 49
-3.561799999999995
 53
226.1842
 43
12.74999999999955
 44
-3.015999999999961
 45
-5.421580817842596
 46
0.8408465586545435
 79
     2
 49
0.5715
 49
-6.2865
 53
276.6356
 43
12.29820199999949
 44
-2.945929999999917
 45
-4.748084689324741
 46
-4.948511117800981
 79
     2
 49
0.4857000000000001
 49
-5.342699999999994
 53
171.184
 43
12.74999999999955
 44
-3.015999999999961
 45
-4.748092116278677
 46
-4.948502357211951
 79
     2
 49
0.4572
 49
-5.0292
 53
201.0
 43
12.24199999999951
 44
-2.761999999999943
 45
-3.032297596707663
 46
2.045310370335247
 79
     2
 49
0.381
 49
-4.190999999999997
 53
145.9999999999999
 43
12.24199999999951
 44
-2.761999999999943
 45
-1.236040566952941
 46
-3.683759322446384
 79
     2
 49
0.3048
 49
-3.352799999999998
 53
251.4514000000001
 43
11.98930999999953
 44
-2.59155799999996
 45
-4.268329815402489
 46
-1.638457154321148
 79
     2
 49
0.3237999999999995
 49
-3.561799999999993
 53
217.5
 43
12.74999999999955
 44
-1.999999999999943
 45
-0.0617720650118365
 46
-1.691100777463059
 79
     6
 49
0.0
 49
-3.312159999999998
 49
0.0
 49
-3.403599999999998
 49
0.0
 49
-3.365499999999998
 53
187.5
 43
12.74999999999955
 44
-1.999999999999943
 45
-1.336393250206113
 46
-2.00361149636239
 79
     6
 49
0.0
 49
-1.940559999999995
 49
0.0
 49
-3.235959999999995
 49
0.0
 49
-1.282699999999997
 53
147.4999999999999
 43
13.88283999999953
 44
-1.999999999999943
 45
-2.711811903337423
 46
0.1145748798534695
 79
     6
 49
0.0
 49
-1.27
 49
0.0
 49
-3.9624
 49
0.0
 49
-5.257799999999996
 53
137.5
 43
14.39083999999952
 44
-1.999999999999943
 45
-2.962583627720361
 46
-0.5085298206666601
 79
     6
 49
0.0
 49
-1.650999999999999
 49
0.0
 49
-2.63144
 49
0.0
 49
-3.7338
 98
        1
 10
1.700859178909928
 20
-22.24482153884782
1001
ACAD
1010
0.0
1020
0.0
1030
0.0
1001
AcDbBlockRepETag
1070
     1
1071
       22
1005
2B3C
  0
HATCH
  5
2B3D
330
2B31
100
AcDbEntity
  8
Glas
 62
   150
100
AcDbHatch
 10
0.0
 20
0.0
 30
0.0
210
0.0
220
0.0
230
1.0
  2
AR-CONC
 70
     0
 71
     0
 91
        1
 92
        1
 93
       10
 72
     1
 10
14.49999999999977
 20
-19.27730887200323
 11
15.21961346118929
 21
-19.27730887200323
 72
     1
 10
15.21961346118929
 20
-19.27730887200323
 11
15.21961346118928
 21
-23.42312564689337
 72
     1
 10
15.21961346118928
 20
-23.42312564689337
 11
14.49999999999977
 21
-23.42312564689337
 72
     1
 10
14.49999999999977
 20
-23.42312564689337
 11
14.49999999999977
 21
-26.0045508201693
 72
     1
 10
14.49999999999977
 20
-26.0045508201693
 11
18.49999999999932
 21
-26.0045508201693
 72
     1
 10
18.49999999999932
 20
-26.0045508201693
 11
18.49999999999932
 21
-5.499999999999829
 72
     1
 10
18.49999999999932
 20
-5.499999999999829
 11
17.99999999999932
 21
-4.999999999999828
 72
     1
 10
17.99999999999932
 20
-4.999999999999828
 11
14.99999999999977
 21
-4.999999999999828
 72
     1
 10
14.99999999999977
 20
-4.999999999999828
 11
14.49999999999977
 21
-5.499999999999829
 72
     1
 10
14.49999999999977
 20
-5.499999999999829
 11
14.49999999999977
 21
-19.27730887200323
 97
        0
 75
     0
 76
     1
 52
180.0
 41
0.02
 77
     0
 78
    13
 53
230.0
 43
6.749999999999553
 44
-1.999999999999943
 45
-3.64369337992008
 46
0.3187817107780622
 79
     2
 49
0.381
 49
-4.190999999999998
 53
175.0
 43
6.749999999999553
 44
-1.999999999999943
 45
0.7048565195133396
 46
-3.821132857643598
 79
     2
 49
0.3048
 49
-3.352799999999998
 53
280.451
 43
6.446359999999517
 44
-1.973434999999938
 45
-2.938850033319181
 46
-3.502333756405834
 79
     2
 49
0.3237999999999999
 49
-3.561799999999995
 53
226.1842
 43
6.749999999999553
 44
-3.015999999999961
 45
-5.421580817842596
 46
0.8408465586545435
 79
     2
 49
0.5715
 49
-6.2865
 53
276.6356
 43
6.29820199999949
 44
-2.945929999999917
 45
-4.748084689324741
 46
-4.948511117800981
 79
     2
 49
0.4857000000000001
 49
-5.342699999999993
 53
171.184
 43
6.749999999999553
 44
-3.015999999999961
 45
-4.748092116278677
 46
-4.948502357211951
 79
     2
 49
0.4572
 49
-5.0292
 53
201.0
 43
6.241999999999507
 44
-2.761999999999943
 45
-3.032297596707663
 46
2.045310370335247
 79
     2
 49
0.381
 49
-4.190999999999997
 53
145.9999999999999
 43
6.241999999999507
 44
-2.761999999999943
 45
-1.236040566952941
 46
-3.683759322446384
 79
     2
 49
0.3048
 49
-3.352799999999998
 53
251.4514000000001
 43
5.989309999999537
 44
-2.59155799999996
 45
-4.268329815402489
 46
-1.638457154321148
 79
     2
 49
0.3237999999999995
 49
-3.561799999999993
 53
217.5
 43
6.749999999999553
 44
-1.999999999999943
 45
-0.0617720650118365
 46
-1.691100777463059
 79
     6
 49
0.0
 49
-3.312159999999998
 49
0.0
 49
-3.403599999999998
 49
0.0
 49
-3.365499999999998
 53
187.5
 43
6.749999999999553
 44
-1.999999999999943
 45
-1.336393250206113
 46
-2.00361149636239
 79
     6
 49
0.0
 49
-1.940559999999995
 49
0.0
 49
-3.235959999999995
 49
0.0
 49
-1.282699999999997
 53
147.4999999999999
 43
7.882839999999537
 44
-1.999999999999943
 45
-2.711811903337423
 46
0.1145748798534695
 79
     6
 49
0.0
 49
-1.27
 49
0.0
 49
-3.9624
 49
0.0
 49
-5.257799999999996
 53
137.5
 43
8.390839999999517
 44
-1.999999999999943
 45
-2.962583627720361
 46
-0.5085298206666601
 79
     6
 49
0.0
 49
-1.650999999999999
 49
0.0
 49
-2.63144
 49
0.0
 49
-3.7338
 98
        1
 10
17.29914082108939
 20
-22.24482153884782
1001
ACAD
1010
0.0
1020
0.0
1030
0.0
1001
AcDbBlockRepETag
1070
     1
1071
       23
1005
2B3D
  0
LWPOLYLINE
  5
2B3E
330
2B31
100
AcDbEntity
  8
Glas
 62
   150
100
AcDbPolyline
 90
        2
 70
     0
 43
0.0
 10
14.49999999999977
 20
-26.0045508201693
 10
14.49999999999977
 20
-23.42312564689337
1001
AcDbBlockRepETag
1070
     1
1071
       24
1005
2B3E
  0
HATCH
  5
2B3F
330
2B31
100
AcDbEntity
  8
Glas
 62
   251
100
AcDbHatch
 10
0.0
 20
0.0
 30
0.0
210
0.0
220
0.0
230
1.0
  2
GRAVEL
 70
     0
 71
     1
 91
        1
 92
        1
 93
        6
 72
     1
 10
14.49999999999977
 20
-16.99999999999988
 11
4.499999999999561
 21
-16.99999999999988
 72
     1
 10
4.499999999999561
 20
-16.99999999999988
 11
4.499999999999561
 21
-6.999999999999772
 72
     1
 10
4.499999999999561
 20
-6.999999999999772
 11
6.499999999999553
 21
-4.999999999999771
 72
     1
 10
6.499999999999553
 20
-4.999999999999771
 11
12.49999999999977
 21
-4.999999999999771
 72
     1
 10
12.49999999999977
 20
-4.999999999999771
 11
14.49999999999977
 21
-6.999999999999772
 72
     1
 10
14.49999999999977
 20
-6.999999999999772
 11
14.49999999999977
 21
-16.99999999999988
 97
        1
330
2B3B
 75
     0
 76
     1
 52
180.0
 41
0.1
 77
     0
 78
    42
 53
48.01279999999997
 43
10.92119999999954
 44
-4.53999999999996
 45
20.32001726589601
 46
22.86002808951257
 79
     2
 49
0.3417209999999998
 49
-33.83049999999999
 53
4.969699999999962
 43
11.14979999999951
 44
-4.285999999999943
 45
-30.48004930617913
 46
-2.539982075387451
 79
     2
 49
0.5864050000000001
 49
-58.05399999999998
 53
312.5104
 43
11.73399999999952
 44
-4.235199999999963
 45
-25.3999815183317
 46
27.94002729246042
 79
     2
 49
0.413482
 49
-40.93469999999999
 53
87.27370000000004
 43
12.72459999999956
 44
-3.600199999999913
 45
-2.539988970828173
 46
-50.79998365336643
 79
     2
 49
0.5340050000000001
 49
-52.8664
 53
112.8337
 43
12.74999999999955
 44
-3.066799999999943
 45
12.70003605550189
 46
-30.48001733005111
 79
     2
 49
0.5236340000000002
 49
-51.83979999999998
 53
177.2737
 43
12.54679999999951
 44
-2.584199999999951
 45
50.79998365336643
 46
-2.539988970828179
 79
     2
 49
0.5340050000000001
 49
-52.8664
 53
217.6942
 43
12.01339999999953
 44
-2.558799999999961
 45
33.02002086123994
 46
25.39997735698489
 79
     2
 49
0.706194
 49
-69.91310000000002
 53
252.2553
 43
11.45459999999951
 44
-2.990599999999913
 45
-17.78003556546719
 46
-55.88001620603638
 79
     2
 49
0.6667200000000002
 49
-66.0053
 53
301.4296
 43
11.25139999999953
 44
-3.625599999999963
 45
20.32000523526448
 46
-33.01996115997269
 79
     2
 49
0.535813
 49
-53.04549999999998
 53
355.2364
 43
11.53079999999954
 44
-4.082799999999963
 45
-27.93997805305446
 46
2.539976162721158
 79
     2
 49
0.6117129999999995
 49
-29.97389999999999
 53
42.39739999999999
 43
12.14039999999954
 44
-4.133599999999943
 45
30.48000091723972
 46
27.93996365063696
 79
     2
 49
0.7910780000000001
 49
-78.3168
 53
318.8141
 43
10.20999999999952
 44
-3.574799999999922
 45
17.77998867422471
 46
-15.239976557124
 79
     2
 49
0.270005
 49
-26.7306
 53
351.4692
 43
10.4131999999995
 44
-3.752599999999913
 45
-33.01994959559142
 46
5.080012800045701
 79
     2
 49
0.5136819999999995
 49
-50.85459999999997
 53
44.99999999999998
 43
10.92119999999954
 44
-3.828799999999943
 45
0.0000000000000008
 46
2.539998268700193
 79
     2
 49
0.3592090000000001
 49
-3.232889999999998
 53
23.19859999999998
 43
11.09899999999953
 44
-4.133599999999943
 45
-12.70004282559083
 46
-5.080022274306258
 79
     2
 49
0.1934409999999998
 49
-19.15059999999997
 53
111.8014
 43
11.27679999999952
 44
-4.057399999999915
 45
2.540001781894508
 46
-7.620004908731861
 79
     2
 49
0.2735659999999998
 49
-13.40479999999999
 53
210.9638
 43
11.1751999999995
 44
-3.803399999999951
 45
-7.619991954808227
 46
-5.080003958660546
 79
     2
 49
0.44432
 49
-14.36629999999999
 53
341.5651
 43
10.79419999999953
 44
-4.03199999999992
 45
-5.080002318180981
 46
2.539996222465076
 79
     2
 49
0.3212869999999998
 49
-7.710899999999991
 53
196.3895
 43
12.74999999999955
 44
-4.057399999999915
 45
-25.40001401396935
 46
-7.6199841499678
 79
     2
 49
0.4500880000000003
 49
-44.55879999999996
 53
250.3462
 43
12.31819999999953
 44
-4.184399999999921
 45
10.15997168867651
 46
27.939960488545
 79
     2
 49
0.377599
 49
-37.3822
 53
113.1985999999999
 43
10.79419999999953
 44
-4.53999999999996
 45
5.080022274306258
 46
-12.70004282559083
 79
     2
 49
0.38688
 49
-18.9572
 53
163.6104999999999
 43
10.64179999999953
 44
-4.184399999999921
 45
25.40001401396935
 46
-7.619984149967815
 79
     2
 49
0.4500880000000003
 49
-44.55879999999996
 53
159.4440000000001
 43
12.74999999999955
 44
-2.482599999999933
 45
12.70001576425591
 46
-5.079993836050136
 79
     2
 49
0.4340350000000001
 49
-21.2677
 53
114.7751
 43
12.34359999999952
 44
-2.330199999999933
 45
12.69997040362684
 46
-27.93998702615667
 79
     2
 49
0.3636719999999997
 49
-36.00359999999995
 53
246.8014
 43
10.76879999999954
 44
-1.999999999999943
 45
-5.080022274306266
 46
-12.70004282559083
 79
     2
 49
0.3868799999999997
 49
-18.9572
 53
197.354
 43
10.61639999999954
 44
-2.355599999999923
 45
33.02000178185996
 46
10.15998467560563
 79
     2
 49
0.4257830000000002
 49
-42.15239999999996
 53
249.444
 43
12.01339999999953
 44
-1.999999999999943
 45
5.079993836050143
 46
12.70001576425591
 79
     2
 49
0.217018
 49
-21.4848
 53
281.3098999999998
 43
10.92119999999954
 44
-1.999999999999943
 45
2.539987462887345
 46
-10.15996746090262
 79
     2
 49
0.129515
 49
-12.822
 53
345.9638
 43
10.94659999999953
 44
-2.12699999999995
 45
-7.620005354697172
 46
2.539995604123642
 79
     2
 49
0.5236340000000002
 49
-9.949049999999999
 53
6.009000000000008
 43
11.45459999999951
 44
-2.25399999999996
 45
-25.39996254442795
 46
-2.539994068547855
 79
     2
 49
0.485267
 49
-48.0414
 53
123.6900999999999
 43
11.1751999999995
 44
-3.574799999999922
 45
2.540000871307232
 46
-5.079995099231839
 79
     2
 49
0.366324
 49
-8.791780000000001
 53
173.1571999999999
 43
10.97199999999951
 44
-3.269999999999923
 45
-43.18001785664342
 46
5.080022751654841
 79
     2
 49
0.639557
 49
-63.31599999999999
 53
240.9454
 43
10.33699999999953
 44
-3.193799999999951
 45
10.15997636582909
 46
17.77995761083413
 79
     2
 49
0.261508
 49
-25.8894
 53
270.0
 43
10.20999999999952
 44
-3.422399999999925
 45
2.539999999999999
 46
-2.54
 79
     2
 49
0.1524
 49
-2.387599999999999
 53
300.2564
 43
11.50539999999955
 44
-2.330199999999933
 45
-10.15997846683611
 46
17.77999103247756
 79
     2
 49
0.352867
 49
-34.9339
 53
228.0128
 43
11.68319999999954
 44
-2.634999999999934
 45
-20.32001726589601
 46
-22.86002808951257
 79
     2
 49
0.6834430000000003
 49
-33.48880000000001
 53
180.0
 43
11.22599999999954
 44
-3.142999999999913
 45
-2.54
 46
-2.539999999999999
 79
     2
 49
0.6604000000000001
 49
-1.879599999999999
 53
145.3047999999999
 43
10.5655999999995
 44
-3.142999999999913
 45
25.39995599095369
 46
-17.78000169048477
 79
     2
 49
0.4016099999999999
 49
-39.7593
 53
74.05459999999997
 43
10.23539999999951
 44
-2.914399999999943
 45
2.540006479701475
 46
10.16002420320363
 79
     2
 49
0.369829
 49
-18.1217
 53
27.6459999999999
 43
10.33699999999953
 44
-2.558799999999961
 45
48.25998304902272
 46
25.40001597472338
 79
     2
 49
0.6021450000000002
 49
-59.61249999999998
 53
355.4261
 43
10.8703999999995
 44
-2.279399999999951
 45
33.02000760474751
 46
-2.539987711219461
 79
     2
 49
0.6370289999999994
 49
-63.06579999999996
 53
355.4261
 43
10.8703999999995
 44
-2.279399999999951
 45
33.02000760474751
 46
-2.539987711219461
 79
     2
 49
0.6370289999999994
 49
-63.06579999999996
 98
        1
 10
12.74999999999955
 20
-1.999999999999943
1001
ACAD
1010
0.0
1020
0.0
1030
0.0
1001
AcDbBlockRepETag
1070
     1
1071
       25
1005
2B3F
  0
LWPOLYLINE
  5
2B40
330
2B31
100
AcDbEntity
  8
Glas
 62
   150
100
AcDbPolyline
 90
        6
 70
     0
 43
0.0
 10
4.499999999999561
 20
-19.27730887200323
 10
4.499999999999561
 20
-5.499999999999829
 10
3.999999999999552
 20
-4.999999999999828
 10
1.0
 20
-4.999999999999825
 10
0.5
 20
-5.499999999999825
 10
0.5
 20
-26.0045508201693
1001
AcDbBlockRepETag
1070
     1
1071
       27
1005
2B40
  0
LWPOLYLINE
  5
2B41
330
2B31
100
AcDbEntity
  8
Glas
 62
   150
100
AcDbPolyline
 90
        6
 70
     0
 43
0.0
 10
14.49999999999977
 20
-19.27730887200323
 10
14.49999999999977
 20
-5.499999999999829
 10
14.99999999999977
 20
-4.999999999999828
 10
17.99999999999932
 20
-4.999999999999828
 10
18.49999999999932
 20
-5.499999999999829
 10
18.49999999999932
 20
-26.0045508201693
1001
AcDbBlockRepETag
1070
     1
1071
       26
1005
2B41
  0
ENDBLK
  5
2B42
330
2B31
100
AcDbEntity
  8
0
100
AcDbBlockEnd
  0
BLOCK
  5
2B71
330
2B65
100
AcDbEntity
  8
0
100
AcDbBlockBegin
  2
*D20
 70
     1
 10
0.0
 20
0.0
 30
0.0
  3
*D20
  1

  0
LINE
  5
2B7E
330
2B65
100
AcDbEntity
  8
Bemaßung
 62
     0
370
    -2
100
AcDbLine
 10
155.046129445607
 20
72.36262829140915
 30
0.0
 11
155.046129445607
 21
72.98762829140915
 31
0.0
  0
LINE
  5
2B7F
330
2B65
100
AcDbEntity
  8
Bemaßung
 62
     0
370
    -2
100
AcDbLine
 10
154.0461294456068
 20
72.36262829140915
 30
0.0
 11
154.0461294456068
 21
72.98762829140915
 31
0.0
  0
LINE
  5
2B80
330
2B65
100
AcDbEntity
  8
Bemaßung
 62
     0
370
    -2
100
AcDbLine
 10
155.046129445607
 20
71.73762829140915
 30
0.0
 11
157.546129445607
 21
71.73762829140915
 31
0.0
  0
LINE
  5
2B81
330
2B65
100
AcDbEntity
  8
Bemaßung
 62
     0
370
    -2
100
AcDbLine
 10
154.0461294456068
 20
71.73762829140915
 30
0.0
 11
147.37946277894
 21
71.73762829140915
 31
0.0
  0
LINE
  5
2B82
330
2B65
100
AcDbEntity
  8
Bemaßung
 62
     0
370
    -2
100
AcDbLine
 10
155.046129445607
 20
71.73762829140915
 30
0.0
 11
154.0461294456068
 21
71.73762829140915
 31
0.0
  0
INSERT
  5
2B83
330
2B65
100
AcDbEntity
  8
Bemaßung
 62
     0
370
    -2
100
AcDbBlockReference
  2
_Oblique
 10
155.046129445607
 20
71.73762829140915
 30
0.0
 41
2.5
 42
2.5
 43
2.5
 50
180.0
  0
INSERT
  5
2B84
330
2B65
100
AcDbEntity
  8
Bemaßung
 62
     0
370
    -2
100
AcDbBlockReference
  2
_Oblique
 10
154.0461294456068
 20
71.73762829140915
 30
0.0
 41
2.5
 42
2.5
 43
2.5
  0
MTEXT
  5
2B85
330
2B65
100
AcDbEntity
  8
Bemaßung
 62
     0
100
AcDbMText
 10
148.2127961122735
 20
73.61262829140915
 30
0.0
 40
2.5
 41
0.0
 71
     5
 72
     1
  1
1
  7
RomanS
 73
     1
 44
1.0
  0
POINT
  5
2B86
330
2B65
100
AcDbEntity
  8
Defpoints
 62
     0
100
AcDbPoint
 10
155.046129445607
 20
71.73762829140915
 30
0.0
  0
POINT
  5
2B87
330
2B65
100
AcDbEntity
  8
Defpoints
 62
     0
100
AcDbPoint
 10
154.0461294456068
 20
71.73762829140915
 30
0.0
  0
POINT
  5
2B88
330
2B65
100
AcDbEntity
  8
Defpoints
 62
     0
100
AcDbPoint
 10
154.0461294456068
 20
71.73762829140915
 30
0.0
  0
ENDBLK
  5
2B72
330
2B65
100
AcDbEntity
  8
0
100
AcDbBlockEnd
  0
ENDSEC
  0
SECTION
  2
ENTITIES
  0
HATCH
  5
2030
330
1F
100
AcDbEntity
  8
0
 62
    84
100
AcDbHatch
 10
0.0
 20
0.0
 30
0.0
210
0.0
220
0.0
230
1.0
  2
STEEL
 70
     0
 71
     0
 91
        5
 92
        7
 72
     1
 73
     1
 93
       15
 10
101.0461294456072
 20
118.686805119522
 42
0.0
 10
89.04612944560724
 20
118.6868051195221
 42
0.4142135623730951
 10
87.04612944560722
 20
116.6868051195221
 42
0.0
 10
87.04612944560722
 20
77.7546554689265
 42
0.3152987888789982
 10
89.0200690156305
 20
74.93557760656869
 42
0.0
 10
100.3620891589519
 20
70.80741987794851
 42
0.0
 10
100.4044673890914
 20
70.79253222333568
 42
0.4333251351929344
 10
102.9779810981854
 20
72.16916702931709
 42
0.0
 10
103.0567836763592
 20
72.4632622548298
 42
-0.3394542588633759
 10
105.9545611552259
 20
74.68680511952209
 42
0.0
 10
106.5461294456072
 20
74.68680511952209
 42
0.0
 10
107.0461294456072
 20
75.18680511952259
 42
0.0
 10
107.0461294456072
 20
77.84150565790162
 42
0.0
 10
105.0461294456072
 20
76.68680511952229
 42
0.0
 10
101.0461294456072
 20
78.9962061962807
 42
0.0
 97
        0
 92
        7
 72
     0
 73
     1
 93
       10
 10
109.0461294456072
 20
110.1868051195221
 10
108.4461294456071
 20
110.1868051195221
 10
108.4461294456071
 20
118.6868051195223
 10
107.046129445607
 20
118.6868051195223
 10
101.046129445607
 20
118.6868051195222
 10
101.0461294456072
 20
78.99620619628056
 10
105.0461294456072
 20
76.68680511952229
 10
107.0461294456072
 20
77.84150565790167
 10
107.0461294456072
 20
88.68680511952252
 10
109.0461294456072
 20
88.68680511952231
 97
        0
 92
       24
 93
        4
 72
     1
 10
88.49150016844333
 20
79.31508119740977
 11
92.5748335017767
 21
79.31508119740977
 72
     1
 10
92.5748335017767
 20
79.31508119740977
 11
92.5748335017767
 21
75.56508119740977
 72
     1
 10
92.5748335017767
 20
75.56508119740977
 11
88.49150016844333
 21
75.56508119740977
 72
     1
 10
88.49150016844333
 20
75.56508119740977
 11
88.49150016844333
 21
79.31508119740977
 97
        0
 92
        1
 93
       25
 72
     2
 10
139.546129445606
 20
137.6868051195229
 40
0.9999999999993034
 50
90.00000000002769
 51
179.9999999999984
 73
     1
 72
     1
 10
138.5461294456067
 20
137.6868051195229
 11
138.5461294456067
 21
131.6868051195225
 72
     2
 10
137.5461294456069
 20
131.6868051195223
 40
0.9999999999998008
 50
359.9999999999919
 51
450.0000000000078
 73
     0
 72
     1
 10
137.5461294456068
 20
130.6868051195226
 11
133.5461294456069
 21
130.6868051195226
 72
     1
 10
133.546129445607
 20
130.6868051195226
 11
133.546129445607
 21
128.1868051195221
 72
     1
 10
133.546129445607
 20
128.1868051195221
 11
133.0461294456072
 21
128.1868051195221
 72
     1
 10
133.0461294456072
 20
128.1868051195221
 11
133.0461294456072
 21
88.68680511952231
 72
     1
 10
133.0461294456072
 20
88.68680511952231
 11
143.046129445607
 21
88.68680511952231
 72
     1
 10
143.046129445607
 20
88.68680511952231
 11
143.0461294456067
 21
92.6868051195221
 72
     1
 10
143.0461294456066
 20
92.6868051195221
 11
147.0461294456066
 21
92.6868051195221
 72
     1
 10
147.0461294456066
 20
92.6868051195221
 11
147.0461294456069
 21
88.68680511952252
 72
     1
 10
147.046129445607
 20
88.68680511952252
 11
149.4212717071843
 21
88.68680511952252
 72
     2
 10
149.4212717071844
 20
89.18680511952279
 40
0.50000000000032
 50
269.9999999999804
 51
350.0000000000242
 73
     1
 72
     1
 10
149.9136755836909
 20
89.0999810306895
 11
150.400421323772
 21
91.86045329718913
 72
     2
 10
151.3852290767844
 20
91.6868051195223
 40
1.000000000000186
 50
189.9999999999883
 51
270.0000000000163
 73
     0
 72
     1
 10
151.3852290767847
 20
92.68680511952252
 11
153.046129445607
 21
92.6868051195221
 72
     2
 10
153.046129445607
 20
94.68680511952207
 40
1.999999999999999
 50
270.0
 51
360.0
 73
     1
 72
     1
 10
155.046129445607
 20
94.68680511952207
 11
155.046129445607
 21
145.6868051195223
 72
     2
 10
152.046129445607
 20
145.6868051195223
 40
2.999999999999998
 50
0.0
 51
90.0
 73
     1
 72
     1
 10
152.046129445607
 20
148.6868051195223
 11
146.5461294456062
 21
148.6868051195223
 72
     2
 10
146.5461294456062
 20
146.6868051195223
 40
1.999999999999999
 50
90.0
 51
180.0
 73
     1
 72
     1
 10
144.5461294456062
 20
146.6868051195223
 11
144.5461294456062
 21
133.1868051195221
 72
     1
 10
144.5461294456062
 20
133.1868051195221
 11
141.5461294456063
 21
133.1868051195221
 72
     1
 10
141.5461294456063
 20
133.1868051195221
 11
141.5461294456063
 21
138.6868051195231
 72
     1
 10
141.5461294456063
 20
138.6868051195231
 11
139.5461294456055
 21
138.6868051195222
 97
        0
 92
       24
 93
        4
 72
     1
 10
143.6294627789402
 20
130.2178514168677
 11
149.9627961122735
 21
130.2178514168677
 72
     1
 10
149.9627961122735
 20
130.2178514168677
 11
149.9627961122735
 21
125.9916609406773
 72
     1
 10
149.9627961122735
 20
125.9916609406773
 11
143.6294627789402
 21
125.9916609406773
 72
     1
 10
143.6294627789402
 20
125.9916609406773
 11
143.6294627789402
 21
130.2178514168677
 97
        0
 75
     0
 76
     1
 52
90.0
 41
2.0
 77
     0
 78
     2
 53
135.0
 43
0.0
 44
0.0
 45
-4.490128060534575
 46
-4.490128060534575
 79
     0
 53
135.0
 43
-3.174999999999998
 44
0.0000000000000002
 45
-4.490128060534575
 46
-4.490128060534575
 79
     0
 47
0.111182408027955
 98
        7
 10
0.0
 20
0.0
 10
0.0
 20
-95.7769862286708
 10
0.0
 20
-95.7769862286708
 10
0.0
 20
-95.7769862286708
 10
142.9655691027783
 20
114.4487295984314
 10
92.87350653760677
 20
90.9499751391946
 10
106.3765838169547
 20
94.4312721917017
1001
ACAD
1010
0.0
1020
0.0
1030
0.0
  0
LWPOLYLINE
  5
2031
330
1F
100
AcDbEntity
  8
Belüftung
100
AcDbPolyline
 90
       10
 70
     0
 43
0.0
 10
101.0461294456072
 20
118.6868051195221
 10
101.0461294456072
 20
78.9962061962807
 10
105.0461294456072
 20
76.68680511952229
 10
107.0461294456072
 20
77.84150565790162
 10
107.0461294456072
 20
88.68680511952252
 10
109.0461294456072
 20
88.68680511952252
 10
109.0461294456072
 20
110.1868051195221
 10
108.4461294456073
 20
110.1868051195221
 10
108.4461294456073
 20
118.686805119522
 10
101.0461294456072
 20
118.6868051195221
  0
HATCH
  5
2035
330
1F
100
AcDbEntity
  8
0
 62
     5
100
AcDbHatch
 10
0.0
 20
0.0
 30
0.0
210
0.0
220
0.0
230
1.0
  2
STEEL
 70
     0
 71
     0
 91
        2
 92
        7
 72
     1
 73
     1
 93
        9
 10
138.5461294456067
 20
179.6868051193852
 42
0.0
 10
138.5461294456067
 20
182.6868051195221
 42
0.4142135623731173
 10
135.5461294456067
 20
185.6868051195221
 42
0.0
 10
116.6461294456069
 20
185.6868051195221
 42
0.0166805839232876
 10
116.5461294456072
 20
185.6834680742318
 42
0.0
 10
116.5461294456074
 20
142.6868051195221
 42
0.0
 10
136.546129445607
 20
142.6868051195223
 42
0.4142135623731117
 10
138.5461294456067
 20
144.686805119522
 42
0.0
 10
138.5461294456067
 20
146.6868051195223
 42
0.0
 97
        0
 92
        1
 93
       25
 72
     2
 10
79.37979293959608
 20
185.1868051195227
 40
0.4999999999993502
 50
89.99999999995603
 51
164.9999999997866
 73
     1
 72
     1
 10
78.89683002645267
 20
185.3162146420755
 11
78.02363209503801
 21
182.0573955969727
 72
     2
 10
77.5406691818933
 20
182.1868051195235
 40
0.5000000000000643
 50
14.99999999995204
 51
89.99999999995603
 73
     0
 72
     1
 10
77.54066918189369
 20
181.6868051195235
 11
75.45158970932186
 21
181.6868051195235
 72
     2
 10
75.45158970932162
 20
182.1868051195244
 40
0.5000000000008973
 50
89.99999999997395
 51
164.9999999999725
 73
     0
 72
     1
 10
74.96862679617629
 20
182.0573955969727
 11
74.09542886476184
 21
185.3162146420755
 72
     2
 10
73.61246595161877
 20
185.1868051195232
 40
0.4999999999988923
 50
15.00000000017312
 51
90.00000000004234
 73
     1
 72
     1
 10
73.61246595161841
 20
185.6868051195221
 11
73.54612944560722
 21
185.6868051195221
 72
     2
 10
73.54612944560722
 20
182.6868051195221
 40
2.999999999999998
 50
90.0
 51
180.0
 73
     1
 72
     1
 10
70.54612944560722
 20
182.6868051195221
 11
70.54612944560722
 21
114.7546554689262
 72
     2
 10
73.54612944560736
 20
114.7546554689259
 40
3.000000000000141
 50
179.9999999999948
 51
249.9999999999992
 73
     1
 72
     1
 10
72.52006901563027
 20
111.9355776065681
 11
83.86208915895599
 21
107.8074198779501
 72
     2
 10
84.54612944560713
 20
109.6868051195221
 40
2.000000000000106
 50
250.0000000000067
 51
360.0
 73
     1
 72
     1
 10
86.54612944560724
 20
109.6868051195221
 11
86.54612944560724
 21
121.6868051195218
 72
     2
 10
87.54612944560724
 20
121.6868051195218
 40
0.9999999999999856
 50
179.9999999999992
 51
269.9999999999992
 73
     0
 72
     1
 10
87.54612944560722
 20
122.6868051195218
 11
92.54612944560722
 21
122.6868051195218
 72
     1
 10
92.54612944560722
 20
122.6868051195218
 11
92.54612944560722
 21
185.0066090222403
 72
     2
 10
93.64612944560708
 20
183.986805119522
 40
1.499999999999729
 50
137.1665719339361
 51
179.9999999999957
 73
     1
 72
     1
 10
92.14612944560736
 20
183.9868051195221
 11
92.14612944560713
 21
176.1868051195222
 72
     2
 10
91.64612944560706
 20
176.1868051195221
 40
0.5000000000000321
 50
359.9999999999968
 51
449.9999999999935
 73
     0
 72
     1
 10
91.64612944560714
 20
175.6868051195221
 11
82.94612944560709
 21
175.6868051195221
 72
     2
 10
82.94612944560713
 20
176.1868051195221
 40
0.5000000000000428
 50
90.00000000000488
 51
180.0000000000032
 73
     0
 72
     1
 10
82.44612944560708
 20
176.1868051195222
 11
82.44612944560708
 21
184.1868051195222
 72
     2
 10
80.94612944560713
 20
184.1868051195221
 40
1.499999999999956
 50
0.0000000000010877
 51
90.00000000000161
 73
     1
 72
     1
 10
80.94612944560708
 20
185.6868051195221
 11
79.37979293959648
 21
185.6868051195221
 97
        0
 75
     0
 76
     1
 52
0.0
 41
2.0
 77
     0
 78
     2
 53
45.0
 43
-1090.99114798
 44
-480.8716424858476
 45
-4.490128060534575
 46
4.490128060534575
 79
     0
 53
45.0
 43
-1090.99114798
 44
-477.6966424858477
 45
-4.490128060534575
 46
4.490128060534575
 79
     0
 47
0.6152384003561308
 98
        6
 10
78.67463452052925
 20
137.7862257974649
 10
128.557163685421
 20
159.3195702073873
 10
87.91213762804002
 20
-38.17195648660335
 10
129.1729984961093
 20
-32.63481210843827
 10
73.13213075074054
 20
151.936708455749
 10
127.3254940640436
 20
159.3195702073873
1001
ACAD
1010
0.0
1020
0.0
1030
0.0
  0
HATCH
  5
2036
330
1F
100
AcDbEntity
  8
0
 62
     5
100
AcDbHatch
 10
0.0
 20
0.0
 30
0.0
210
0.0
220
0.0
230
1.0
  2
STEEL
 70
     0
 71
     0
 91
        2
 92
        7
 72
     1
 73
     1
 93
       16
 10
116.5461294456072
 20
185.683468074232
 42
0.394805141773168
 10
115.1461294456069
 20
184.1868051195222
 42
0.0
 10
115.1461294456069
 20
175.6868051195225
 42
0.0
 10
114.1461294456069
 20
175.6868051195221
 42
0.0
 10
102.9461294456075
 20
175.6868051195221
 42
0.0
 10
102.9461294456077
 20
183.9868051195213
 42
0.4142135623730079
 10
101.4461294456084
 20
185.4868051195207
 42
0.0
 10
93.64612944560713
 20
185.4868051195216
 42
0.2087586657600783
 10
92.54612944560722
 20
185.0066090222402
 42
0.0
 10
92.54612944560722
 20
122.686805119522
 42
0.0
 10
106.5461294456072
 20
122.6868051195223
 42
0.4809781189724244
 10
108.496843778707
 20
125.1280687489312
 42
0.0
 10
108.5461294456072
 20
125.1868051195231
 42
0.0
 10
108.5461294456072
 20
141.6868051195221
 42
-0.4142135623731244
 10
109.5461294456071
 20
142.6868051195221
 42
0.0
 10
116.5461294456072
 20
142.6868051195222
 42
0.0
 97
        0
 92
       24
 93
        4
 72
     1
 10
96.29744425530226
 20
162.9988110706246
 11
111.0974442553022
 21
162.9988110706246
 72
     1
 10
111.0974442553022
 20
162.9988110706246
 11
111.0974442553022
 21
154.9035729753865
 72
     1
 10
111.0974442553022
 20
154.9035729753865
 11
96.29744425530226
 21
154.9035729753865
 72
     1
 10
96.29744425530226
 20
154.9035729753865
 11
96.29744425530226
 21
162.9988110706246
 97
        0
 75
     0
 76
     1
 52
90.0
 41
2.0
 77
     0
 78
     2
 53
135.0
 43
0.0
 44
-95.7769862286708
 45
-4.490128060534575
 46
-4.490128060534575
 79
     0
 53
135.0
 43
-3.175000000000011
 44
-95.7769862286708
 45
-4.490128060534575
 46
-4.490128060534575
 79
     0
 47
0.1174154849003597
 98
        3
 10
0.0
 20
-95.7769862286708
 10
0.0
 20
-95.7769862286708
 10
105.9494862522924
 20
154.2824903135744
1001
ACAD
1010
0.0
1020
0.0
1030
0.0
  0
LWPOLYLINE
  5
2037
102
{ACAD_REACTORS
330
23EE
102
}
330
1F
100
AcDbEntity
  8
Blendrahmen
100
AcDbPolyline
 90
       42
 70
     1
 43
0.0
 10
70.54612944560722
 20
182.6868051195221
 10
70.54612944560722
 20
114.7546554689262
 42
0.3152987888789794
 10
72.52006901563004
 20
111.9355776065683
 10
83.86208915895599
 20
107.8074198779501
 42
0.5205670505517467
 10
86.54612944560724
 20
109.6868051195223
 10
86.54612944560724
 20
121.6868051195218
 42
-0.4142135623730951
 10
87.54612944560722
 20
122.6868051195218
 10
106.5461294456072
 20
122.6868051195223
 42
0.4142135623730951
 10
108.5461294456072
 20
124.6868051195223
 10
108.5461294456072
 20
141.6868051195221
 42
-0.4142135623730951
 10
109.546129445607
 20
142.6868051195221
 10
136.546129445607
 20
142.6868051195223
 42
0.4142135623730951
 10
138.5461294456067
 20
144.6868051195218
 10
138.5461294456067
 20
179.6868051193852
 10
138.5461294456067
 20
182.6868051195221
 42
0.4142135623730951
 10
135.546129445607
 20
185.6868051195221
 10
116.6461294456069
 20
185.6868051195221
 42
0.4142135623730951
 10
115.1461294456069
 20
184.1868051195222
 10
115.1461294456069
 20
176.1868051195222
 42
-0.4142135623730992
 10
114.6461294456069
 20
175.6868051195221
 10
114.1461294456069
 20
175.6868051195221
 10
103.4461294456071
 20
175.6868051195221
 42
-0.4142135623730911
 10
102.9461294456075
 20
176.1868051195222
 10
102.9461294456077
 20
183.9868051195213
 42
0.4142135623730911
 10
101.446129445608
 20
185.4868051195207
 10
93.64612944560713
 20
185.4868051195216
 42
0.4142135623730992
 10
92.14612944560736
 20
183.9868051195217
 10
92.14612944560713
 20
176.1868051195222
 42
-0.4142135623730992
 10
91.64612944560714
 20
175.6868051195221
 10
82.94612944560709
 20
175.6868051195221
 42
-0.4142135623730951
 10
82.44612944560708
 20
176.1868051195222
 10
82.44612944560786
 20
184.1868051195235
 42
0.4142135623730951
 10
80.94612944560786
 20
185.6868051195235
 10
79.37979293959687
 20
185.6868051195235
 42
0.3394542588633798
 10
78.89683002645267
 20
185.3162146420755
 10
78.02363209503801
 20
182.0573955969727
 42
-0.3394542588633914
 10
77.54066918189369
 20
181.6868051195235
 10
75.45158970932186
 20
181.6868051195235
 42
-0.339454258863376
 10
74.96862679617629
 20
182.0573955969727
 10
74.09542886476184
 20
185.3162146420755
 42
0.3394542588633913
 10
73.61246595161833
 20
185.6868051195235
 10
73.54612944560734
 20
185.6868051195221
 42
0.4142135623731062
  0
HATCH
  5
2038
330
1F
100
AcDbEntity
  8
Silikon
 62
     1
100
AcDbHatch
 10
0.0
 20
0.0
 30
0.0
210
0.0
220
0.0
230
1.0
  2
ANGLE
 70
     0
 71
     1
 91
        1
 92
        1
 93
        6
 72
     2
 10
101.0461294456073
 20
72.68680511952222
 40
1.999999999999989
 50
250.0000000000003
 51
344.9999999999954
 73
     1
 72
     1
 10
102.9779810981854
 20
72.16916702931702
 11
103.0567836763592
 21
72.46326225482969
 72
     2
 10
105.9545611552259
 20
71.68680511952216
 40
2.999999999999516
 50
195.0000000000017
 51
269.9999999999998
 73
     0
 72
     1
 10
105.9545611552259
 20
74.68680511952168
 11
107.5461294456074
 21
74.68680511952237
 72
     1
 10
107.5461294456074
 20
74.68680511952237
 11
107.5461294456074
 21
68.28363561040669
 72
     1
 10
107.5461294456074
 20
68.28363561040669
 11
100.362089158956
 21
70.80741987795041
 97
        1
330
2039
 75
     0
 76
     1
 52
0.0
 41
0.1
 77
     0
 78
     2
 53
0.0
 43
521.9400892394204
 44
-266.9069432969994
 45
0.0
 46
0.6985000000000002
 79
     2
 49
0.508
 49
-0.1905
 53
90.0
 43
521.9400892394204
 44
-266.9069432969994
 45
-0.6985000000000002
 46
0.0
 79
     2
 49
0.508
 49
-0.1905
 98
        1
 10
521.9400892394204
 20
-266.9069432969994
1001
ACAD
1010
0.0
1020
0.0
1030
0.0
  0
LWPOLYLINE
  5
2039
102
{ACAD_REACTORS
330
2038
102
}
330
1F
100
AcDbEntity
  8
Silikon
 62
     1
100
AcDbPolyline
 90
        6
 70
     1
 43
0.0
 10
100.362089158956
 20
70.80741987795041
 42
0.4400105308918068
 10
102.9779810981854
 20
72.16916702931702
 10
103.0567836763592
 20
72.46326225482969
 42
-0.3394542588633679
 10
105.9545611552259
 20
74.68680511952168
 10
107.5461294456074
 20
74.68680511952237
 10
107.5461294456074
 20
68.28363561040669
  0
HATCH
  5
203C
330
1F
100
AcDbEntity
  8
Schraffur
 62
    84
100
AcDbHatch
 10
0.0
 20
0.0
 30
0.0
210
0.0
220
0.0
230
1.0
  2
STEEL
 70
     0
 71
     0
 91
        2
 92
        7
 72
     1
 73
     1
 93
       24
 10
133.0461294456072
 20
128.1868051195221
 42
0.0
 10
131.5461294456069
 20
128.1868051195221
 42
0.0
 10
131.546129445607
 20
118.6868051195221
 42
0.0
 10
126.8961294456071
 20
118.6868051195221
 42
0.0
 10
125.3961294456069
 20
117.3868051195223
 42
0.0
 10
123.896129445607
 20
118.6868051195221
 42
0.0
 10
119.2461294456068
 20
118.6868051195221
 42
0.0
 10
119.2461294456068
 20
128.1868051195221
 42
0.0
 10
117.246129445607
 20
128.1868051195221
 42
0.0
 10
117.246129445607
 20
130.6868051195226
 42
0.0
 10
115.546129445607
 20
130.6868051195226
 42
0.4142135623731117
 10
113.5461294456069
 20
128.6868051195226
 42
0.0
 10
113.5461294456069
 20
119.6868051195223
 42
0.0
 10
113.546129445607
 20
118.6868051195221
 42
0.0
 10
113.4461294456068
 20
118.6868051195221
 42
0.0
 10
113.4461294456068
 20
110.1868051195221
 42
0.0
 10
109.0461294456072
 20
110.1868051195221
 42
0.0
 10
109.0461294456072
 20
88.68680511952252
 42
0.0
 10
111.5461294456072
 20
88.68680511952252
 42
0.0
 10
111.5461294456072
 20
91.18680511952252
 42
0.0
 10
119.5461294456072
 20
91.18680511952252
 42
0.0
 10
119.5461294456072
 20
88.68680511952252
 42
0.0
 10
124.7961294456071
 20
88.68680511952252
 42
0.0
 10
133.0461294456072
 20
88.68680511952252
 42
0.0
 97
        0
 92
       24
 93
        4
 72
     1
 10
111.9683405585556
 20
106.8578145345015
 11
126.7683405585556
 21
106.8578145345015
 72
     1
 10
126.7683405585556
 20
106.8578145345015
 11
126.7683405585556
 21
98.76257643926329
 72
     1
 10
126.7683405585556
 20
98.76257643926329
 11
111.9683405585556
 21
98.76257643926329
 72
     1
 10
111.9683405585556
 20
98.76257643926329
 11
111.9683405585556
 21
106.8578145345015
 97
        0
 75
     0
 76
     1
 52
0.0
 41
2.0
 77
     0
 78
     2
 53
45.0
 43
0.0
 44
-95.7769862286708
 45
-4.490128060534575
 46
4.490128060534575
 79
     0
 53
45.0
 43
0.0
 44
-92.60198622867077
 45
-4.490128060534575
 46
4.490128060534575
 79
     0
 47
0.0652398194471367
 98
        3
 10
0.0
 20
-95.7769862286708
 10
0.0
 20
-95.7769862286708
 10
124.5724845516188
 20
101.7421215210498
1001
ACAD
1010
0.0
1020
0.0
1030
0.0
  0
LWPOLYLINE
  5
203D
102
{ACAD_REACTORS
330
2399
102
}
330
1F
100
AcDbEntity
  8
Flügelrahmen
100
AcDbPolyline
 90
       57
 70
     1
 43
0.0
 10
146.5461294456062
 20
148.6868051195223
 42
0.4142135623730951
 10
144.5461294456062
 20
146.6868051195223
 10
144.5461294456062
 20
133.1868051195221
 10
141.5461294456063
 20
133.1868051195221
 10
141.5461294456063
 20
138.6868051195231
 10
139.5461294456063
 20
138.6868051195222
 42
0.4142135623730951
 10
138.5461294456067
 20
137.6868051195231
 10
138.5461294456067
 20
137.6868051195231
 10
138.5461294456067
 20
131.6868051195225
 42
-0.4142135623730951
 10
137.546129445607
 20
130.6868051195226
 10
136.0525935858918
 20
130.6868051195226
 10
133.546129445607
 20
130.6868051195226
 10
133.546129445607
 20
128.1868051195221
 10
131.546129445607
 20
128.1868051195221
 10
131.546129445607
 20
118.6868051195221
 10
126.8961294456071
 20
118.6868051195221
 10
125.3961294456069
 20
117.3868051195223
 10
123.8961294456071
 20
118.6868051195221
 10
119.2461294456068
 20
118.6868051195221
 10
119.2461294456068
 20
128.1868051195221
 10
117.246129445607
 20
128.1868051195221
 10
117.246129445607
 20
130.6868051195226
 10
115.546129445607
 20
130.6868051195226
 42
0.4142135623730951
 10
113.546129445607
 20
128.6868051195226
 10
113.546129445607
 20
118.6868051195221
 10
113.246129445607
 20
118.6868051195221
 10
113.246129445607
 20
110.1868051195221
 10
108.4461294456071
 20
110.1868051195221
 10
108.4461294456071
 20
118.6868051195221
 10
89.04612944560724
 20
118.6868051195221
 42
0.4142135623730951
 10
87.04612944560722
 20
116.6868051195221
 10
87.04612944560722
 20
77.7546554689265
 42
0.3152987888789836
 10
89.02006901563026
 20
74.93557760656869
 10
100.362089158956
 20
70.80741987795059
 42
0.4400105308918385
 10
102.9779810981854
 20
72.16916702931719
 10
103.0567836763592
 20
72.4632622548298
 42
-0.3394542588633764
 10
105.9545611552266
 20
74.68680511952209
 10
106.5461294456072
 20
74.68680511952209
 10
107.0461294456072
 20
75.18680511952251
 10
107.0461294456072
 20
88.68680511952252
 10
111.5461294456072
 20
88.68680511952252
 10
111.5461294456072
 20
91.18680511952252
 10
119.5461294456072
 20
91.18680511952252
 10
119.5461294456072
 20
88.68680511952252
 10
143.046129445607
 20
88.68680511952252
 10
143.046129445607
 20
92.6868051195221
 10
147.0461294456066
 20
92.6868051195221
 10
147.046129445607
 20
88.68680511952252
 10
149.4212717071843
 20
88.68680511952252
 42
0.3639702342661933
 10
149.9136755836909
 20
89.09998103068899
 10
150.400421323772
 20
91.86045329718913
 42
-0.363970234266209
 10
151.3852290767843
 20
92.68680511952252
 10
153.046129445607
 20
92.6868051195221
 42
0.4142135623730951
 10
155.046129445607
 20
94.68680511952207
 10
155.046129445607
 20
125.9916609406773
 10
155.046129445607
 20
145.6868051195223
 42
0.4142135623730951
 10
152.046129445607
 20
148.6868051195223
  0
LINE
  5
2045
330
1F
100
AcDbEntity
  8
0
100
AcDbLine
 10
6.0
 20
5.999999879463302
 30
0.0
 11
204.0
 21
5.999999879463302
 31
0.0
  0
LWPOLYLINE
  5
2046
330
1F
100
AcDbEntity
  8
0
100
AcDbPolyline
 90
        4
 70
     1
 43
0.0
 10
0.0
 20
0.0
 10
210.0
 20
0.0
 10
210.0
 20
297.0000000000001
 10
0.0
 20
297.0000000000001
  0
LWPOLYLINE
  5
2047
330
1F
100
AcDbEntity
  8
0
100
AcDbPolyline
 90
        4
 70
     1
 43
0.0
 10
6.0
 20
6.0
 10
204.0
 20
6.0
 10
204.0
 20
291.0000000000001
 10
5.999999999999971
 20
291.0000000000001
  0
HATCH
  5
2048
330
1F
100
AcDbEntity
  8
Schraffur
 62
     5
100
AcDbHatch
 10
0.0
 20
0.0
 30
0.0
210
0.0
220
0.0
230
1.0
  2
STEEL
 70
     0
 71
     0
 91
        1
 92
        1
 93
        9
 72
     1
 10
38.02126886595728
 20
194.2721299407964
 11
38.02126886595728
 21
204.9808031500402
 72
     2
 10
27.00000000000063
 20
192.0374020288389
 40
17.00000000000057
 50
49.58570104606248
 51
130.2262621168522
 73
     1
 72
     1
 10
16.02126886595724
 20
205.0169036635861
 11
16.02126886595724
 21
193.342055672298
 72
     2
 10
29.02126886595718
 20
193.3420556722983
 40
12.99999999999992
 50
180.000000000001
 51
250.0000000000002
 73
     1
 72
     1
 10
24.57500700272357
 20
181.1260516020815
 11
29.33722857930584
 21
179.392744699225
 72
     2
 10
30.02126886595711
 20
181.272129940797
 40
2.000000000000149
 50
250.0000000000035
 51
360.0000000000036
 73
     1
 72
     1
 10
32.02126886595727
 20
181.272129940797
 11
32.02126886595727
 21
193.2721299407964
 72
     2
 10
33.02126886595727
 20
193.2721299407964
 40
0.9999999999999998
 50
180.0
 51
270.0
 73
     0
 72
     1
 10
33.02126886595727
 20
194.2721299407964
 11
38.02126886595728
 21
194.2721299407964
 97
        0
 75
     0
 76
     1
 52
0.0
 41
2.0
 77
     0
 78
     2
 53
45.0
 43
-156.5233377122803
 44
70.70514104903387
 45
-4.490128060534575
 46
4.490128060534575
 79
     0
 53
45.0
 43
-156.5233377122803
 44
73.88014104903383
 45
-4.490128060534575
 46
4.490128060534575
 79
     0
 98
        3
 10
-129.4359267050477
 20
274.7954684773584
 10
23.52895461291928
 20
195.3844049173075
 10
13.64782898275243
 20
314.2899169605374
1001
ACAD
1010
0.0
1020
0.0
1030
0.0
1001
AcDbBlockRepETag
1070
     1
1071
        0
1005
2048
  0
HATCH
  5
2049
330
1F
100
AcDbEntity
  8
Schraffur
 62
    84
100
AcDbHatch
 10
0.0
 20
0.0
 30
0.0
210
0.0
220
0.0
230
1.0
  2
STEEL
 70
     0
 71
     0
 91
        2
 92
        1
 93
       13
 72
     1
 10
38.02126886595728
 20
169.039965497467
 11
38.02126886595728
 21
171.0921929174393
 72
     2
 10
27.00000000000065
 20
158.1487917962381
 40
17.0000000000005
 50
49.58570104606248
 51
130.4583214417464
 73
     1
 72
     1
 10
15.96878948957246
 20
171.0837210451609
 11
15.96878948957246
 21
165.1098912289686
 72
     2
 10
28.96878948957257
 20
165.1098912289691
 40
13.00000000000012
 50
180.000000000002
 51
249.9999999999973
 73
     1
 72
     1
 10
24.52252762633828
 20
152.8938871587524
 11
29.28474920293368
 21
151.1605802558915
 72
     1
 10
29.28474920293366
 20
151.1605802558915
 11
29.32712743336066
 21
151.1456926011776
 72
     2
 10
29.96878948957283
 20
153.039965497467
 40
1.999999999999771
 50
251.2868106197551
 51
345.0000000000021
 73
     1
 72
     1
 10
31.90064114215076
 20
152.5223274072621
 11
31.97944372032468
 21
152.8164226327749
 72
     2
 10
34.87722119919169
 20
152.0399654974674
 40
2.999999999999761
 50
194.9999999999955
 51
270.0000000000107
 73
     0
 72
     1
 10
34.87722119919226
 20
155.0399654974673
 11
35.46878948957257
 21
155.039965497467
 72
     1
 10
35.46878948957257
 20
155.039965497467
 11
35.96878948957257
 21
155.5399654974673
 72
     1
 10
35.96878948957257
 20
155.5399654974673
 11
35.96878948957257
 21
169.039965497467
 72
     1
 10
35.96878948957257
 20
169.039965497467
 11
38.02126886595728
 21
169.039965497467
 97
        0
 92
       24
 93
        4
 72
     1
 10
19.94298793616417
 20
159.8160323685611
 11
25.69298793616417
 21
159.8160323685611
 72
     1
 10
25.69298793616417
 20
159.8160323685611
 11
25.69298793616417
 21
156.0660323685612
 72
     1
 10
25.69298793616417
 20
156.0660323685612
 11
19.94298793616417
 21
156.0660323685612
 72
     1
 10
19.94298793616417
 20
156.0660323685612
 11
19.94298793616417
 21
159.8160323685611
 97
        0
 75
     0
 76
     1
 52
90.0
 41
2.0
 77
     0
 78
     2
 53
135.0
 43
0.0
 44
-24.19166140739604
 45
-4.490128060534575
 46
-4.490128060534575
 79
     0
 53
135.0
 43
-3.175000000000011
 44
-24.19166140739604
 45
-4.490128060534575
 46
-4.490128060534575
 79
     0
 98
        4
 10
0.0
 20
-24.19166140739604
 10
-135.1061717337025
 20
241.6589360995485
 10
28.84769791181966
 20
164.1231244258226
 10
28.84769791181966
 20
296.2616202501981
1001
AcDbBlockRepETag
1070
     1
1071
        1
1005
2049
1001
ACAD
1010
0.0
1020
0.0
1030
0.0
  0
LWPOLYLINE
  5
204A
102
{ACAD_REACTORS
330
205C
102
}
330
1F
100
AcDbEntity
  8
Flügelrahmen
100
AcDbPolyline
 90
        4
 70
     0
 43
0.0
 10
32.52126886595676
 20
175.9589820938994
 10
32.52126886595676
 20
188.2721299407964
 42
-0.4142135623730951
 10
34.52126886595676
 20
190.2721299407964
 10
43.90809878410908
 20
190.2721299407964
1001
AcDbBlockRepETag
1070
     1
1071
        2
1005
204A
  0
LWPOLYLINE
  5
204B
102
{ACAD_REACTORS
330
205C
330
205F
102
}
330
1F
100
AcDbEntity
  8
0
100
AcDbPolyline
 90
        2
 70
     1
 43
0.0
 10
25.62503668204056
 20
175.0930969125384
 42
24.68742596468933
 10
28.37496331796058
 20
175.0930969125384
 42
24.68742596468933
1001
AcDbBlockRepETag
1070
     1
1071
        3
1005
204B
  0
HATCH
  5
2057
330
1F
100
AcDbEntity
  8
Silikon
 62
     1
100
AcDbHatch
 10
0.0
 20
0.0
 30
0.0
210
0.0
220
0.0
230
1.0
  2
ANGLE
 70
     0
 71
     1
 91
        1
 92
        1
 93
        6
 72
     2
 10
29.9687894895789
 20
153.039965497465
 40
1.999999999999973
 50
250.0000000000087
 51
345.0000000000037
 73
     1
 72
     1
 10
31.90064114215704
 20
152.5223274072601
 11
31.97944372033106
 21
152.8164226327726
 72
     2
 10
34.877221199198
 20
152.0399654974652
 40
2.999999999999699
 50
194.9999999999982
 51
269.999999999997
 73
     0
 72
     1
 10
34.87722119919784
 20
155.0399654974649
 11
36.46878948957937
 21
155.0399654974653
 72
     1
 10
36.46878948957937
 20
155.0399654974653
 11
36.46878948957937
 21
148.6367959883495
 72
     1
 10
36.46878948957937
 20
148.6367959883495
 11
29.28474920292785
 21
151.1605802558931
 97
        1
330
2058
 75
     0
 76
     1
 52
0.0
 41
0.1
 77
     0
 78
     2
 53
0.0
 43
450.862749283392
 44
-186.5537829190565
 45
0.0
 46
0.6985000000000002
 79
     2
 49
0.508
 49
-0.1905
 53
90.0
 43
450.862749283392
 44
-186.5537829190565
 45
-0.6985000000000002
 46
0.0
 79
     2
 49
0.508
 49
-0.1905
 98
        1
 10
450.862749283392
 20
-186.5537829190565
1001
ACAD
1010
0.0
1020
0.0
1030
0.0
1001
AcDbBlockRepETag
1070
     1
1071
       15
1005
2057
  0
LWPOLYLINE
  5
2058
102
{ACAD_REACTORS
330
2057
102
}
330
1F
100
AcDbEntity
  8
Silikon
 62
     1
100
AcDbPolyline
 90
        6
 70
     1
 43
0.0
 10
29.28474920292785
 20
151.1605802558931
 42
0.4400105308918068
 10
31.90064114215704
 20
152.5223274072601
 10
31.97944372033106
 20
152.8164226327726
 42
-0.3394542588633679
 10
34.87722119919784
 20
155.0399654974649
 10
36.46878948957937
 20
155.0399654974653
 10
36.46878948957937
 20
148.6367959883495
1001
AcDbBlockRepETag
1070
     1
1071
       16
1005
2058
  0
LWPOLYLINE
  5
2059
330
1F
100
AcDbEntity
  8
Flügelrahmen
100
AcDbPolyline
 90
       13
 70
     0
 43
0.0
 10
15.96878948957246
 20
171.0837210451613
 10
15.96878948957246
 20
169.0399654974674
 10
15.96878948957246
 20
165.1098912289686
 42
0.3152987888789831
 10
24.52252762633927
 20
152.893887158752
 10
29.28474920292155
 20
151.1605802558955
 42
0.4400105308918346
 10
31.90064114215068
 20
152.522327407262
 10
31.97944372032468
 20
152.8164226327748
 42
-0.3394542588633779
 10
34.87722119919198
 20
155.0399654974673
 10
35.46878948957257
 20
155.039965497467
 10
35.96878948957257
 20
155.5399654974673
 10
35.96878948957257
 20
169.039965497467
 10
35.96878948957257
 20
169.039965497467
 10
40.05305846955764
 20
169.039965497467
1001
AcDbBlockRepETag
1070
     1
1071
       17
1005
2059
  0
LWPOLYLINE
  5
205A
102
{ACAD_REACTORS
330
205F
102
}
330
1F
100
AcDbEntity
  8
Blendrahmen
100
AcDbPolyline
 90
        9
 70
     0
 43
0.0
 10
43.85247730037113
 20
194.2721299407964
 10
33.02126886595727
 20
194.2721299407964
 42
0.4142135623730951
 10
32.02126886595727
 20
193.2721299407964
 10
32.02126886595727
 20
181.272129940797
 42
-0.5205670505517467
 10
29.33722857930582
 20
179.392744699225
 10
24.57500700272357
 20
181.1260516020815
 42
-0.3152987888789794
 10
16.02126886595724
 20
193.342055672298
 10
16.02126886595724
 20
194.2721299407964
 10
16.02126886595724
 20
205.0169036635855
1001
AcDbBlockRepETag
1070
     1
1071
       18
1005
205A
  0
TEXT
  5
205B
330
1F
100
AcDbEntity
  8
0
100
AcDbText
 10
12.46141872127066
 20
211.87116675367
 30
0.0
 40
3.5
  1
Variante Softline
 41
0.7
  7
RomanS
100
AcDbText
1001
AcDbBlockRepETag
1070
     1
1071
       19
1005
205B
  0
HATCH
  5
205C
330
1F
100
AcDbEntity
  8
Schraffur
 62
    84
100
AcDbHatch
 10
0.0
 20
0.0
 30
0.0
210
0.0
220
0.0
230
1.0
  2
STEEL
 70
     0
 71
     1
 91
        1
 92
        7
 72
     1
 73
     1
 93
        4
 10
43.90809907870256
 20
190.2721299407964
 42
0.0
 10
34.52126886595676
 20
190.2721299407964
 42
0.4142135623730951
 10
32.52126886595676
 20
188.2721299407964
 42
0.0
 10
32.52126886595676
 20
175.9589820159818
 42
0.2918872669977687
 97
        2
330
204A
330
204B
 75
     0
 76
     1
 52
90.0
 41
2.0
 77
     0
 78
     2
 53
135.0
 43
47.47665845009135
 44
175.1487917962387
 45
-4.490128060534575
 46
-4.490128060534575
 79
     0
 53
135.0
 43
44.30165845009134
 44
175.1487917962387
 45
-4.490128060534575
 46
-4.490128060534575
 79
     0
 47
0.1645939949470616
 98
        1
 10
37.30977643545623
 20
183.8572321117713
1001
ACAD
1010
0.0
1020
0.0
1030
0.0
1001
AcDbBlockRepETag
1070
     1
1071
       21
1005
205C
  0
LINE
  5
205D
330
1F
100
AcDbEntity
  8
Schraffur
 62
    84
100
AcDbLine
 10
38.02126886595728
 20
171.0921929174393
 30
0.0
 11
38.02126886595728
 21
169.039965497467
 31
0.0
1001
AcDbBlockRepETag
1070
     1
1071
       22
1005
205D
  0
LINE
  5
205E
102
{ACAD_REACTORS
330
205F
102
}
330
1F
100
AcDbEntity
  8
Schraffur
 62
     5
100
AcDbLine
 10
38.02126886595728
 20
194.2721299407964
 30
0.0
 11
38.02126886595728
 21
204.9808031500401
 31
0.0
1001
AcDbBlockRepETag
1070
     1
1071
       23
1005
205E
  0
HATCH
  5
205F
330
1F
100
AcDbEntity
  8
Schraffur
 62
     5
100
AcDbHatch
 10
0.0
 20
0.0
 30
0.0
210
0.0
220
0.0
230
1.0
  2
STEEL
 70
     0
 71
     1
 91
        1
 92
        7
 72
     1
 73
     1
 93
        3
 10
38.02126886595728
 20
204.9808031500405
 42
0.0
 10
38.02126886595726
 20
194.2721299407964
 42
0.0
 10
43.85247730037228
 20
194.2721299407964
 42
0.1854836782163176
 97
        3
330
205E
330
205A
330
204B
 75
     0
 76
     1
 52
90.0
 41
2.0
 77
     0
 78
     2
 53
135.0
 43
48.00000000000114
 44
175.0930969125384
 45
-4.490128060534575
 46
-4.490128060534575
 79
     0
 53
135.0
 43
44.82500000000114
 44
175.0930969125384
 45
-4.490128060534575
 46
-4.490128060534575
 79
     0
 47
0.0808233019568123
 98
        1
 10
40.5860306006
 20
197.4963747114566
1001
ACAD
1010
0.0
1020
0.0
1030
0.0
1001
AcDbBlockRepETag
1070
     1
1071
       24
1005
205F
  0
HATCH
  5
2061
330
1F
100
AcDbEntity
  8
Schraffur
 62
     5
100
AcDbHatch
 10
0.0
 20
0.0
 30
0.0
210
0.0
220
0.0
230
1.0
  2
STEEL
 70
     0
 71
     0
 91
        1
 92
        1
 93
       13
 72
     1
 10
38.02126916306742
 20
113.9189695869635
 11
38.02126916306742
 21
124.6276425191099
 72
     2
 10
27.00000000000063
 20
111.6842416508968
 40
17.00000000000074
 50
49.58569973086323
 51
130.2262608053101
 73
     1
 72
     1
 10
16.02126916306739
 20
124.6637435369554
 11
16.02126916306739
 21
109.165486788634
 72
     2
 10
20.02126916306742
 20
109.1654867886337
 40
4.000000000000015
 50
179.9999999999962
 51
249.9999999999962
 73
     1
 72
     1
 10
18.65318858976448
 20
105.4067163054901
 11
19.14489743229903
 21
105.2277489228822
 72
     2
 10
18.46085714564748
 20
103.3483636813107
 40
1.999999999999667
 50
290.0000000000099
 51
340.0000000000103
 73
     0
 72
     1
 10
20.34024238721912
 20
104.0324039679616
 11
20.58264647499589
 21
103.3664042104132
 72
     2
 10
23.40172433735393
 20
104.3924646403898
 40
3.000000000000149
 50
199.9999999999895
 51
249.999999999991
 73
     1
 72
     1
 10
22.37566390737644
 20
101.573386778032
 11
29.33722887641594
 21
99.03958434539148
 72
     2
 10
30.02126916306727
 20
100.9189695869633
 40
2.000000000000095
 50
250.0000000000015
 51
360.0000000000016
 73
     1
 72
     1
 10
32.02126916306736
 20
100.9189695869634
 11
32.02126916306736
 21
112.9189695869635
 72
     2
 10
33.02126916306736
 20
112.9189695869635
 40
0.9999999999999998
 50
180.0
 51
270.0
 73
     0
 72
     1
 10
33.02126916306736
 20
113.9189695869635
 11
38.0212691630674
 21
113.9189695869635
 97
        0
 75
     0
 76
     1
 52
0.0
 41
2.0
 77
     0
 78
     2
 53
45.0
 43
-0.0980216702267285
 44
-89.32996990593037
 45
-4.490128060534575
 46
4.490128060534575
 79
     0
 53
45.0
 43
-0.0980216702267285
 44
-86.15496990593033
 45
-4.490128060534575
 46
4.490128060534575
 79
     0
 98
        3
 10
26.98938933700578
 20
114.7603575223941
 10
179.9542706549726
 20
35.34929396234326
 10
170.0731450248059
 20
154.2548060055733
1001
ACAD
1010
0.0
1020
0.0
1030
0.0
1001
AcDbBlockRepETag
1070
     1
1071
        0
1005
2061
  0
HATCH
  5
2062
330
1F
100
AcDbEntity
  8
Schraffur
 62
    84
100
AcDbHatch
 10
0.0
 20
0.0
 30
0.0
210
0.0
220
0.0
230
1.0
  2
STEEL
 70
     0
 71
     0
 91
        1
 92
        7
 72
     1
 73
     1
 93
       16
 10
35.96878948957936
 20
88.68680511952247
 42
0.0
 10
40.05305846955979
 20
88.68680511952247
 42
0.4173735883527943
 10
15.96878948957933
 20
90.73056066722458
 42
0.0
 10
15.96878948957933
 20
80.93332232119278
 42
0.3152987888789831
 10
18.60070891627646
 20
77.17455183804927
 42
0.0
 10
19.09241775881097
 20
76.99558445544126
 42
-0.2216946626429416
 10
20.28776271373107
 20
75.80023950052083
 42
0.0
 10
20.53016680150739
 20
75.1342397429719
 42
0.2216946626429467
 10
22.32318423388841
 20
73.3412223105914
 42
0.0
 10
29.2847492029301
 20
70.80741987794991
 42
0.0
 10
29.32712743335665
 20
70.79253222323619
 42
0.4333251351469773
 10
31.90064114215751
 20
72.16916702931744
 42
0.0
 10
31.97944372033103
 20
72.46326225482997
 42
-0.3394542588635136
 10
34.8772211991988
 20
74.68680511952246
 42
0.0
 10
35.46878948957937
 20
74.68680511952212
 42
0.0
 10
35.96878948957936
 20
75.18680511952246
 42
0.0
 97
        0
 75
     0
 76
     1
 52
90.0
 41
2.0
 77
     0
 78
     2
 53
135.0
 43
-0.0980216702267285
 44
-89.32996990593037
 45
-4.490128060534575
 46
-4.490128060534575
 79
     0
 53
135.0
 43
-3.273021670226738
 44
-89.32996990593037
 45
-4.490128060534575
 46
-4.490128060534575
 79
     0
 47
0.5460268397635694
 98
        3
 10
21.31914430835096
 20
81.62382514458405
 10
185.2730139538731
 20
4.088013470858378
 10
185.2730139538731
 20
136.2265092952338
1001
ACAD
1010
0.0
1020
0.0
1030
0.0
1001
AcDbBlockRepETag
1070
     1
1071
        1
1005
2062
  0
LWPOLYLINE
  5
2063
102
{ACAD_REACTORS
330
2077
102
}
330
1F
100
AcDbEntity
  8
Blendrahmen
100
AcDbPolyline
 90
       12
 70
     0
 43
0.0
 10
43.85247729717469
 20
113.9189695869635
 10
33.02126916306736
 20
113.9189695869635
 42
0.4142135623730951
 10
32.02126916306736
 20
112.9189695869635
 10
32.02126916306736
 20
100.9189695869634
 42
-0.5205670505517467
 10
29.33722887641597
 20
99.03958434539148
 10
22.37566390737644
 20
101.573386778032
 42
-0.2216946626429468
 10
20.5826464749959
 20
103.3664042104132
 10
20.34024238721912
 20
104.0324039679616
 42
0.2216946626429416
 10
19.14489743229905
 20
105.2277489228822
 10
18.65318858976448
 20
105.4067163054901
 42
-0.3152987888789831
 10
16.02126916306739
 20
109.165486788634
 10
16.02126916306739
 20
124.6637435369536
1001
AcDbBlockRepETag
1070
     1
1071
        2
1005
2063
  0
TEXT
  5
2064
330
1F
100
AcDbEntity
  8
0
100
AcDbText
 10
12.46141872127072
 20
131.5180063757275
 30
0.0
 40
3.5
  1
Variante Rustikal
 41
0.7
  7
RomanS
100
AcDbText
1001
AcDbBlockRepETag
1070
     1
1071
        3
1005
2064
  0
LWPOLYLINE
  5
2065
102
{ACAD_REACTORS
330
2075
102
}
330
1F
100
AcDbEntity
  8
Flügelrahmen
100
AcDbPolyline
 90
        4
 70
     0
 43
0.0
 10
32.52126916306739
 20
95.60582174006615
 10
32.52126916306739
 20
107.9189695869634
 42
-0.4142135623730951
 10
34.52126916306736
 20
109.9189695869634
 10
43.90809908121918
 20
109.9189695869634
1001
AcDbBlockRepETag
1070
     1
1071
        4
1005
2065
  0
LWPOLYLINE
  5
2066
102
{ACAD_REACTORS
330
2075
330
2077
102
}
330
1F
100
AcDbEntity
  8
0
100
AcDbPolyline
 90
        2
 70
     1
 43
0.0
 10
25.62503668204062
 20
94.7399365345962
 42
24.68742596468933
 10
28.37496331796064
 20
94.7399365345962
 42
24.68742596468933
1001
AcDbBlockRepETag
1070
     1
1071
        5
1005
2066
  0
HATCH
  5
2072
330
1F
100
AcDbEntity
  8
Silikon
 62
     1
100
AcDbHatch
 10
0.0
 20
0.0
 30
0.0
210
0.0
220
0.0
230
1.0
  2
ANGLE
 70
     0
 71
     1
 91
        1
 92
        1
 93
        6
 72
     2
 10
29.96878948957919
 20
72.68680511952259
 40
2.000000000000195
 50
250.0000000000031
 51
344.9999999999982
 73
     1
 72
     1
 10
31.90064114215751
 20
72.16916702931744
 11
31.97944372033152
 21
72.46326225483028
 72
     2
 10
34.87722119919818
 20
71.68680511952309
 40
2.99999999999938
 50
194.999999999996
 51
269.9999999999944
 73
     0
 72
     1
 10
34.87722119919789
 20
74.68680511952246
 11
36.46878948957937
 21
74.68680511952292
 72
     1
 10
36.46878948957937
 20
74.68680511952292
 11
36.46878948957937
 21
68.283635610407
 72
     1
 10
36.46878948957937
 20
68.283635610407
 11
29.28474920292789
 21
70.80741987795055
 97
        1
330
2073
 75
     0
 76
     1
 52
0.0
 41
0.1
 77
     0
 78
     2
 53
0.0
 43
450.8627492833928
 44
-266.9069432969989
 45
0.0
 46
0.6985000000000002
 79
     2
 49
0.508
 49
-0.1905
 53
90.0
 43
450.8627492833928
 44
-266.9069432969989
 45
-0.6985000000000002
 46
0.0
 79
     2
 49
0.508
 49
-0.1905
 98
        1
 10
450.8627492833928
 20
-266.9069432969989
1001
ACAD
1010
0.0
1020
0.0
1030
0.0
1001
AcDbBlockRepETag
1070
     1
1071
       17
1005
2072
  0
LWPOLYLINE
  5
2073
102
{ACAD_REACTORS
330
2072
102
}
330
1F
100
AcDbEntity
  8
Silikon
 62
     1
100
AcDbPolyline
 90
        6
 70
     1
 43
0.0
 10
29.28474920292789
 20
70.80741987795055
 42
0.4400105308918068
 10
31.90064114215751
 20
72.16916702931744
 10
31.97944372033152
 20
72.46326225483028
 42
-0.3394542588633679
 10
34.87722119919789
 20
74.68680511952246
 10
36.46878948957937
 20
74.68680511952292
 10
36.46878948957937
 20
68.283635610407
1001
AcDbBlockRepETag
1070
     1
1071
       18
1005
2073
  0
LWPOLYLINE
  5
2074
330
1F
100
AcDbEntity
  8
Flügelrahmen
100
AcDbPolyline
 90
       15
 70
     0
 43
0.0
 10
40.05305846955951
 20
88.68680511952247
 10
35.96878948957936
 20
88.68680511952247
 10
35.96878948957936
 20
75.18680511952246
 10
35.46878948957937
 20
74.68680511952212
 10
34.8772211991988
 20
74.68680511952246
 42
0.3394542588633798
 10
31.97944372033103
 20
72.46326225482997
 10
31.90064114215751
 20
72.16916702931744
 42
-0.4400105308918374
 10
29.28474920292789
 20
70.80741987795055
 10
22.32318423388841
 20
73.3412223105914
 42
-0.2216946626429468
 10
20.53016680150739
 20
75.1342397429719
 10
20.28776271373107
 20
75.80023950052083
 42
0.2216946626429416
 10
19.09241775881097
 20
76.99558445544126
 10
18.60070891627646
 20
77.17455183804927
 42
-0.3152987888789831
 10
15.96878948957933
 20
80.93332232119278
 10
15.96878948957933
 20
90.73056066722418
1001
AcDbBlockRepETag
1070
     1
1071
       19
1005
2074
  0
HATCH
  5
2075
330
1F
100
AcDbEntity
  8
Schraffur
 62
    84
100
AcDbHatch
 10
0.0
 20
0.0
 30
0.0
210
0.0
220
0.0
230
1.0
  2
STEEL
 70
     0
 71
     1
 91
        1
 92
        7
 72
     1
 73
     1
 93
        4
 10
32.52126916306739
 20
95.60582174006615
 42
0.291887262371315
 10
43.90809908121974
 20
109.9189695869634
 42
0.0
 10
34.52126916306736
 20
109.9189695869634
 42
0.4142135623730951
 10
32.52126916306739
 20
107.9189695869634
 42
0.0
 97
        2
330
2065
330
2066
 75
     0
 76
     1
 52
90.0
 41
2.0
 77
     0
 78
     2
 53
135.0
 43
48.00000000000136
 44
111.6842416508967
 45
-4.490128060534575
 46
-4.490128060534575
 79
     0
 53
135.0
 43
44.82500000000135
 44
111.6842416508967
 45
-4.490128060534575
 46
-4.490128060534575
 79
     0
 47
0.1645810927600751
 98
        1
 10
35.98863930304333
 20
103.6604835366815
1001
ACAD
1010
0.0
1020
0.0
1030
0.0
1001
AcDbBlockRepETag
1070
     1
1071
       20
1005
2075
  0
LINE
  5
2076
102
{ACAD_REACTORS
330
2077
102
}
330
1F
100
AcDbEntity
  8
Schraffur
 62
     5
100
AcDbLine
 10
38.02126916306742
 20
124.6276425191098
 30
0.0
 11
38.02126916306742
 21
113.9189695869635
 31
0.0
1001
AcDbBlockRepETag
1070
     1
1071
       21
1005
2076
  0
HATCH
  5
2077
330
1F
100
AcDbEntity
  8
Schraffur
 62
     5
100
AcDbHatch
 10
0.0
 20
0.0
 30
0.0
210
0.0
220
0.0
230
1.0
  2
STEEL
 70
     0
 71
     1
 91
        1
 92
        7
 72
     1
 73
     1
 93
        3
 10
38.02126916306742
 20
124.6276425191098
 42
0.0
 10
38.02126916306741
 20
113.9189695869634
 42
0.0
 10
43.85247729717531
 20
113.9189695869635
 42
0.1854836719102866
 97
        3
330
2076
330
2063
330
2066
 75
     0
 76
     1
 52
90.0
 41
2.0
 77
     0
 78
     2
 53
135.0
 43
48.00000000000136
 44
94.7399365345962
 45
-4.490128060534575
 46
-4.490128060534575
 79
     0
 53
135.0
 43
44.82500000000135
 44
94.7399365345962
 45
-4.490128060534575
 46
-4.490128060534575
 79
     0
 47
0.138199607233765
 98
        1
 10
40.82308411199437
 20
118.5596980766215
1001
ACAD
1010
0.0
1020
0.0
1030
0.0
1001
AcDbBlockRepETag
1070
     1
1071
       22
1005
2077
  0
LINE
  5
2078
330
1F
100
AcDbEntity
  8
Schraffur
 62
    84
100
AcDbLine
 10
37.96878948957937
 20
90.78353568085205
 30
0.0
 11
37.96878948957937
 21
88.68680511952247
 31
0.0
1001
AcDbBlockRepETag
1070
     1
1071
       23
1005
2078
  0
CIRCLE
  5
207A
330
1F
100
AcDbEntity
  8
0
100
AcDbCircle
 10
183.0
 20
141.8868621400974
 30
0.0
 40
17.0
1001
AcDbBlockRepETag
1070
     1
1071
        2
1005
207A
  0
MTEXT
  5
207B
102
{ACAD_XDICTIONARY
360
2BC3
102
}
330
1F
100
AcDbEntity
  8
0
100
AcDbMText
 10
8.989289813916457
 20
288.6378241102486
 30
0.0
 40
5.0
 41
161.3591144307577
 71
     1
 72
     5
  1
{\fArial|b1|i0|c0|p34;Holzfenster IDEAL IV68xxxx - ClassicLine\PVerbreiterung\P\fArial|b0|i0|c0|p34;\H0.6x;Getriebenutmitte 13.15mm\PGlasst\U+00E4rken 18mm bis 36mm\P\PVertikalschnitt - Horizontalschnitt}
 73
     1
 44
1.0
1001
ACAD
1000
ACAD_MTEXT_DEFINED_HEIGHT_BEGIN
1070
    46
1040
11.02238646360934
1000
ACAD_MTEXT_DEFINED_HEIGHT_END
  0
MTEXT
  5
207C
102
{ACAD_XDICTIONARY
360
2BC5
102
}
330
1F
100
AcDbEntity
  8
0
100
AcDbMText
 10
6.903493688490241
 20
10.76514264524075
 30
0.0
 40
3.0
 41
98.32817594333187
 71
     1
 72
     5
  1
{\fArial|b0|i0|c0|p34;Zeichnung ohne Gew\U+00E4hr; \U+00C4nderungen vorbehalten}
 73
     1
 44
1.0
1001
ACAD
1000
ACAD_MTEXT_DEFINED_HEIGHT_BEGIN
1070
    46
1040
3.967088642823908
1000
ACAD_MTEXT_DEFINED_HEIGHT_END
  0
MTEXT
  5
207D
330
1F
100
AcDbEntity
  8
0
100
AcDbMText
 10
156.3084045242623
 20
13.6008602382999
 30
0.0
 40
5.0
 41
44.56825787201046
 71
     1
 72
     5
  1
{\fArial|b0|i0|c0|p34;01-IV68-xC/20}
 73
     1
 44
1.0
1001
ACAD
1000
ACAD_MTEXT_DEFINED_HEIGHT_BEGIN
1070
    46
1040
9.819575724238347
1000
ACAD_MTEXT_DEFINED_HEIGHT_END
  0
LINE
  5
207E
330
1F
100
AcDbEntity
  8
Schlitz-Zapfen
100
AcDbLine
 10
82.54612944560722
 20
175.8868051195221
 30
0.0
 11
82.54612944560722
 21
108.2863900431026
 31
0.0
  0
LINE
  5
207F
330
1F
100
AcDbEntity
  8
Schlitz-Zapfen
100
AcDbLine
 10
92.04612944560722
 20
175.8868051195223
 30
0.0
 11
92.04612944560722
 21
122.686805119522
 31
0.0
  0
LINE
  5
2080
330
1F
100
AcDbEntity
  8
Schlitz-Zapfen
100
AcDbLine
 10
103.0461294456072
 20
175.8868051195226
 30
0.0
 11
103.0461294456072
 21
122.6868051195222
 31
0.0
  0
LINE
  5
2081
330
1F
100
AcDbEntity
  8
Schlitz-Zapfen
100
AcDbLine
 10
115.0461294456067
 20
175.8868051195221
 30
0.0
 11
115.0461294456067
 21
142.6868051195221
 31
0.0
  0
LINE
  5
2082
102
{ACAD_REACTORS
330
23EE
102
}
330
1F
100
AcDbEntity
  8
Schlitz-Zapfen
100
AcDbLine
 10
99.04612944560746
 20
118.6868051195221
 30
0.0
 11
99.04612944560746
 21
71.28639004310286
 31
0.0
  0
LINE
  5
2084
330
1F
100
AcDbEntity
  8
Schlitz-Zapfen
100
AcDbLine
 10
108.5461294456074
 20
110.1868051195221
 30
0.0
 11
108.5461294456074
 21
88.68680511952252
 31
0.0
  0
LINE
  5
2086
330
1F
100
AcDbEntity
  8
Schlitz-Zapfen
100
AcDbLine
 10
119.5461294456074
 20
118.6868051195221
 30
0.0
 11
119.5461294456074
 21
88.68680511952252
 31
0.0
  0
LINE
  5
2088
330
1F
100
AcDbEntity
  8
Schlitz-Zapfen
100
AcDbLine
 10
131.546129445607
 20
118.6868051195221
 30
0.0
 11
131.546129445607
 21
88.68680511952252
 31
0.0
  0
LINE
  5
208A
330
1F
100
AcDbEntity
  8
Schraffur
 62
     5
100
AcDbLine
 10
92.54612944560722
 20
185.0066090222405
 30
0.0
 11
92.54612944560722
 21
122.686805119522
 31
0.0
  0
LINE
  5
208B
330
1F
100
AcDbEntity
  8
Schraffur
 62
     5
100
AcDbLine
 10
116.5461294456072
 20
185.6834680742318
 30
0.0
 11
116.5461294456072
 21
142.6868051195222
 31
0.0
  0
LINE
  5
208D
330
1F
100
AcDbEntity
  8
Schraffur
 62
    84
100
AcDbLine
 10
109.0461294456072
 20
88.68680511952252
 30
0.0
 11
109.0461294456072
 21
110.1868051195221
 31
0.0
  0
LINE
  5
208F
330
1F
100
AcDbEntity
  8
Schraffur
 62
    84
100
AcDbLine
 10
133.0461294456072
 20
88.68680511952252
 30
0.0
 11
133.0461294456072
 21
128.1868051195221
 31
0.0
  0
MTEXT
  5
2093
330
1F
100
AcDbEntity
  8
Bemaßung
100
AcDbMText
 10
112.9683405585556
 20
105.8578145345015
 30
0.0
 40
4.0
 41
15.20500240567617
 71
     1
 72
     5
  1
{\Fromans|c0;78/68}
  7
RomanS
 73
     1
 44
1.0
  0
MTEXT
  5
2094
330
1F
100
AcDbEntity
  8
Bemaßung
100
AcDbMText
 10
97.29744425530226
 20
161.9988110706246
 30
0.0
 40
4.0
 41
15.20500240567617
 71
     1
 72
     5
  1
{\Fromans|c0;78/68}
  7
RomanS
 73
     1
 44
1.0
  0
MTEXT
  5
2096
330
1F
100
AcDbEntity
  8
0
100
AcDbMText
 10
7.309832270316745
 20
19.77472087046257
 30
0.0
 40
2.5
 41
120.1274149904258
 71
     1
 72
     5
  1
{\fArial|b0|i0|c0|p34;2) SoftLine mit Rundungsradius R5\P6) Maximale Breite}
 73
     1
 44
1.0
1001
ACAD
1000
ACAD_MTEXT_DEFINED_HEIGHT_BEGIN
1070
    46
1040
10.93144067208069
1000
ACAD_MTEXT_DEFINED_HEIGHT_END
  0
DIMENSION
  5
20A5
330
1F
100
AcDbEntity
  8
Bemaßung
100
AcDbDimension
  2
*D3
 10
149.2961294456066
 20
148.6868051195223
 30
0.0
 11
147.4211294456065
 21
167.1868038239727
 31
0.0
 70
    32
 71
     5
 42
36.99999740890071
  3
IDEAL Holz
100
AcDbAlignedDimension
 13
141.8606009037604
 23
185.686802528423
 33
0.0
 14
149.2961294456066
 24
148.6868051195223
 34
0.0
 50
90.0
100
AcDbRotatedDimension
  0
DIMENSION
  5
20A6
330
1F
100
AcDbEntity
  8
Bemaßung
100
AcDbDimension
  2
*D4
 10
80.67093226343969
 20
70.68680511952229
 30
0.0
 11
78.79593226343968
 21
79.68680511952242
 31
0.0
 70
    32
 71
     5
 42
18.00000000000023
  3
IDEAL Holz
100
AcDbAlignedDimension
 13
87.04612944560722
 23
88.68680511952252
 33
0.0
 14
86.11105697658606
 24
70.68680511952229
 34
0.0
 50
90.0
100
AcDbRotatedDimension
  0
DIMENSION
  5
20A7
330
1F
100
AcDbEntity
  8
Bemaßung
100
AcDbDimension
  2
*D6
 10
127.1820252574796
 20
142.6868051195222
 30
0.0
 11
125.3070252574796
 21
136.6868051195224
 31
0.0
 70
    32
 71
     5
 42
11.99999999999969
  3
IDEAL Holz
100
AcDbAlignedDimension
 13
127.1820252574796
 23
130.6868051195225
 33
0.0
 14
127.1820252574796
 24
142.6868051195222
 34
0.0
 50
90.0
100
AcDbRotatedDimension
  0
LINE
  5
20AB
330
1F
100
AcDbEntity
  8
0
  6
STRICHPUNKT
 48
0.1804
100
AcDbLine
 10
194.8543848370552
 20
44.83075971873649
 30
0.0
 11
194.8543848370552
 21
36.49523870256128
 31
0.0
1001
AcDbBlockRepETag
1070
     1
1071
        0
1005
0
  0
LINE
  5
20AD
330
1F
100
AcDbEntity
  8
0
  6
STRICHPUNKT
 48
0.1804
100
AcDbLine
 10
194.9545105072665
 20
31.54465256767676
 30
0.0
 11
203.6213809739047
 21
31.54465256767676
 31
0.0
1001
AcDbBlockRepETag
1070
     1
1071
       32
1005
0
  0
MTEXT
  5
20AE
330
1F
100
AcDbEntity
  8
Schraffur
100
AcDbMText
 10
193.0123072101678
 20
44.3998706615932
 30
0.0
 40
2.5
 41
1.84181877992887
 71
     1
 72
     5
  1
A
  7
RomanS
 73
     1
 44
1.0
  0
MTEXT
  5
20B0
330
1F
100
AcDbEntity
  8
Schraffur
100
AcDbMText
 10
201.497858864378
 20
34.77734658121746
 30
0.0
 40
2.5
 41
1.84181877992887
 71
     1
 72
     5
  1
B
  7
RomanS
 73
     1
 44
1.0
  0
MTEXT
  5
20BE
330
1F
100
AcDbEntity
  8
Bemaßung
100
AcDbMText
 10
22.81798793616417
 20
159.1910323685612
 30
0.0
 40
2.5
 41
4.582772900059353
 71
     2
 72
     5
  1
R13
  7
RomanS
 73
     1
 44
1.0
1001
ACAD
1000
ACAD_MTEXT_DEFINED_HEIGHT_BEGIN
1070
    46
1040
1.971624324197813
1000
ACAD_MTEXT_DEFINED_HEIGHT_END
  0
MTEXT
  5
20BF
330
1F
100
AcDbEntity
  8
Bemaßung
100
AcDbMText
 10
90.53316683511004
 20
78.69008119740977
 30
0.0
 40
2.5
 41
4.582772900059353
 71
     2
 72
     5
  1
R3
  7
RomanS
 73
     1
 44
1.0
1001
ACAD
1000
ACAD_MTEXT_DEFINED_HEIGHT_BEGIN
1070
    46
1040
1.971624324197813
1000
ACAD_MTEXT_DEFINED_HEIGHT_END
  0
HATCH
  5
20C4
330
1F
100
AcDbEntity
  8
Schraffur
 62
     5
100
AcDbHatch
 10
0.0
 20
0.0
 30
0.0
210
0.0
220
0.0
230
1.0
  2
STEEL
 70
     0
 71
     0
 91
        1
 92
        7
 72
     1
 73
     1
 93
        4
 10
172.6603539866116
 20
155.3809986562969
 42
0.2201914815091852
 10
166.0212926211903
 20
142.7374476706353
 42
0.0
 10
170.6603539866113
 20
142.7374476706366
 42
0.4142135623730951
 10
172.6603539866116
 20
144.7374476706367
 42
0.0
 97
        0
 75
     0
 76
     1
 52
0.0
 41
2.0
 77
     0
 78
     2
 53
45.0
 43
0.0
 44
0.0
 45
-4.490128060534575
 46
4.490128060534575
 79
     0
 53
45.0
 43
0.0
 44
3.174999999999998
 45
-4.490128060534575
 46
4.490128060534575
 79
     0
 47
0.1946356827982703
 98
        3
 10
26.48916744304609
 20
108.3133417175068
 10
179.454048761013
 20
28.90227815745589
 10
169.5729231308462
 20
147.8077902006857
1001
AcDbBlockRepETag
1070
     1
1071
        0
1005
0
1001
ACAD
1010
0.0
1020
0.0
1030
0.0
  0
TEXT
  5
20C5
330
1F
100
AcDbEntity
  8
0
100
AcDbText
 10
166.4839521426016
 20
161.0097687201681
 30
0.0
 40
2.5
  1
Dichtung am Überschlag
 41
0.7
  7
RomanS
100
AcDbText
1001
AcDbBlockRepETag
1070
     1
1071
        3
1005
0
  0
TEXT
  5
20C6
330
1F
100
AcDbEntity
  8
0
100
AcDbText
 10
169.2107403093221
 20
166.2609364460553
 30
0.0
 40
3.5
  1
optional ohne
 41
0.7
  7
RomanS
100
AcDbText
1001
AcDbBlockRepETag
1070
     1
1071
        4
1005
0
  0
LWPOLYLINE
  5
20C7
330
1F
100
AcDbEntity
  8
Blendrahmen
100
AcDbPolyline
 90
        4
 70
     0
 43
0.0
 10
166.0212926211903
 20
142.7374476706353
 10
170.6603539866113
 20
142.7374476706366
 42
0.4142135623730951
 10
172.6603539866116
 20
144.7374476706367
 10
172.6603539866116
 20
155.3809986562965
1001
AcDbBlockRepETag
1070
     1
1071
        5
1005
0
  0
MTEXT
  5
20C8
330
1F
100
AcDbEntity
  8
0
100
AcDbMText
 10
199.840685988822
 20
165.2570243725283
 30
0.0
 40
1.5
 41
7.649234826219069
 71
     1
 72
     5
  1
{\fArial|b1|i0|c0|p34;2)}
 73
     1
 44
1.0
1001
AcDbBlockRepETag
1070
     1
1071
        9
1005
0
  0
HATCH
  5
20C9
330
1F
100
AcDbEntity
  8
Schraffur
 62
    84
100
AcDbHatch
 10
0.0
 20
0.0
 30
0.0
210
0.0
220
0.0
230
1.0
  2
STEEL
 70
     0
 71
     0
 91
        2
 92
        7
 72
     1
 73
     1
 93
       10
 10
189.1603539866116
 20
126.0423034917904
 42
-0.3154694933720204
 10
170.210992112917
 20
130.6868051195225
 42
0.0
 10
171.6603539866114
 20
130.6868051195222
 42
0.4142135623730951
 10
172.6603539866116
 20
131.6868051195222
 42
0.0
 10
172.6603539866116
 20
137.6868051195227
 42
0.0
 10
172.6603539866116
 20
146.686805119522
 42
-0.4142135623730951
 10
174.6603539866116
 20
148.6868051195218
 42
0.0
 10
180.6603539866114
 20
148.6868051195218
 42
0.0
 10
186.1603539866114
 20
148.6868051195218
 42
-0.4142135623730951
 10
189.1603539866116
 20
145.6868051195218
 42
0.0
 97
        0
 92
       24
 93
        4
 72
     1
 10
182.6115480482395
 20
138.8726560980844
 11
188.9448813815729
 21
138.8726560980844
 72
     1
 10
188.9448813815729
 20
138.8726560980844
 11
188.9448813815729
 21
148.098846574275
 72
     1
 10
188.9448813815729
 20
148.098846574275
 11
182.6115480482395
 21
148.098846574275
 72
     1
 10
182.6115480482395
 20
148.098846574275
 11
182.6115480482395
 21
138.8726560980845
 97
        0
 75
     0
 76
     1
 52
90.0
 41
2.0
 77
     0
 78
     2
 53
135.0
 43
0.0
 44
0.0
 45
-4.490128060534575
 46
-4.490128060534575
 79
     0
 53
135.0
 43
-3.174999999999998
 44
0.0000000000000002
 45
-4.490128060534575
 46
-4.490128060534575
 79
     0
 47
0.4247652808687849
 98
        1
 10
183.3425491652373
 20
134.0083397355737
1001
ACAD
1010
0.0
1020
0.0
1030
0.0
  0
MTEXT
  5
20CA
330
1F
100
AcDbEntity
  8
Bemaßung
100
AcDbMText
 10
185.7782147149062
 20
147.3289706634818
 30
0.0
 40
2.5
 41
4.543296159483361
 71
     2
 72
     5
  1
R3\P(R5)
  7
RomanS
 73
     1
 44
1.0
1001
ACAD
1000
ACAD_MTEXT_DEFINED_HEIGHT_BEGIN
1070
    46
1040
7.831314565397414
1000
ACAD_MTEXT_DEFINED_HEIGHT_END
  0
LWPOLYLINE
  5
20CB
330
1F
100
AcDbEntity
  8
Flügelrahmen
100
AcDbPolyline
 90
       11
 70
     0
 43
0.0
 10
189.1603539866116
 20
126.0423034917905
 10
189.1603539866116
 20
145.6868051195218
 42
0.4142135623730951
 10
186.1603539866114
 20
148.6868051195218
 10
180.6603539866114
 20
148.6868051195218
 10
174.6603539866116
 20
148.6868051195218
 42
0.4142135623730951
 10
172.6603539866116
 20
146.686805119522
 10
172.6603539866116
 20
137.6868051195227
 10
172.6603539866116
 20
137.6868051195227
 10
172.6603539866116
 20
131.6868051195222
 42
-0.4142135623730951
 10
171.6603539866114
 20
130.6868051195222
 10
170.210992112917
 20
130.6868051195225
  0
INSERT
  5
20CC
330
1F
100
AcDbEntity
  8
0
100
AcDbBlockReference
  2
D-Mitteldichtung
 10
113.2461294456068
 20
110.1868051195221
 30
0.0
 41
-1.0
 50
180.0
  0
INSERT
  5
20CD
102
{ACAD_XDICTIONARY
360
2BFF
102
}
330
1F
100
AcDbEntity
  8
0
100
AcDbBlockReference
  2
D-Überschlag
 10
144.5461294456062
 20
133.1868051195221
 30
0.0
  0
DIMENSION
  5
20D8
330
1F
100
AcDbEntity
  8
Bemaßung
100
AcDbDimension
  2
*D5
 10
65.88398883541163
 20
114.7546554689262
 30
0.0
 11
63.77089359731638
 21
111.2207302942241
 31
0.0
 70
    32
 71
     5
 42
7.067850349404207
  3
IDEAL Holz
100
AcDbAlignedDimension
 13
69.93982780912779
 23
107.686805119522
 33
0.0
 14
65.88398883541163
 24
114.7546554689262
 34
0.0
 50
90.0
100
AcDbRotatedDimension
  0
HATCH
  5
21B2
330
1F
100
AcDbEntity
  8
Schraffur
 62
    54
100
AcDbHatch
 10
0.0
 20
0.0
 30
0.0
210
0.0
220
0.0
230
1.0
  2
STEEL
 70
     0
 71
     1
 91
        2
 92
        7
 72
     1
 73
     1
 93
        9
 10
138.5461294456069
 20
204.6868051193852
 42
0.0
 10
138.5461294456069
 20
207.6868051195223
 42
0.4142135623730951
 10
135.5461294456071
 20
210.6868051195222
 42
0.0
 10
116.6461294456071
 20
210.6868051195222
 42
0.0166805839233043
 10
116.5461294456073
 20
210.6834680742318
 42
0.0
 10
116.5461294456073
 20
185.6868051195221
 42
0.0
 10
135.5461294456068
 20
185.6868051195221
 42
0.4142135623730896
 10
138.5461294456068
 20
188.6868051195221
 42
0.0
 10
138.5461294456069
 20
200.6868051195223
 42
0.0
 97
        2
330
21B6
330
21B4
 92
        7
 72
     1
 73
     1
 93
       21
 10
82.44612944560726
 20
201.1868051195223
 42
0.0
 10
82.44612944560726
 20
209.1868051195223
 42
0.4142135623730813
 10
80.94612944560733
 20
210.6868051195222
 42
0.0
 10
73.54612944560739
 20
210.6868051195222
 42
0.4142135623730951
 10
70.54612944560739
 20
207.6868051195222
 42
0.0
 10
70.54612944560739
 20
200.6868051195222
 42
0.0
 10
70.54612944560739
 20
188.6868051195222
 42
0.4142135623730994
 10
73.54612944560743
 20
185.6868051195221
 42
0.0
 10
80.94612944560726
 20
185.6868051195221
 42
-0.4142135623731062
 10
82.44612944560726
 20
184.1868051195221
 42
0.0
 10
82.44612944560719
 20
177.6868051195221
 42
0.4142135623730876
 10
83.4461294456072
 20
176.6868051195221
 42
0.0
 10
91.14612944560741
 20
176.686805119522
 42
0.4142135623730984
 10
92.14612944560741
 20
177.686805119522
 42
0.0
 10
92.14612944560752
 20
184.9868051195216
 42
-0.1891030307294412
 10
92.54612944560731
 20
186.00660902224
 42
0.0
 10
92.54612944560731
 20
210.0066090222403
 42
0.1891030307293987
 10
92.14612944560752
 20
208.9868051195221
 42
0.0
 10
92.1461294456073
 20
201.1868051195223
 42
-0.4142135623731324
 10
91.64612944560701
 20
200.686805119522
 42
0.0
 10
82.94612944560725
 20
200.6868051195223
 42
-0.4142135623730951
 97
        2
330
21B4
330
21B5
 75
     0
 76
     1
 52
90.0
 41
2.0
 77
     0
 78
     2
 53
135.0
 43
0.0
 44
0.0
 45
-4.490128060534575
 46
-4.490128060534575
 79
     0
 53
135.0
 43
-3.174999999999998
 44
0.0000000000000002
 45
-4.490128060534575
 46
-4.490128060534575
 79
     0
 47
0.739130329058463
 98
        2
 10
131.9704205734265
 20
203.5143200905334
 10
79.49216806903592
 20
200.5548110067182
1001
ACAD
1010
0.0
1020
0.0
1030
0.0
  0
HATCH
  5
21B3
330
1F
100
AcDbEntity
  8
Schraffur
 62
    54
100
AcDbHatch
 10
0.0
 20
0.0
 30
0.0
210
0.0
220
0.0
230
1.0
  2
STEEL
 70
     0
 71
     0
 91
        3
 92
       24
 93
        4
 72
     1
 10
113.8418810970573
 20
197.6562968683694
 11
116.2576382594038
 21
197.6562968683694
 72
     1
 10
116.2576382594038
 20
197.6562968683694
 11
116.2576382594038
 21
194.9397211521348
 72
     1
 10
116.2576382594038
 20
194.9397211521348
 11
113.8418810970573
 21
194.9397211521348
 72
     1
 10
113.8418810970573
 20
194.9397211521348
 11
113.8418810970573
 21
197.6562968683694
 97
        0
 92
       24
 93
        4
 72
     1
 10
94.71048250618109
 20
200.7758408211028
 11
115.6438158395144
 21
200.7758408211028
 72
     1
 10
115.6438158395144
 20
200.7758408211028
 11
115.6438158395144
 21
185.2520312972933
 72
     1
 10
115.6438158395144
 20
185.2520312972933
 11
94.71048250618109
 21
185.2520312972933
 72
     1
 10
94.71048250618109
 20
185.2520312972933
 11
94.71048250618109
 21
200.7758408211028
 97
        0
 92
        1
 93
       20
 72
     2
 10
93.64612944560731
 20
208.9868051195221
 40
1.499999999999769
 50
90.00000000000868
 51
137.1665719339408
 73
     1
 72
     1
 10
92.54612944560731
 20
210.0066090222403
 11
92.54612944560731
 21
186.0066090222401
 72
     2
 10
93.64612944560724
 20
184.9868051195218
 40
1.499999999999761
 50
222.8334280660603
 51
270.0000000000104
 73
     0
 72
     1
 10
93.64612944560752
 20
186.4868051195216
 11
101.4461294456085
 21
186.4868051195206
 72
     2
 10
101.4461294456084
 20
184.9868051195213
 40
1.499999999999289
 50
270.0000000000038
 51
360.0
 73
     0
 72
     1
 10
102.9461294456077
 20
184.9868051195213
 11
102.9461294456077
 21
177.6868051195221
 72
     2
 10
103.9461294456077
 20
177.6868051195221
 40
0.9999999999999998
 50
180.0
 51
270.0
 73
     1
 72
     1
 10
103.9461294456077
 20
176.6868051195221
 11
114.146129445607
 21
176.6868051195221
 72
     2
 10
114.146129445607
 20
177.6868051195221
 40
0.9999999999999998
 50
270.0
 51
360.0
 73
     1
 72
     1
 10
115.146129445607
 20
177.6868051195221
 11
115.146129445607
 21
184.1868051195222
 72
     2
 10
116.646129445607
 20
184.1868051195221
 40
1.500000000000046
 50
180.0000000000011
 51
266.1774462707364
 73
     0
 72
     1
 10
116.5461294456073
 20
185.6834680742318
 11
116.5461294456073
 21
215.6834680742318
 72
     2
 10
116.646129445607
 20
214.1868051195222
 40
1.500000000000025
 50
93.82255372926321
 51
180.0
 73
     1
 72
     1
 10
115.146129445607
 20
214.1868051195222
 11
115.146129445607
 21
201.1868051195223
 72
     2
 10
114.646129445607
 20
201.1868051195222
 40
0.4999999999999434
 50
359.9999999999935
 51
449.9999999999951
 73
     0
 72
     1
 10
114.6461294456071
 20
200.6868051195223
 11
103.4461294456072
 21
200.6868051195223
 72
     2
 10
103.4461294456074
 20
201.1868051195221
 40
0.4999999999997513
 50
90.00000000002932
 51
180.0000000000293
 73
     0
 72
     1
 10
102.9461294456077
 20
201.1868051195223
 11
102.9461294456077
 21
208.9868051195212
 72
     2
 10
101.4461294456082
 20
208.9868051195211
 40
1.499999999999448
 50
0.0000000000010877
 51
90.00000000000545
 73
     1
 72
     1
 10
101.4461294456081
 20
210.4868051195206
 11
93.64612944560708
 21
210.4868051195218
 97
        0
 75
     0
 76
     1
 52
0.0
 41
2.0
 77
     0
 78
     2
 53
45.0
 43
0.0
 44
0.0
 45
-4.490128060534575
 46
4.490128060534575
 79
     0
 53
45.0
 43
0.0
 44
3.174999999999998
 45
-4.490128060534575
 46
4.490128060534575
 79
     0
 98
        4
 10
0.0
 20
0.0
 10
0.0
 20
0.0
 10
0.0
 20
0.0
 10
105.3617291924839
 20
187.2370322180584
1001
ACAD
1010
0.0
1020
0.0
1030
0.0
  0
LWPOLYLINE
  5
21B4
102
{ACAD_REACTORS
330
21B2
102
}
330
1F
100
AcDbEntity
  8
Zusatzprofile
100
AcDbPolyline
 90
       44
 70
     1
 43
0.0
 10
70.54612944560739
 20
200.6868051195222
 10
70.54612944560739
 20
188.6868051195222
 42
0.4142135623730951
 10
73.54612944560739
 20
185.6868051195221
 10
80.94612944560726
 20
185.6868051195221
 42
-0.4142135623730951
 10
82.44612944560726
 20
184.1868051195222
 10
82.44612944560719
 20
177.6868051195221
 42
0.4142135623730875
 10
83.4461294456072
 20
176.6868051195221
 10
91.14612944560741
 20
176.686805119522
 42
0.4142135623730984
 10
92.14612944560741
 20
177.686805119522
 10
92.14612944560752
 20
184.9868051195216
 42
-0.4142135623731804
 10
93.64612944560752
 20
186.4868051195216
 10
101.4461294456085
 20
186.4868051195206
 42
-0.4142135623730728
 10
102.9461294456077
 20
184.9868051195213
 10
102.9461294456077
 20
177.6868051195221
 42
0.4142135623730959
 10
103.9461294456077
 20
176.6868051195221
 10
114.146129445607
 20
176.6868051195221
 42
0.4142135623730951
 10
115.146129445607
 20
177.6868051195221
 10
115.146129445607
 20
184.1868051195222
 42
-0.4142135623730951
 10
116.6461294456071
 20
185.6868051195221
 10
135.5461294456068
 20
185.6868051195221
 42
0.4142135623730951
 10
138.5461294456068
 20
188.6868051195222
 10
138.5461294456069
 20
200.6868051195223
 10
138.5461294456069
 20
204.6868051193852
 10
138.5461294456069
 20
207.6868051195223
 42
0.4142135623730951
 10
135.5461294456071
 20
210.6868051195222
 10
116.6461294456071
 20
210.6868051195222
 42
0.4142135623730951
 10
115.146129445607
 20
209.1868051195223
 10
115.146129445607
 20
201.1868051195223
 42
-0.4142135623730992
 10
114.6461294456071
 20
200.6868051195223
 10
114.146129445607
 20
200.686805119522
 10
103.4461294456072
 20
200.6868051195223
 42
-0.4142135623730911
 10
102.9461294456077
 20
201.1868051195223
 10
102.9461294456077
 20
208.9868051195213
 42
0.4142135623730911
 10
101.4461294456081
 20
210.4868051195206
 10
93.64612944560708
 20
210.4868051195218
 42
0.4142135623730992
 10
92.14612944560752
 20
208.9868051195218
 10
92.1461294456073
 20
201.1868051195223
 42
-0.4142135623730992
 10
91.64612944560706
 20
200.686805119522
 10
82.94612944560725
 20
200.6868051195223
 42
-0.4142135623730951
 10
82.44612944560726
 20
201.1868051195223
 10
82.44612944560726
 20
209.1868051195223
 42
0.4142135623730951
 10
80.94612944560726
 20
210.6868051195222
 10
73.54612944560739
 20
210.6868051195222
 42
0.4142135623730951
 10
70.54612944560739
 20
207.6868051195222
  0
LINE
  5
21B5
102
{ACAD_REACTORS
330
21B2
102
}
330
1F
100
AcDbEntity
  8
Schraffur
 62
    54
100
AcDbLine
 10
92.54612944560731
 20
186.0066090222401
 30
0.0
 11
92.54612944560731
 21
210.0066090222402
 31
0.0
  0
LINE
  5
21B6
102
{ACAD_REACTORS
330
21B2
102
}
330
1F
100
AcDbEntity
  8
Schraffur
 62
    54
100
AcDbLine
 10
116.5461294456073
 20
185.6834680742318
 30
0.0
 11
116.5461294456073
 21
210.6834680742319
 31
0.0
  0
LWPOLYLINE
  5
21B7
330
1F
100
AcDbEntity
  8
Glasleiste
100
AcDbPolyline
 90
       23
 70
     1
 43
0.0
 10
173.313429340307
 20
88.68680511952234
 10
171.2763559120463
 20
87.9453710266207
 10
171.2763559120466
 20
82.67331149515319
 42
-0.3178372451957874
 10
170.60968924538
 20
81.73050245357115
 42
0.3178372451957952
 10
170.2763559120466
 20
81.25909793278006
 10
170.2763559120467
 20
75.18680511952232
 10
170.7763559120467
 20
74.68680511952229
 10
171.3679242024273
 20
74.68680511952229
 42
-0.3394542588633623
 10
174.2657016812944
 20
72.46326225482994
 10
174.3445042594684
 20
72.16916702931726
 42
0.4400105308918321
 10
176.9603961986979
 20
70.80741987795049
 10
183.3456093454042
 20
73.13144740279691
 42
0.2216946626429391
 10
185.1386267777848
 20
74.92446483517759
 10
185.4573826878943
 20
75.8002395005208
 42
-0.2216946626429391
 10
186.6527276428147
 20
76.99558445544119
 10
190.1444364853489
 20
78.26646254084781
 42
0.3152987888789831
 10
192.7763559120462
 20
82.02523302399137
 10
192.7763559120462
 20
88.68680511952247
 42
0.4142135623730951
 10
190.7763559120462
 20
90.6868051195225
 10
189.343251766218
 20
90.68680511952235
 42
0.3639702342662163
 10
188.8508478897119
 20
90.27362920835576
 10
188.6439020501301
 20
89.09998103068899
 42
-0.3639702342662049
 10
188.1514981736238
 20
88.68680511952247
1001
AcDbBlockRepETag
1070
     1
1071
       17
1005
21B7
  0
HATCH
  5
21B9
330
1F
100
AcDbEntity
  8
Schraffur
 62
    84
100
AcDbHatch
 10
0.0
 20
0.0
 30
0.0
210
0.0
220
0.0
230
1.0
  2
STEEL
 70
     0
 71
     0
 91
        1
 92
        7
 72
     1
 73
     1
 93
       24
 10
188.1514981736239
 20
88.68680511952247
 42
0.3639702342665228
 10
188.6439020501299
 20
89.09998103068909
 42
0.0
 10
188.8508478897117
 20
90.27362920835583
 42
-0.3639702342662163
 10
189.3432517662181
 20
90.68680511952242
 42
0.0
 10
190.7763559120463
 20
90.6868051195225
 42
-0.4142135623730951
 10
192.7763559120464
 20
88.68680511952247
 42
0.0
 10
192.7763559120464
 20
82.02523302399145
 42
-0.3152987888789831
 10
190.1444364853491
 20
78.26646254084778
 42
0.0
 10
186.6527276428148
 20
76.99558445544131
 42
0.2216946626429392
 10
185.4573826878946
 20
75.80023950052076
 42
0.0
 10
185.1386267777848
 20
74.92446483517795
 42
-0.2216946626429391
 10
183.3456093454043
 20
73.13144740279693
 42
0.0
 10
176.9603961986897
 20
70.80741987794643
 42
0.0
 10
176.9180179683948
 20
70.79253222327884
 42
-0.4333251351666421
 10
174.3445042594684
 20
72.16916702931745
 42
0.0
 10
174.2657016812943
 20
72.46326225483016
 42
0.3394542588634565
 10
171.3679242024273
 20
74.68680511952243
 42
0.0
 10
170.7763559120467
 20
74.68680511952243
 42
0.0
 10
170.2763559120467
 20
75.18680511952243
 42
0.0
 10
170.2763559120467
 20
81.25909793278017
 42
-0.3178372451958395
 10
170.6096892453803
 20
81.73050245357121
 42
0.3178372451957652
 10
171.2763559120463
 20
82.67331149515319
 42
0.0
 10
171.2763559120463
 20
87.9453710266207
 42
0.0
 10
173.313429340307
 20
88.68680511952247
 42
0.0
 97
        0
 75
     0
 76
     1
 52
0.0
 41
1.0
 77
     0
 78
     2
 53
45.0
 43
0.0
 44
0.0
 45
-2.245064030267287
 46
2.245064030267287
 79
     0
 53
45.0
 43
0.0
 44
1.587499999999999
 45
-2.245064030267287
 46
2.245064030267287
 79
     0
 47
0.1061632553570742
 98
        1
 10
183.4302013291951
 20
86.14792444028154
1001
AcDbBlockRepETag
1070
     1
1071
       15
1005
21B9
1001
ACAD
1010
0.0
1020
0.0
1030
0.0
  0
MTEXT
  5
21BA
330
1F
100
AcDbEntity
  8
0
100
AcDbMText
 10
182.791917570025
 20
106.9141682212908
 30
0.0
 40
2.5
 41
32.45222712164236
 71
     5
 72
     1
  1
Glasleiste profiliert\Pfür Glasstärken 24mm bis 34mm
  7
RomanS
 73
     1
 44
1.0
1001
AcDbBlockRepETag
1070
     1
1071
       16
1005
21BA
1001
ACAD
1000
ACAD_MTEXT_DEFINED_HEIGHT_BEGIN
1070
    46
1040
12.21528446946036
1000
ACAD_MTEXT_DEFINED_HEIGHT_END
  0
LINE
  5
21BB
330
1F
100
AcDbEntity
  8
Silikon
 62
     1
100
AcDbLine
 10
176.9180179682819
 20
70.7925322232406
 30
0.0
 11
172.582200884975
 21
69.2693410236966
 31
0.0
1001
AcDbBlockRepETag
1070
     1
1071
        0
1005
21BB
  0
HATCH
  5
21BC
330
1F
100
AcDbEntity
  8
Silikon
 62
     1
100
AcDbHatch
 10
0.0
 20
0.0
 30
0.0
210
0.0
220
0.0
230
1.0
  2
ANGLE
 70
     0
 71
     1
 91
        1
 92
        1
 93
        7
 72
     1
 10
172.582200884975
 20
69.2693410236966
 11
176.9603961986977
 21
70.80741987795069
 72
     2
 10
176.2763559120465
 20
72.68680511952251
 40
1.999999999999959
 50
70.00000000000389
 51
164.999999999999
 73
     0
 72
     1
 10
174.3445042594684
 20
72.16916702931745
 11
174.2657016812943
 21
72.46326225483016
 72
     2
 10
171.3679242024279
 20
71.68680511952313
 40
2.999999999999086
 50
14.99999999999408
 51
89.99999999999241
 73
     1
 72
     1
 10
171.3679242024283
 20
74.68680511952221
 11
169.7763559120464
 21
74.68680511952221
 72
     1
 10
169.7763559120464
 20
74.68680511952221
 11
169.7763559120464
 21
72.01982386721289
 72
     2
 10
183.0000000000005
 20
82.70323329656372
 40
17.00000000000074
 50
218.9348163439018
 51
232.2069130505847
 73
     1
 97
        1
330
21BD
 75
     0
 76
     1
 52
0.0
 41
0.1
 77
     0
 78
     2
 53
180.0
 43
-244.6176038817667
 44
-266.9069432969987
 45
0.0
 46
0.6985000000000002
 79
     2
 49
0.508
 49
-0.1905
 53
90.0
 43
-244.6176038817667
 44
-266.9069432969987
 45
0.6985000000000002
 46
0.0
 79
     2
 49
0.508
 49
-0.1905
 98
        1
 10
-244.6176038817667
 20
-266.9069432969987
1001
ACAD
1010
0.0
1020
0.0
1030
0.0
1001
AcDbBlockRepETag
1070
     1
1071
        1
1005
21BC
  0
LWPOLYLINE
  5
21BD
102
{ACAD_REACTORS
330
21BC
102
}
330
1F
100
AcDbEntity
  8
Silikon
 62
     1
100
AcDbPolyline
 90
        7
 70
     1
 43
0.0
 10
172.582200884975
 20
69.2693410236966
 10
176.9603961986977
 20
70.80741987795069
 42
-0.4400105308918084
 10
174.3445042594684
 20
72.16916702931745
 10
174.2657016812943
 20
72.46326225483016
 42
0.3394542588633679
 10
171.3679242024283
 20
74.68680511952221
 10
169.7763559120464
 20
74.68680511952221
 10
169.7763559120464
 20
72.01982386721289
 42
0.0579752700428324
1001
AcDbBlockRepETag
1070
     1
1071
        2
1005
21BD
  0
HATCH
  5
21BE
330
1F
100
AcDbEntity
  8
Schraffur
 62
    84
100
AcDbHatch
 10
0.0
 20
0.0
 30
0.0
210
0.0
220
0.0
230
1.0
  2
STEEL
 70
     0
 71
     0
 91
        1
 92
        7
 72
     1
 73
     1
 93
       14
 10
193.7763559120464
 20
94.6868051195223
 42
0.0
 10
193.7763559120464
 20
95.85124277545055
 42
0.5135471230855161
 10
167.0878389827309
 20
88.68680511952247
 42
0.0
 10
169.2763559120463
 20
88.68680511952247
 42
0.0
 10
181.7763559120467
 20
88.68680511952247
 42
0.0
 10
181.7763559120467
 20
92.68680511952274
 42
0.0
 10
185.7763559120463
 20
92.68680511952274
 42
0.0
 10
185.7763559120463
 20
88.68680511952247
 42
0.0
 10
188.1514981736239
 20
88.68680511952247
 42
0.3639702342664933
 10
188.6439020501299
 20
89.09998103068909
 42
0.0
 10
188.8508478897117
 20
90.27362920835583
 42
0.0
 10
189.1306477902114
 20
91.86045329718941
 42
-0.3639702342662052
 10
190.115455543224
 20
92.68680511952274
 42
0.0
 10
191.7763559120464
 20
92.68680511952274
 42
0.4142135623731038
 97
        0
 75
     0
 76
     1
 52
90.0
 41
2.0
 77
     0
 78
     2
 53
135.0
 43
0.0
 44
0.0
 45
-4.490128060534575
 46
-4.490128060534575
 79
     0
 53
135.0
 43
-3.174999999999998
 44
0.0000000000000002
 45
-4.490128060534575
 46
-4.490128060534575
 79
     0
 47
0.5460268397635694
 98
        1
 10
178.2895431259985
 20
93.74240685508812
1001
AcDbBlockRepETag
1070
     1
1071
        3
1005
21BE
1001
ACAD
1010
0.0
1020
0.0
1030
0.0
  0
LWPOLYLINE
  5
21BF
330
1F
100
AcDbEntity
  8
Flügelrahmen
100
AcDbPolyline
 90
       12
 70
     0
 43
0.0
 10
193.7763559120464
 20
95.85124277545055
 10
193.7763559120464
 20
94.6868051195223
 42
-0.4142135623731038
 10
191.7763559120464
 20
92.68680511952274
 10
190.115455543224
 20
92.68680511952274
 42
0.3639702342662053
 10
189.1306477902114
 20
91.86045329718941
 10
188.6439020501299
 20
89.09998103068891
 42
-0.3639702342662052
 10
188.1514981736239
 20
88.68680511952275
 10
185.7763559120463
 20
88.68680511952275
 10
185.7763559120463
 20
92.68680511952274
 10
181.7763559120467
 20
92.68680511952274
 10
181.7763559120467
 20
88.68680511952247
 10
167.0878389827309
 20
88.68680511952247
1001
AcDbBlockRepETag
1070
     1
1071
        4
1005
21BF
  0
CIRCLE
  5
21C3
330
1F
100
AcDbEntity
  8
0
100
AcDbCircle
 10
182.9999999999999
 20
82.70323329656372
 30
0.0
 40
17.0
1001
AcDbBlockRepETag
1070
     1
1071
        8
1005
21C3
  0
DIMENSION
  5
22CB
330
1F
100
AcDbEntity
  8
Bemaßung
100
AcDbDimension
  2
*D7
 10
149.2961294456066
 20
210.6868051195222
 30
0.0
 11
146.7663675408446
 21
198.1868038239726
 31
0.0
 70
    32
  1
<> (130)
 71
     5
 42
25.00000259109916
  3
IDEAL Holz
100
AcDbAlignedDimension
 13
149.2961294456066
 23
185.686802528423
 33
0.0
 14
143.3586294456068
 24
210.6868051195222
 34
0.0
 50
90.0
100
AcDbRotatedDimension
  0
MTEXT
  5
2347
330
1F
100
AcDbEntity
  8
Bemaßung
100
AcDbMText
 10
105.1771491728477
 20
199.7758408211028
 30
0.0
 40
4.0
 41
15.20500240567617
 71
     2
 72
     5
  1
\A1;34/68\P(139/68)
  7
RomanS
 73
     1
 44
1.0
  0
MTEXT
  5
2349
330
1F
100
AcDbEntity
  8
Bemaßung
100
AcDbMText
 10
143.8275625191109
 20
204.5077132897143
 30
0.0
 40
1.5
 41
1.829115634265456
 71
     1
 72
     5
  1
{\fArial|b1|i0|c0|p34;6)}
 11
0.0000000000000001
 21
1.0
 31
0.0
 73
     1
 44
1.0
1001
AcDbBlockRepETag
1070
     1
1071
        9
1005
0
1001
ACAD
1000
ACAD_MTEXT_DEFINED_HEIGHT_BEGIN
1070
    46
1040
2.124910892103068
1000
ACAD_MTEXT_DEFINED_HEIGHT_END
  0
MTEXT
  5
234A
330
1F
100
AcDbEntity
  8
Bemaßung
100
AcDbMText
 10
114.2168810970573
 20
197.2812968683694
 30
0.0
 40
1.5
 41
7.649234826219069
 71
     1
 72
     5
  1
{\fArial|b1|i0|c0|p34;6)}
 73
     1
 44
1.0
1001
AcDbBlockRepETag
1070
     1
1071
        9
1005
0
  0
DIMENSION
  5
2382
102
{ACAD_XDICTIONARY
360
238F
102
}
102
{ACAD_REACTORS
330
2399
102
}
330
1F
100
AcDbEntity
  8
Bemaßung
100
AcDbDimension
  2
*D8
 10
155.046129445607
 20
125.9916609406773
 30
0.0
 11
146.7961294456068
 21
128.1047561787725
 31
0.0
 70
    32
 71
     5
 42
16.50000000000028
  3
IDEAL Holz
100
AcDbAlignedDimension
 13
138.5461294456067
 23
125.9916609406773
 33
0.0
 14
155.046129445607
 24
125.9916609406773
 34
0.0
100
AcDbRotatedDimension
  0
DIMENSION
  5
23D7
102
{ACAD_XDICTIONARY
360
23E4
102
}
102
{ACAD_REACTORS
330
23EE
102
}
330
1F
100
AcDbEntity
  8
Bemaßung
100
AcDbDimension
  2
*D9
 10
99.04612944560732
 20
122.6868051195221
 30
0.0
 11
97.17112944560732
 21
120.6868051195221
 31
0.0
 70
    32
 71
     5
 42
4.000000000000013
  3
IDEAL Holz
100
AcDbAlignedDimension
 13
99.04612944560746
 23
118.6868051195221
 33
0.0
 14
99.04612944560732
 24
122.6868051195221
 34
0.0
 50
90.0
100
AcDbRotatedDimension
  0
DIMENSION
  5
2401
330
1F
100
AcDbEntity
  8
Bemaßung
100
AcDbDimension
  2
*D10
 10
127.1820252574796
 20
130.6868051195225
 30
0.0
 11
125.3070252574796
 21
126.6868051195224
 31
0.0
 70
    32
 71
     5
 42
8.000000000000241
  3
IDEAL Holz
100
AcDbAlignedDimension
 13
127.1820252574796
 23
122.6868051195223
 33
0.0
 14
127.1820252574796
 24
130.6868051195225
 34
0.0
 50
90.0
100
AcDbRotatedDimension
  0
LWPOLYLINE
  5
242D
102
{ACAD_REACTORS
330
24EB
330
2561
330
259B
102
}
330
1F
100
AcDbEntity
  8
Zusatzprofile
100
AcDbPolyline
 90
       44
 70
     1
 43
0.0
 10
70.54612944560739
 20
225.6868051195223
 10
70.54612944560739
 20
213.6868051195223
 42
0.4142135623730951
 10
73.54612944560739
 20
210.6868051195222
 10
80.94612944560726
 20
210.6868051195222
 42
-0.4142135623730951
 10
82.44612944560726
 20
209.1868051195223
 10
82.44612944560719
 20
202.6868051195222
 42
0.4142135623730875
 10
83.4461294456072
 20
201.6868051195222
 10
91.14612944560741
 20
201.6868051195221
 42
0.4142135623730984
 10
92.14612944560741
 20
202.6868051195221
 10
92.14612944560752
 20
209.9868051195217
 42
-0.4142135623731804
 10
93.64612944560752
 20
211.4868051195217
 10
101.4461294456085
 20
211.4868051195207
 42
-0.4142135623730728
 10
102.9461294456077
 20
209.9868051195214
 10
102.9461294456077
 20
202.6868051195222
 42
0.4142135623730959
 10
103.9461294456077
 20
201.6868051195222
 10
114.146129445607
 20
201.6868051195222
 42
0.4142135623730951
 10
115.146129445607
 20
202.6868051195222
 10
115.146129445607
 20
209.1868051195223
 42
-0.4142135623730951
 10
116.6461294456071
 20
210.6868051195222
 10
135.5461294456068
 20
210.6868051195222
 42
0.4142135623730951
 10
138.5461294456068
 20
213.6868051195223
 10
138.5461294456069
 20
225.6868051195224
 10
138.5461294456069
 20
229.6868051193853
 10
138.5461294456069
 20
232.6868051195224
 42
0.4142135623730951
 10
135.5461294456071
 20
235.6868051195223
 10
116.6461294456071
 20
235.6868051195223
 42
0.4142135623730951
 10
115.146129445607
 20
234.1868051195224
 10
115.146129445607
 20
226.1868051195224
 42
-0.4142135623730992
 10
114.6461294456071
 20
225.6868051195224
 10
114.146129445607
 20
225.6868051195221
 10
103.4461294456072
 20
225.6868051195224
 42
-0.4142135623730911
 10
102.9461294456077
 20
226.1868051195224
 10
102.9461294456077
 20
233.9868051195214
 42
0.4142135623730911
 10
101.4461294456081
 20
235.4868051195207
 10
93.64612944560708
 20
235.4868051195219
 42
0.4142135623730992
 10
92.14612944560752
 20
233.9868051195219
 10
92.1461294456073
 20
226.1868051195224
 42
-0.4142135623730992
 10
91.64612944560706
 20
225.6868051195221
 10
82.94612944560725
 20
225.6868051195224
 42
-0.4142135623730951
 10
82.44612944560726
 20
226.1868051195224
 10
82.44612944560726
 20
234.1868051195224
 42
0.4142135623730951
 10
80.94612944560726
 20
235.6868051195223
 10
73.54612944560739
 20
235.6868051195223
 42
0.4142135623730951
 10
70.54612944560739
 20
232.6868051195222
  0
LINE
  5
242E
330
1F
100
AcDbEntity
  8
Schraffur
 62
    54
100
AcDbLine
 10
92.54612944560731
 20
211.0066090222402
 30
0.0
 11
92.54612944560731
 21
235.0066090222403
 31
0.0
  0
LINE
  5
242F
330
1F
100
AcDbEntity
  8
Schraffur
 62
    54
100
AcDbLine
 10
116.5461294456073
 20
210.6834680742319
 30
0.0
 11
116.5461294456073
 21
235.683468074232
 31
0.0
  0
DIMENSION
  5
2430
330
1F
100
AcDbEntity
  8
Bemaßung
100
AcDbDimension
  2
*D11
 10
149.2961294456066
 20
235.6868051195223
 30
0.0
 11
146.7663675408446
 21
223.1868038239727
 31
0.0
 70
    32
  1
<> (130)
 71
     5
 42
25.00000259109925
  3
IDEAL Holz
100
AcDbAlignedDimension
 13
149.2961294456066
 23
210.6868025284231
 33
0.0
 14
143.3586294456068
 24
235.6868051195223
 34
0.0
 50
90.0
100
AcDbRotatedDimension
  0
MTEXT
  5
2432
330
1F
100
AcDbEntity
  8
Bemaßung
100
AcDbMText
 10
143.8275625191109
 20
229.5077132897144
 30
0.0
 40
1.5
 41
1.829115634265456
 71
     1
 72
     5
  1
{\fArial|b1|i0|c0|p34;6)}
 11
0.0000000000000001
 21
1.0
 31
0.0
 73
     1
 44
1.0
1001
AcDbBlockRepETag
1070
     1
1071
        9
1005
0
1001
ACAD
1000
ACAD_MTEXT_DEFINED_HEIGHT_BEGIN
1070
    46
1040
2.124910892103068
1000
ACAD_MTEXT_DEFINED_HEIGHT_END
  0
DIMENSION
  5
2464
330
1F
100
AcDbEntity
  8
Bemaßung
100
AcDbDimension
  2
*D12
 10
82.44612944560726
 20
228.8411304081668
 30
0.0
 11
76.49612944560733
 21
230.954225646262
 31
0.0
 70
    32
 71
     5
 42
11.89999999999986
  3
IDEAL Holz
100
AcDbAlignedDimension
 13
70.54612944560739
 23
228.8411304081668
 33
0.0
 14
82.44612944560726
 24
228.8411304081668
 34
0.0
100
AcDbRotatedDimension
  0
DIMENSION
  5
2497
330
1F
100
AcDbEntity
  8
Bemaßung
100
AcDbDimension
  2
*D13
 10
92.14612944560736
 20
228.8411304081668
 30
0.0
 11
87.29612944560733
 21
230.954225646262
 31
0.0
 70
    32
 71
     5
 42
9.7000000000001
  3
IDEAL Holz
100
AcDbAlignedDimension
 13
82.44612944560726
 23
228.8411304081668
 33
0.0
 14
92.14612944560736
 24
228.8411304081668
 34
0.0
100
AcDbRotatedDimension
  0
DIMENSION
  5
24A4
330
1F
100
AcDbEntity
  8
Bemaßung
100
AcDbDimension
  2
*D14
 10
102.9461294456077
 20
228.8411304081668
 30
0.0
 11
97.54612944560754
 21
230.954225646262
 31
0.0
 70
    32
 71
     5
 42
10.80000000000034
  3
IDEAL Holz
100
AcDbAlignedDimension
 13
92.14612944560736
 23
228.8411304081668
 33
0.0
 14
102.9461294456077
 24
228.8411304081668
 34
0.0
100
AcDbRotatedDimension
  0
DIMENSION
  5
24BC
330
1F
100
AcDbEntity
  8
Bemaßung
100
AcDbDimension
  2
*D15
 10
115.146129445607
 20
228.8411304081669
 30
0.0
 11
109.0461294456073
 21
230.9542256462621
 31
0.0
 70
    32
 71
     5
 42
12.19999999999929
  3
IDEAL Holz
100
AcDbAlignedDimension
 13
102.9461294456077
 23
228.8411304081668
 33
0.0
 14
115.146129445607
 24
228.8411304081669
 34
0.0
100
AcDbRotatedDimension
  0
DIMENSION
  5
24D4
102
{ACAD_XDICTIONARY
360
24E1
102
}
102
{ACAD_REACTORS
330
24EB
102
}
330
1F
100
AcDbEntity
  8
Bemaßung
100
AcDbDimension
  2
*D16
 10
121.3829061053695
 20
235.6868051195223
 30
0.0
 11
119.5079061053694
 21
230.6868051195222
 31
0.0
 70
    32
 71
     5
 42
10.00000000000023
  3
IDEAL Holz
100
AcDbAlignedDimension
 13
121.3829061053695
 23
225.6868051195221
 33
0.0
 14
121.3829061053695
 24
235.6868051195223
 34
0.0
 50
90.0
100
AcDbRotatedDimension
  0
DIMENSION
  5
2506
330
1F
100
AcDbEntity
  8
Bemaßung
100
AcDbDimension
  2
*D17
 10
87.72114792003277
 20
210.6868051195222
 30
0.0
 11
85.84614792003273
 21
206.1868051195221
 31
0.0
 70
    32
 71
     5
 42
9.000000000000085
  3
IDEAL Holz
100
AcDbAlignedDimension
 13
87.72114792003277
 23
201.6868051195221
 33
0.0
 14
87.72114792003277
 24
210.6868051195222
 34
0.0
 50
90.0
100
AcDbRotatedDimension
  0
HATCH
  5
2561
330
1F
100
AcDbEntity
  8
Schraffur
 62
    54
100
AcDbHatch
 10
0.0
 20
0.0
 30
0.0
210
0.0
220
0.0
230
1.0
  2
STEEL
 70
     0
 71
     0
 91
        6
 92
        7
 72
     1
 73
     1
 93
       21
 10
92.54612944560731
 20
235.0066090222404
 42
0.1891030307293987
 10
92.14612944560752
 20
233.9868051195221
 42
0.0
 10
92.1461294456073
 20
226.1868051195224
 42
-0.4142135623731324
 10
91.64612944560699
 20
225.6868051195221
 42
0.0
 10
82.94612944560725
 20
225.6868051195224
 42
-0.4142135623730951
 10
82.44612944560726
 20
226.1868051195224
 42
0.0
 10
82.44612944560726
 20
234.1868051195224
 42
0.4142135623730869
 10
80.94612944560729
 20
235.6868051195223
 42
0.0
 10
73.54612944560739
 20
235.6868051195223
 42
0.4142135623730869
 10
70.54612944560739
 20
232.6868051195223
 42
0.0
 10
70.54612944560739
 20
225.6868051195223
 42
0.0
 10
70.54612944560739
 20
213.6868051195223
 42
0.4142135623731022
 10
73.54612944560745
 20
210.6868051195222
 42
0.0
 10
80.94612944560726
 20
210.6868051195222
 42
-0.4142135623731119
 10
82.44612944560726
 20
209.1868051195223
 42
0.0
 10
82.44612944560719
 20
202.6868051195222
 42
0.4142135623730879
 10
83.4461294456072
 20
201.6868051195222
 42
0.0
 10
91.14612944560741
 20
201.6868051195221
 42
0.4142135623730984
 10
92.14612944560741
 20
202.6868051195221
 42
0.0
 10
92.14612944560752
 20
209.9868051195217
 42
-0.1891030307294412
 10
92.54612944560731
 20
211.0066090222402
 42
0.0
 97
        0
 92
       24
 93
        4
 72
     1
 10
83.97114792003273
 20
205.0201384528555
 11
83.97114792003273
 21
207.3534717861889
 72
     1
 10
83.97114792003273
 20
207.3534717861889
 11
87.72114792003273
 21
207.3534717861889
 72
     1
 10
87.72114792003273
 20
207.3534717861889
 11
87.72114792003273
 21
205.0201384528555
 72
     1
 10
87.72114792003273
 20
205.0201384528555
 11
83.97114792003273
 21
205.0201384528555
 97
        0
 92
        1
 93
        7
 72
     2
 10
116.6461294456071
 20
234.1868051195223
 40
1.500000000000006
 50
90.0
 51
93.82255372926588
 73
     1
 72
     1
 10
116.5461294456073
 20
235.6834680742319
 11
116.5461294456073
 21
210.6868051195222
 72
     1
 10
116.5461294456073
 20
210.6868051195222
 11
135.5461294456068
 21
210.6868051195222
 72
     2
 10
135.5461294456067
 20
213.6868051195222
 40
3.000000000000041
 50
270.0000000000006
 51
359.9999999999995
 73
     1
 72
     1
 10
138.5461294456068
 20
213.6868051195222
 11
138.5461294456069
 21
232.6868051195225
 72
     2
 10
135.546129445607
 20
232.6868051195224
 40
2.999999999999871
 50
0.0000000000005407
 51
89.99999999999944
 73
     1
 72
     1
 10
135.5461294456071
 20
235.6868051195223
 11
116.6461294456071
 21
235.6868051195223
 97
        0
 92
       24
 93
        4
 72
     1
 10
73.37112944560733
 20
233.0673208843573
 11
79.62112944560733
 21
233.0673208843573
 72
     1
 10
79.62112944560733
 20
233.0673208843573
 11
79.62112944560733
 21
228.8411304081668
 72
     1
 10
79.62112944560733
 20
228.8411304081668
 11
73.37112944560733
 21
228.8411304081668
 72
     1
 10
73.37112944560733
 20
228.8411304081668
 11
73.37112944560733
 21
233.0673208843573
 97
        0
 92
        8
 93
        4
 72
     1
 10
83.97114792003273
 20
205.0201384528555
 11
83.97114792003273
 21
207.3534717861889
 72
     1
 10
83.97114792003273
 20
207.3534717861889
 11
87.72114792003273
 21
207.3534717861889
 72
     1
 10
87.72114792003273
 20
207.3534717861889
 11
87.72114792003273
 21
205.0201384528555
 72
     1
 10
87.72114792003273
 20
205.0201384528555
 11
83.97114792003273
 21
205.0201384528555
 97
        0
 92
       24
 93
        4
 72
     1
 10
117.6329061053694
 20
228.7701384528556
 11
117.6329061053694
 21
232.6034717861889
 72
     1
 10
117.6329061053694
 20
232.6034717861889
 11
121.3829061053694
 21
232.6034717861889
 72
     1
 10
121.3829061053694
 20
232.6034717861889
 11
121.3829061053694
 21
228.7701384528556
 72
     1
 10
121.3829061053694
 20
228.7701384528556
 11
117.6329061053694
 21
228.7701384528556
 97
        0
 75
     0
 76
     1
 52
0.0
 41
2.0
 77
     0
 78
     2
 53
45.0
 43
0.0
 44
0.0
 45
-4.490128060534575
 46
4.490128060534575
 79
     0
 53
45.0
 43
0.0
 44
3.174999999999998
 45
-4.490128060534575
 46
4.490128060534575
 79
     0
 47
0.067078367204585
 98
        4
 10
0.0
 20
0.0
 10
80.10544155762159
 20
219.8720734241127
 10
131.0693562428973
 20
217.4748902890606
 10
79.15179968589064
 20
222.8568542380083
1001
ACAD
1010
0.0
1020
0.0
1030
0.0
  0
HATCH
  5
259B
330
1F
100
AcDbEntity
  8
Schraffur
 62
    54
100
AcDbHatch
 10
0.0
 20
0.0
 30
0.0
210
0.0
220
0.0
230
1.0
  2
STEEL
 70
     0
 71
     0
 91
        4
 92
        7
 72
     1
 73
     1
 93
       21
 10
116.5461294456073
 20
235.6834680742319
 42
0.3948051417731599
 10
115.146129445607
 20
234.1868051195223
 42
0.0
 10
115.146129445607
 20
226.1868051195224
 42
-0.4142135623729411
 10
114.6461294456073
 20
225.6868051195224
 42
0.0
 10
114.146129445607
 20
225.6868051195221
 42
0.0
 10
103.4461294456072
 20
225.6868051195224
 42
-0.4142135623729414
 10
102.9461294456077
 20
226.1868051195222
 42
0.0
 10
102.9461294456077
 20
233.9868051195214
 42
0.4142135623730134
 10
101.4461294456085
 20
235.4868051195207
 42
0.0
 10
93.64612944560708
 20
235.4868051195219
 42
0.2087586657600673
 10
92.54612944560731
 20
235.0066090222404
 42
0.0
 10
92.54612944560731
 20
211.0066090222402
 42
-0.2087586657601371
 10
93.64612944560748
 20
211.4868051195217
 42
0.0
 10
101.4461294456085
 20
211.4868051195207
 42
-0.4142135623730784
 10
102.9461294456077
 20
209.9868051195214
 42
0.0
 10
102.9461294456077
 20
202.6868051195222
 42
0.414213562373096
 10
103.9461294456077
 20
201.6868051195222
 42
0.0
 10
114.146129445607
 20
201.6868051195222
 42
0.4142135623730951
 10
115.146129445607
 20
202.6868051195222
 42
0.0
 10
115.146129445607
 20
209.1868051195223
 42
-0.3948051417731429
 10
116.5461294456073
 20
210.6834680742318
 42
0.0
 97
        0
 92
       24
 93
        4
 72
     1
 10
94.37946277894086
 20
233.0673208843573
 11
100.7127961122742
 21
233.0673208843573
 72
     1
 10
100.7127961122742
 20
233.0673208843573
 11
100.7127961122742
 21
228.8411304081668
 72
     1
 10
100.7127961122742
 20
228.8411304081668
 11
94.37946277894086
 21
228.8411304081668
 72
     1
 10
94.37946277894086
 20
228.8411304081668
 11
94.37946277894086
 21
233.0673208843573
 97
        0
 92
       24
 93
        4
 72
     1
 10
113.8418810970573
 20
222.6562968683694
 11
116.2576382594038
 21
222.6562968683694
 72
     1
 10
116.2576382594038
 20
222.6562968683694
 11
116.2576382594038
 21
219.9397211521347
 72
     1
 10
116.2576382594038
 20
219.9397211521347
 11
113.8418810970573
 21
219.9397211521347
 72
     1
 10
113.8418810970573
 20
219.9397211521347
 11
113.8418810970573
 21
222.6562968683694
 97
        0
 92
       24
 93
        4
 72
     1
 10
94.71048250618109
 20
225.7758408211028
 11
115.6438158395144
 21
225.7758408211028
 72
     1
 10
115.6438158395144
 20
225.7758408211028
 11
115.6438158395144
 21
210.2520312972933
 72
     1
 10
115.6438158395144
 20
210.2520312972933
 11
94.71048250618109
 21
210.2520312972933
 72
     1
 10
94.71048250618109
 20
210.2520312972933
 11
94.71048250618109
 21
225.7758408211028
 97
        0
 75
     0
 76
     1
 52
90.0
 41
2.0
 77
     0
 78
     2
 53
135.0
 43
0.0
 44
0.0
 45
-4.490128060534575
 46
-4.490128060534575
 79
     0
 53
135.0
 43
-3.174999999999998
 44
0.0000000000000002
 45
-4.490128060534575
 46
-4.490128060534575
 79
     0
 47
0.1255380800314881
 98
        3
 10
97.07081522639878
 20
221.504068754135
 10
0.0
 20
0.0
 10
108.5390970640767
 20
213.0714653035932
1001
ACAD
1010
0.0
1020
0.0
1030
0.0
  0
INSERT
  5
2648
330
1F
100
AcDbEntity
  8
0
100
AcDbBlockReference
  2
I-Verbr30mm
 10
204.0
 20
19.97310388852429
 30
0.0
  0
MTEXT
  5
28F4
330
1F
100
AcDbEntity
  8
Bemaßung
100
AcDbMText
 10
105.1771491728477
 20
224.7758408211029
 30
0.0
 40
4.0
 41
15.20500240567617
 71
     2
 72
     5
  1
\A1;34/68\P(139/68)
  7
RomanS
 73
     1
 44
1.0
  0
MTEXT
  5
28F5
330
1F
100
AcDbEntity
  8
Bemaßung
100
AcDbMText
 10
114.2168810970573
 20
222.2812968683694
 30
0.0
 40
1.5
 41
7.649234826219069
 71
     1
 72
     5
  1
{\fArial|b1|i0|c0|p34;6)}
 73
     1
 44
1.0
1001
AcDbBlockRepETag
1070
     1
1071
        9
1005
0
  0
HATCH
  5
2A9A
330
1F
100
AcDbEntity
  8
Schraffur
 62
    84
100
AcDbHatch
 10
0.0
 20
0.0
 30
0.0
210
0.0
220
0.0
230
1.0
  2
STEEL
 70
     0
 71
     0
 91
        1
 92
        7
 72
     1
 73
     1
 93
        3
 10
37.96878948957266
 20
171.1366960587963
 42
-0.0435593504847545
 10
40.05305846955269
 20
169.039965497467
 42
0.0
 10
37.96878948957266
 20
169.0399654974669
 42
0.0
 97
        0
 75
     0
 76
     1
 52
0.0
 41
2.0
 77
     0
 78
     2
 53
45.0
 43
47.99999999999459
 44
175.0930969125407
 45
-4.490128060534574
 46
4.490128060534575
 79
     0
 53
45.0
 43
47.99999999999459
 44
178.2680969125408
 45
-4.490128060534574
 46
4.490128060534575
 79
     0
 47
0.0648580740641196
 98
        1
 10
38.33378875456862
 20
169.7002244205395
1001
ACAD
1010
0.0
1020
0.0
1030
0.0
1001
AcDbBlockRepETag
1070
     1
1071
       24
1005
0
  0
LINE
  5
2A9B
330
1F
100
AcDbEntity
  8
Aluhalter
100
AcDbLine
 10
37.46878948957255
 20
169.039965497467
 30
0.0
 11
40.84209667266594
 21
168.0177511995597
 31
0.0
1001
AcDbBlockRepETag
1070
     1
1071
        9
1005
0
  0
LINE
  5
2A9C
330
1F
100
AcDbEntity
  8
Aluhalter
100
AcDbLine
 10
42.32312728386097
 20
165.5109769502819
 30
0.0
 11
37.46878948957255
 21
164.0399654974672
 31
0.0
1001
AcDbBlockRepETag
1070
     1
1071
       10
1005
0
  0
LWPOLYLINE
  5
2A9D
330
1F
100
AcDbEntity
  8
Aluhalter
100
AcDbPolyline
 90
        4
 70
     0
 43
0.0
 10
40.05305846955097
 20
169.039965497467
 10
37.46878948957255
 20
169.039965497467
 10
37.46878948957255
 20
164.0399654974672
 10
42.94660065411317
 20
164.0399654974672
1001
AcDbBlockRepETag
1070
     1
1071
       28
1005
0
  0
LWPOLYLINE
  5
2A9E
330
1F
100
AcDbEntity
  8
Glas
 62
   251
100
AcDbPolyline
 90
        5
 70
     0
 43
0.0
 10
42.86449624952735
 20
152.0399654974671
 10
40.4687894895721
 20
152.0399654974671
 10
40.4687894895721
 20
162.0399654974672
 10
42.46878948957209
 20
164.0399654974672
 10
42.94660065411317
 20
164.0399654974672
1001
AcDbBlockRepETag
1070
     1
1071
       21
1005
0
  0
HATCH
  5
2A9F
330
1F
100
AcDbEntity
  8
Glas
 62
   150
100
AcDbHatch
 10
0.0
 20
0.0
 30
0.0
210
0.0
220
0.0
230
1.0
  2
AR-CONC
 70
     0
 71
     0
 91
        1
 92
        7
 72
     1
 73
     1
 93
        6
 10
40.4687894895721
 20
163.5399654974671
 42
0.0
 10
39.9687894895721
 20
164.0399654974671
 42
0.0
 10
36.96878948957254
 20
164.0399654974671
 42
0.0
 10
36.46878948957255
 20
163.5399654974671
 42
0.0
 10
36.46878948957255
 20
144.0299382449731
 42
0.081123584071759
 10
40.4687894895721
 20
147.7761494286711
 42
0.0
 97
        0
 75
     0
 76
     1
 52
180.0
 41
0.02
 77
     0
 78
    13
 53
229.9999999999999
 43
47.99999999999436
 44
175.0930969125384
 45
-3.64369337992008
 46
0.3187817107780634
 79
     2
 49
0.381
 49
-4.190999999999997
 53
175.0
 43
47.99999999999436
 44
175.0930969125384
 45
0.7048565195133385
 46
-3.821132857643598
 79
     2
 49
0.3048
 49
-3.352799999999997
 53
280.451
 43
47.69635999999429
 44
175.1196619125384
 45
-2.938850033319181
 46
-3.502333756405834
 79
     2
 49
0.3237999999999999
 49
-3.561799999999998
 53
226.1842
 43
47.99999999999436
 44
174.0770969125384
 45
-5.421580817842596
 46
0.8408465586545453
 79
     2
 49
0.5714999999999999
 49
-6.286499999999997
 53
276.6356
 43
47.54820199999431
 44
174.1471669125384
 45
-4.748084689324744
 46
-4.948511117800981
 79
     2
 49
0.4856999999999994
 49
-5.342699999999982
 53
171.1839999999999
 43
47.99999999999436
 44
174.0770969125384
 45
-4.748092116278677
 46
-4.948502357211949
 79
     2
 49
0.4572
 49
-5.029199999999998
 53
201.0
 43
47.49199999999421
 44
174.3310969125384
 45
-3.032297596707663
 46
2.045310370335247
 79
     2
 49
0.381
 49
-4.190999999999998
 53
146.0
 43
47.49199999999421
 44
174.3310969125384
 45
-1.236040566952941
 46
-3.683759322446383
 79
     2
 49
0.3047999999999998
 49
-3.352799999999995
 53
251.4514000000001
 43
47.23930999999431
 44
174.5015389125384
 45
-4.268329815402489
 46
-1.638457154321145
 79
     2
 49
0.3237999999999999
 49
-3.561799999999998
 53
217.5
 43
47.99999999999436
 44
175.0930969125384
 45
-0.061772065011837
 46
-1.691100777463059
 79
     6
 49
0.0
 49
-3.312159999999998
 49
0.0
 49
-3.403599999999998
 49
0.0
 49
-3.365499999999998
 53
187.5
 43
47.99999999999436
 44
175.0930969125384
 45
-1.336393250206113
 46
-2.003611496362389
 79
     6
 49
0.0
 49
-1.940559999999999
 49
0.0
 49
-3.235959999999998
 49
0.0
 49
-1.282699999999999
 53
147.4999999999999
 43
49.13283999999435
 44
175.0930969125384
 45
-2.711811903337423
 46
0.1145748798534704
 79
     6
 49
0.0
 49
-1.27
 49
0.0
 49
-3.9624
 49
0.0
 49
-5.257799999999996
 53
137.5
 43
49.64083999999441
 44
175.0930969125384
 45
-2.962583627720361
 46
-0.5085298206666593
 79
     6
 49
0.0
 49
-1.650999999999999
 49
0.0
 49
-2.63144
 49
0.0
 49
-3.7338
 47
0.0484061782568556
 98
        2
 10
38.62794126378896
 20
151.7218580609514
 10
37.66964866848248
 20
146.7951439586192
1001
ACAD
1010
0.0
1020
0.0
1030
0.0
1001
AcDbBlockRepETag
1070
     1
1071
       29
1005
0
  0
HATCH
  5
2AA0
330
1F
100
AcDbEntity
  8
Glas
 62
   251
100
AcDbHatch
 10
0.0
 20
0.0
 30
0.0
210
0.0
220
0.0
230
1.0
  2
GRAVEL
 70
     0
 71
     0
 91
        1
 92
        5
 93
        5
 72
     2
 10
26.99999999999369
 20
158.1487917962379
 40
17.00000000000059
 50
338.9401640858571
 51
380.2758088379533
 73
     1
 72
     1
 10
42.94660065411317
 20
164.0399654974672
 11
42.46878948957196
 21
164.0399654974672
 72
     1
 10
42.46878948957209
 20
164.0399654974672
 11
40.4687894895721
 21
162.0399654974672
 72
     1
 10
40.4687894895721
 20
162.0399654974672
 11
40.4687894895721
 21
152.0399654974671
 72
     1
 10
40.4687894895721
 20
152.0399654974671
 11
42.86449624952735
 21
152.0399654974671
 97
        0
 75
     0
 76
     1
 52
180.0
 41
0.1
 77
     0
 78
    42
 53
48.01279999999997
 43
46.88998948957206
 44
164.499965497467
 45
20.32001726589601
 46
22.86002808951256
 79
     2
 49
0.3417209999999985
 49
-33.83049999999986
 53
4.96969999999992
 43
47.1185894895721
 44
164.753965497467
 45
-30.48004930617913
 46
-2.53998207538744
 79
     2
 49
0.5864049999999997
 49
-58.05399999999995
 53
312.5104
 43
47.7027894895721
 44
164.804765497467
 45
-25.39998151833169
 46
27.94002729246043
 79
     2
 49
0.413482
 49
-40.93469999999999
 53
87.27370000000002
 43
48.6933894895721
 44
165.4397654974671
 45
-2.539988970828184
 46
-50.79998365336643
 79
     2
 49
0.5340050000000001
 49
-52.8664
 53
112.8336999999999
 43
48.7187894895721
 44
165.973165497467
 45
12.70003605550188
 46
-30.48001733005111
 79
     2
 49
0.5236339999999982
 49
-51.83979999999984
 53
177.2737
 43
48.51558948957205
 44
166.455765497467
 45
50.79998365336643
 46
-2.539988970828194
 79
     2
 49
0.5340050000000001
 49
-52.8664
 53
217.6942
 43
47.98218948957202
 44
166.4811654974671
 45
33.02002086123995
 46
25.39997735698488
 79
     2
 49
0.7061939999999997
 49
-69.91309999999995
 53
252.2553
 43
47.423389489572
 44
166.049365497467
 45
-17.7800355654672
 46
-55.88001620603638
 79
     2
 49
0.6667200000000002
 49
-66.0053
 53
301.4296
 43
47.22018948957208
 44
165.414365497467
 45
20.32000523526447
 46
-33.0199611599727
 79
     2
 49
0.535813
 49
-53.04549999999998
 53
355.2364
 43
47.4995894895721
 44
164.9571654974669
 45
-27.93997805305446
 46
2.539976162721166
 79
     2
 49
0.6117129999999975
 49
-29.97389999999992
 53
42.39739999999996
 43
48.10918948957207
 44
164.906365497467
 45
30.48000091723972
 46
27.93996365063695
 79
     2
 49
0.7910780000000001
 49
-78.3168
 53
318.8141
 43
46.178789489572
 44
165.465165497467
 45
17.77998867422471
 46
-15.239976557124
 79
     2
 49
0.270005
 49
-26.7306
 53
351.4692
 43
46.38198948957205
 44
165.287365497467
 45
-33.01994959559142
 46
5.080012800045712
 79
     2
 49
0.5136819999999995
 49
-50.85459999999997
 53
45.0
 43
46.88998948957206
 44
165.211165497467
 45
0.0000000000000014
 46
2.539998268700193
 79
     2
 49
0.3592090000000001
 49
-3.232889999999998
 53
23.19859999999998
 43
47.06778948957214
 44
164.906365497467
 45
-12.70004282559083
 46
-5.080022274306251
 79
     2
 49
0.1934409999999997
 49
-19.15059999999995
 53
111.8014
 43
47.24558948957207
 44
164.9825654974672
 45
2.540001781894504
 46
-7.620004908731861
 79
     2
 49
0.2735659999999987
 49
-13.40479999999995
 53
210.9637999999999
 43
47.1439894895721
 44
165.236565497467
 45
-7.619991954808227
 46
-5.080003958660541
 79
     2
 49
0.4443199999999999
 49
-14.36629999999998
 53
341.5651
 43
46.76298948957213
 44
165.007965497467
 45
-5.08000231818098
 46
2.539996222465076
 79
     2
 49
0.3212869999999995
 49
-7.710899999999987
 53
196.3894999999999
 43
48.7187894895721
 44
164.9825654974672
 45
-25.40001401396935
 46
-7.619984149967789
 79
     2
 49
0.4500879999999991
 49
-44.55879999999978
 53
250.3462
 43
48.28698948957214
 44
164.855565497467
 45
10.15997168867651
 46
27.93996048854499
 79
     2
 49
0.3775989999999999
 49
-37.38219999999999
 53
113.1985999999999
 43
46.76298948957213
 44
164.499965497467
 45
5.080022274306253
 46
-12.70004282559083
 79
     2
 49
0.38688
 49
-18.9572
 53
163.6104999999998
 43
46.61058948957206
 44
164.855565497467
 45
25.40001401396935
 46
-7.619984149967824
 79
     2
 49
0.4500880000000003
 49
-44.55879999999996
 53
159.444
 43
48.7187894895721
 44
166.557365497467
 45
12.70001576425591
 46
-5.079993836050141
 79
     2
 49
0.4340350000000001
 49
-21.2677
 53
114.7751
 43
48.31238948957214
 44
166.709765497467
 45
12.69997040362683
 46
-27.93998702615668
 79
     2
 49
0.3636719999999997
 49
-36.00359999999995
 53
246.8014
 43
46.73758948957202
 44
167.039965497467
 45
-5.080022274306268
 46
-12.70004282559083
 79
     2
 49
0.3868799999999983
 49
-18.95719999999991
 53
197.354
 43
46.58518948957206
 44
166.684365497467
 45
33.02000178185996
 46
10.15998467560562
 79
     2
 49
0.4257830000000002
 49
-42.15239999999996
 53
249.444
 43
47.98218948957202
 44
167.039965497467
 45
5.079993836050146
 46
12.70001576425591
 79
     2
 49
0.217018
 49
-21.4848
 53
281.3098999999998
 43
46.88998948957206
 44
167.039965497467
 45
2.539987462887343
 46
-10.15996746090262
 79
     2
 49
0.129515
 49
-12.822
 53
345.9638
 43
46.91538948957208
 44
166.912965497467
 45
-7.620005354697171
 46
2.539995604123642
 79
     2
 49
0.5236340000000002
 49
-9.949049999999999
 53
6.008999999999987
 43
47.423389489572
 44
166.785965497467
 45
-25.39996254442795
 46
-2.539994068547845
 79
     2
 49
0.485267
 49
-48.0414
 53
123.6900999999998
 43
47.1439894895721
 44
165.465165497467
 45
2.540000871307229
 46
-5.079995099231839
 79
     2
 49
0.366324
 49
-8.791780000000001
 53
173.1571999999999
 43
46.94078948957207
 44
165.769965497467
 45
-43.18001785664342
 46
5.080022751654855
 79
     2
 49
0.639557
 49
-63.31599999999998
 53
240.9454
 43
46.30578948957219
 44
165.846165497467
 45
10.15997636582909
 46
17.77995761083412
 79
     2
 49
0.261508
 49
-25.8894
 53
270.0
 43
46.178789489572
 44
165.617565497467
 45
2.539999999999996
 46
-2.54
 79
     2
 49
0.1524
 49
-2.387599999999999
 53
300.2564
 43
47.4741894895721
 44
166.709765497467
 45
-10.1599784668361
 46
17.77999103247756
 79
     2
 49
0.3528669999999998
 49
-34.93389999999997
 53
228.0128
 43
47.65198948957214
 44
166.404965497467
 45
-20.32001726589601
 46
-22.86002808951256
 79
     2
 49
0.6834430000000003
 49
-33.48880000000001
 53
180.0
 43
47.19478948957209
 44
165.8969654974671
 45
-2.54
 46
-2.539999999999996
 79
     2
 49
0.6604000000000001
 49
-1.879599999999999
 53
145.3047999999999
 43
46.5343894895721
 44
165.8969654974671
 45
25.39995599095369
 46
-17.78000169048478
 79
     2
 49
0.401609999999999
 49
-39.75929999999986
 53
74.05459999999997
 43
46.204189489572
 44
166.125565497467
 45
2.540006479701477
 46
10.16002420320363
 79
     2
 49
0.369829
 49
-18.1217
 53
27.64599999999991
 43
46.30578948957219
 44
166.4811654974671
 45
48.25998304902272
 46
25.40001597472336
 79
     2
 49
0.6021450000000002
 49
-59.61249999999998
 53
355.4261
 43
46.83918948957199
 44
166.760565497467
 45
33.02000760474751
 46
-2.53998771121947
 79
     2
 49
0.6370289999999994
 49
-63.06579999999996
 53
355.4261
 43
46.83918948957199
 44
166.760565497467
 45
33.02000760474751
 46
-2.53998771121947
 79
     2
 49
0.6370289999999994
 49
-63.06579999999996
 47
0.0
 98
        1
 10
42.12288208437946
 20
157.7706904938352
1001
ACAD
1010
0.0
1020
0.0
1030
0.0
1001
AcDbBlockRepETag
1070
     1
1071
       25
1005
0
  0
LWPOLYLINE
  5
2AA1
330
1F
100
AcDbEntity
  8
Glas
 62
   150
100
AcDbPolyline
 90
        6
 70
     0
 43
0.0
 10
40.4687894895721
 20
147.7761494286711
 10
40.4687894895721
 20
163.5399654974671
 10
39.9687894895721
 20
164.0399654974671
 10
36.96878948957254
 20
164.0399654974671
 10
36.46878948957255
 20
163.5399654974671
 10
36.46878948957255
 20
144.0299382449731
1001
AcDbBlockRepETag
1070
     1
1071
       30
1005
0
  0
HATCH
  5
2AA2
330
1F
100
AcDbEntity
  8
Schraffur
 62
    84
100
AcDbHatch
 10
0.0
 20
0.0
 30
0.0
210
0.0
220
0.0
230
1.0
  2
STEEL
 70
     0
 71
     0
 91
        1
 92
        7
 72
     1
 73
     1
 93
        3
 10
37.96878948957948
 20
90.78353568085178
 42
-0.0435593504847545
 10
40.05305846955951
 20
88.68680511952247
 42
0.0
 10
37.96878948957948
 20
88.68680511952236
 42
0.0
 97
        0
 75
     0
 76
     1
 52
0.0
 41
2.0
 77
     0
 78
     2
 53
45.0
 43
48.00000000000142
 44
94.7399365345962
 45
-4.490128060534574
 46
4.490128060534575
 79
     0
 53
45.0
 43
48.00000000000142
 44
97.91493653459626
 45
-4.490128060534574
 46
4.490128060534575
 79
     0
 47
0.0648580740641196
 98
        1
 10
38.33378875457544
 20
89.34706404259502
1001
ACAD
1010
0.0
1020
0.0
1030
0.0
1001
AcDbBlockRepETag
1070
     1
1071
       24
1005
0
  0
LINE
  5
2AA3
330
1F
100
AcDbEntity
  8
Aluhalter
100
AcDbLine
 10
37.46878948957937
 20
88.68680511952247
 30
0.0
 11
40.84209667267276
 21
87.66459082161523
 31
0.0
1001
AcDbBlockRepETag
1070
     1
1071
        9
1005
0
  0
LINE
  5
2AA4
330
1F
100
AcDbEntity
  8
Aluhalter
100
AcDbLine
 10
42.32312728386779
 20
85.15781657233736
 30
0.0
 11
37.46878948957937
 21
83.6868051195227
 31
0.0
1001
AcDbBlockRepETag
1070
     1
1071
       10
1005
0
  0
LWPOLYLINE
  5
2AA5
330
1F
100
AcDbEntity
  8
Aluhalter
100
AcDbPolyline
 90
        4
 70
     0
 43
0.0
 10
40.0530584695578
 20
88.68680511952247
 10
37.46878948957937
 20
88.68680511952247
 10
37.46878948957937
 20
83.6868051195227
 10
42.94660065412
 20
83.6868051195227
1001
AcDbBlockRepETag
1070
     1
1071
       28
1005
0
  0
LWPOLYLINE
  5
2AA6
330
1F
100
AcDbEntity
  8
Glas
 62
   251
100
AcDbPolyline
 90
        5
 70
     0
 43
0.0
 10
42.86449624953417
 20
71.68680511952259
 10
40.4687894895789
 20
71.68680511952259
 10
40.4687894895789
 20
81.6868051195227
 10
42.4687894895789
 20
83.6868051195227
 10
42.94660065412
 20
83.6868051195227
1001
AcDbBlockRepETag
1070
     1
1071
       21
1005
0
  0
HATCH
  5
2AA7
330
1F
100
AcDbEntity
  8
Glas
 62
   150
100
AcDbHatch
 10
0.0
 20
0.0
 30
0.0
210
0.0
220
0.0
230
1.0
  2
AR-CONC
 70
     0
 71
     0
 91
        1
 92
        7
 72
     1
 73
     1
 93
        6
 10
40.4687894895789
 20
83.18680511952257
 42
0.0
 10
39.9687894895789
 20
83.68680511952259
 42
0.0
 10
36.96878948957937
 20
83.68680511952259
 42
0.0
 10
36.46878948957937
 20
83.18680511952257
 42
0.0
 10
36.46878948957937
 20
63.67677786702864
 42
0.081123584071759
 10
40.4687894895789
 20
67.42298905072657
 42
0.0
 97
        0
 75
     0
 76
     1
 52
180.0
 41
0.02
 77
     0
 78
    13
 53
229.9999999999999
 43
48.00000000000119
 44
94.73993653459393
 45
-3.64369337992008
 46
0.3187817107780634
 79
     2
 49
0.381
 49
-4.190999999999997
 53
175.0
 43
48.00000000000119
 44
94.73993653459393
 45
0.7048565195133385
 46
-3.821132857643598
 79
     2
 49
0.3048
 49
-3.352799999999997
 53
280.451
 43
47.69636000000111
 44
94.76650153459393
 45
-2.938850033319181
 46
-3.502333756405834
 79
     2
 49
0.3237999999999999
 49
-3.561799999999998
 53
226.1842
 43
48.00000000000119
 44
93.72393653459395
 45
-5.421580817842596
 46
0.8408465586545453
 79
     2
 49
0.5714999999999999
 49
-6.286499999999997
 53
276.6356
 43
47.54820200000113
 44
93.79400653459395
 45
-4.748084689324744
 46
-4.948511117800981
 79
     2
 49
0.4856999999999994
 49
-5.342699999999982
 53
171.1839999999999
 43
48.00000000000119
 44
93.72393653459395
 45
-4.748092116278677
 46
-4.948502357211949
 79
     2
 49
0.4572
 49
-5.029199999999998
 53
201.0
 43
47.49200000000104
 44
93.97793653459386
 45
-3.032297596707663
 46
2.045310370335247
 79
     2
 49
0.381
 49
-4.190999999999998
 53
146.0
 43
47.49200000000104
 44
93.97793653459386
 45
-1.236040566952941
 46
-3.683759322446383
 79
     2
 49
0.3047999999999998
 49
-3.352799999999995
 53
251.4514000000001
 43
47.23931000000113
 44
94.14837853459394
 45
-4.268329815402489
 46
-1.638457154321145
 79
     2
 49
0.3237999999999999
 49
-3.561799999999998
 53
217.5
 43
48.00000000000119
 44
94.73993653459393
 45
-0.061772065011837
 46
-1.691100777463059
 79
     6
 49
0.0
 49
-3.312159999999998
 49
0.0
 49
-3.403599999999998
 49
0.0
 49
-3.365499999999998
 53
187.5
 43
48.00000000000119
 44
94.73993653459393
 45
-1.336393250206113
 46
-2.003611496362389
 79
     6
 49
0.0
 49
-1.940559999999999
 49
0.0
 49
-3.235959999999998
 49
0.0
 49
-1.282699999999999
 53
147.4999999999999
 43
49.13284000000118
 44
94.73993653459393
 45
-2.711811903337423
 46
0.1145748798534704
 79
     6
 49
0.0
 49
-1.27
 49
0.0
 49
-3.9624
 49
0.0
 49
-5.257799999999996
 53
137.5
 43
49.64084000000122
 44
94.73993653459393
 45
-2.962583627720361
 46
-0.5085298206666593
 79
     6
 49
0.0
 49
-1.650999999999999
 49
0.0
 49
-2.63144
 49
0.0
 49
-3.7338
 47
0.0484061782568556
 98
        2
 10
38.62794126379578
 20
71.3686976830069
 10
37.66964866848929
 20
66.44198358067471
1001
ACAD
1010
0.0
1020
0.0
1030
0.0
1001
AcDbBlockRepETag
1070
     1
1071
       29
1005
0
  0
HATCH
  5
2AA8
330
1F
100
AcDbEntity
  8
Glas
 62
   251
100
AcDbHatch
 10
0.0
 20
0.0
 30
0.0
210
0.0
220
0.0
230
1.0
  2
GRAVEL
 70
     0
 71
     0
 91
        1
 92
        5
 93
        5
 72
     2
 10
27.00000000000051
 20
77.79563141829344
 40
17.00000000000059
 50
338.9401640858571
 51
380.2758088379533
 73
     1
 72
     1
 10
42.94660065412
 20
83.6868051195227
 11
42.46878948957879
 21
83.6868051195227
 72
     1
 10
42.4687894895789
 20
83.6868051195227
 11
40.4687894895789
 21
81.6868051195227
 72
     1
 10
40.4687894895789
 20
81.6868051195227
 11
40.4687894895789
 21
71.68680511952259
 72
     1
 10
40.4687894895789
 20
71.68680511952259
 11
42.86449624953417
 21
71.68680511952259
 97
        0
 75
     0
 76
     1
 52
180.0
 41
0.1
 77
     0
 78
    42
 53
48.01279999999997
 43
46.88998948957888
 44
84.14680511952251
 45
20.32001726589601
 46
22.86002808951256
 79
     2
 49
0.3417209999999985
 49
-33.83049999999986
 53
4.96969999999992
 43
47.11858948957893
 44
84.40080511952253
 45
-30.48004930617913
 46
-2.53998207538744
 79
     2
 49
0.5864049999999997
 49
-58.05399999999995
 53
312.5104
 43
47.70278948957893
 44
84.4516051195225
 45
-25.39998151833169
 46
27.94002729246043
 79
     2
 49
0.413482
 49
-40.93469999999999
 53
87.27370000000002
 43
48.69338948957892
 44
85.08660511952262
 45
-2.539988970828184
 46
-50.79998365336643
 79
     2
 49
0.5340050000000001
 49
-52.8664
 53
112.8336999999999
 43
48.71878948957889
 44
85.62000511952254
 45
12.70003605550188
 46
-30.48001733005111
 79
     2
 49
0.5236339999999982
 49
-51.83979999999984
 53
177.2737
 43
48.51558948957887
 44
86.10260511952246
 45
50.79998365336643
 46
-2.539988970828194
 79
     2
 49
0.5340050000000001
 49
-52.8664
 53
217.6942
 43
47.98218948957885
 44
86.12800511952256
 45
33.02002086123995
 46
25.39997735698488
 79
     2
 49
0.7061939999999997
 49
-69.91309999999995
 53
252.2553
 43
47.42338948957882
 44
85.69620511952249
 45
-17.7800355654672
 46
-55.88001620603638
 79
     2
 49
0.6667200000000002
 49
-66.0053
 53
301.4296
 43
47.22018948957888
 44
85.06120511952252
 45
20.32000523526447
 46
-33.0199611599727
 79
     2
 49
0.535813
 49
-53.04549999999998
 53
355.2364
 43
47.49958948957889
 44
84.60400511952245
 45
-27.93997805305446
 46
2.539976162721166
 79
     2
 49
0.6117129999999975
 49
-29.97389999999992
 53
42.39739999999996
 43
48.1091894895789
 44
84.55320511952249
 45
30.48000091723972
 46
27.93996365063695
 79
     2
 49
0.7910780000000001
 49
-78.3168
 53
318.8141
 43
46.17878948957883
 44
85.1120051195225
 45
17.77998867422471
 46
-15.239976557124
 79
     2
 49
0.270005
 49
-26.7306
 53
351.4692
 43
46.38198948957885
 44
84.93420511952257
 45
-33.01994959559142
 46
5.080012800045712
 79
     2
 49
0.5136819999999995
 49
-50.85459999999997
 53
45.0
 43
46.88998948957888
 44
84.85800511952247
 45
0.0000000000000014
 46
2.539998268700193
 79
     2
 49
0.3592090000000001
 49
-3.232889999999998
 53
23.19859999999998
 43
47.06778948957896
 44
84.55320511952249
 45
-12.70004282559083
 46
-5.080022274306251
 79
     2
 49
0.1934409999999997
 49
-19.15059999999995
 53
111.8014
 43
47.24558948957888
 44
84.62940511952266
 45
2.540001781894504
 46
-7.620004908731861
 79
     2
 49
0.2735659999999987
 49
-13.40479999999995
 53
210.9637999999999
 43
47.14398948957891
 44
84.88340511952245
 45
-7.619991954808227
 46
-5.080003958660541
 79
     2
 49
0.4443199999999999
 49
-14.36629999999998
 53
341.5651
 43
46.76298948957895
 44
84.65480511952256
 45
-5.08000231818098
 46
2.539996222465076
 79
     2
 49
0.3212869999999995
 49
-7.710899999999987
 53
196.3894999999999
 43
48.71878948957889
 44
84.62940511952266
 45
-25.40001401396935
 46
-7.619984149967789
 79
     2
 49
0.4500879999999991
 49
-44.55879999999978
 53
250.3462
 43
48.28698948957896
 44
84.5024051195225
 45
10.15997168867651
 46
27.93996048854499
 79
     2
 49
0.3775989999999999
 49
-37.38219999999999
 53
113.1985999999999
 43
46.76298948957895
 44
84.14680511952251
 45
5.080022274306253
 46
-12.70004282559083
 79
     2
 49
0.38688
 49
-18.9572
 53
163.6104999999998
 43
46.61058948957888
 44
84.5024051195225
 45
25.40001401396935
 46
-7.619984149967824
 79
     2
 49
0.4500880000000003
 49
-44.55879999999996
 53
159.444
 43
48.71878948957889
 44
86.20420511952255
 45
12.70001576425591
 46
-5.079993836050141
 79
     2
 49
0.4340350000000001
 49
-21.2677
 53
114.7751
 43
48.31238948957896
 44
86.35660511952247
 45
12.69997040362683
 46
-27.93998702615668
 79
     2
 49
0.3636719999999997
 49
-36.00359999999995
 53
246.8014
 43
46.73758948957885
 44
86.68680511952247
 45
-5.080022274306268
 46
-12.70004282559083
 79
     2
 49
0.3868799999999983
 49
-18.95719999999991
 53
197.354
 43
46.58518948957889
 44
86.33120511952247
 45
33.02000178185996
 46
10.15998467560562
 79
     2
 49
0.4257830000000002
 49
-42.15239999999996
 53
249.444
 43
47.98218948957885
 44
86.68680511952247
 45
5.079993836050146
 46
12.70001576425591
 79
     2
 49
0.217018
 49
-21.4848
 53
281.3098999999998
 43
46.88998948957888
 44
86.68680511952247
 45
2.539987462887343
 46
-10.15996746090262
 79
     2
 49
0.129515
 49
-12.822
 53
345.9638
 43
46.91538948957888
 44
86.55980511952249
 45
-7.620005354697171
 46
2.539995604123642
 79
     2
 49
0.5236340000000002
 49
-9.949049999999999
 53
6.008999999999987
 43
47.42338948957882
 44
86.43280511952246
 45
-25.39996254442795
 46
-2.539994068547845
 79
     2
 49
0.485267
 49
-48.0414
 53
123.6900999999998
 43
47.14398948957891
 44
85.1120051195225
 45
2.540000871307229
 46
-5.079995099231839
 79
     2
 49
0.366324
 49
-8.791780000000001
 53
173.1571999999999
 43
46.94078948957888
 44
85.41680511952248
 45
-43.18001785664342
 46
5.080022751654855
 79
     2
 49
0.639557
 49
-63.31599999999998
 53
240.9454
 43
46.30578948957901
 44
85.49300511952244
 45
10.15997636582909
 46
17.77995761083412
 79
     2
 49
0.261508
 49
-25.8894
 53
270.0
 43
46.17878948957883
 44
85.26440511952253
 45
2.539999999999996
 46
-2.54
 79
     2
 49
0.1524
 49
-2.387599999999999
 53
300.2564
 43
47.47418948957892
 44
86.35660511952247
 45
-10.1599784668361
 46
17.77999103247756
 79
     2
 49
0.3528669999999998
 49
-34.93389999999997
 53
228.0128
 43
47.65198948957896
 44
86.05180511952246
 45
-20.32001726589601
 46
-22.86002808951256
 79
     2
 49
0.6834430000000003
 49
-33.48880000000001
 53
180.0
 43
47.19478948957889
 44
85.54380511952256
 45
-2.54
 46
-2.539999999999996
 79
     2
 49
0.6604000000000001
 49
-1.879599999999999
 53
145.3047999999999
 43
46.53438948957894
 44
85.54380511952256
 45
25.39995599095369
 46
-17.78000169048478
 79
     2
 49
0.401609999999999
 49
-39.75929999999986
 53
74.05459999999997
 43
46.20418948957881
 44
85.77240511952245
 45
2.540006479701477
 46
10.16002420320363
 79
     2
 49
0.369829
 49
-18.1217
 53
27.64599999999991
 43
46.30578948957901
 44
86.12800511952256
 45
48.25998304902272
 46
25.40001597472336
 79
     2
 49
0.6021450000000002
 49
-59.61249999999998
 53
355.4261
 43
46.8391894895788
 44
86.40740511952245
 45
33.02000760474751
 46
-2.53998771121947
 79
     2
 49
0.6370289999999994
 49
-63.06579999999996
 53
355.4261
 43
46.8391894895788
 44
86.40740511952245
 45
33.02000760474751
 46
-2.53998771121947
 79
     2
 49
0.6370289999999994
 49
-63.06579999999996
 47
0.0
 98
        1
 10
42.12288208438628
 20
77.41753011589075
1001
ACAD
1010
0.0
1020
0.0
1030
0.0
1001
AcDbBlockRepETag
1070
     1
1071
       25
1005
0
  0
LWPOLYLINE
  5
2AA9
330
1F
100
AcDbEntity
  8
Glas
 62
   150
100
AcDbPolyline
 90
        6
 70
     0
 43
0.0
 10
40.4687894895789
 20
67.42298905072657
 10
40.4687894895789
 20
83.18680511952257
 10
39.9687894895789
 20
83.68680511952259
 10
36.96878948957937
 20
83.68680511952259
 10
36.46878948957937
 20
83.18680511952257
 10
36.46878948957937
 20
63.67677786702864
1001
AcDbBlockRepETag
1070
     1
1071
       30
1005
0
  0
HATCH
  5
2B5E
330
1F
100
AcDbEntity
  8
Silikon
 62
     1
100
AcDbHatch
 10
0.0
 20
0.0
 30
0.0
210
0.0
220
0.0
230
1.0
  2
ANGLE
 70
     0
 71
     1
 91
        1
 92
        1
 93
        6
 72
     2
 10
132.0461294456077
 20
72.6868051195227
 40
2.000000000000416
 50
69.99999999999997
 51
164.9999999999949
 73
     0
 72
     1
 10
130.1142777930292
 20
72.16916702931738
 11
130.0354752148552
 21
72.46326225482997
 72
     2
 10
127.1376977359886
 20
71.68680511952327
 40
2.999999999999124
 50
14.99999999998743
 51
89.99999999998562
 73
     1
 72
     1
 10
127.1376977359894
 20
74.68680511952237
 11
125.5461294456073
 21
74.68680511952246
 72
     1
 10
125.5461294456073
 20
74.68680511952246
 11
125.5461294456073
 21
68.28363561040686
 72
     1
 10
125.5461294456073
 20
68.28363561040686
 11
132.7301697322592
 21
70.80741987795049
 97
        1
330
2B5F
 75
     0
 76
     1
 52
0.0
 41
0.1
 77
     0
 78
     2
 53
180.0
 43
-288.8478303482053
 44
-266.906943296999
 45
0.0
 46
0.6985000000000002
 79
     2
 49
0.508
 49
-0.1905
 53
90.0
 43
-288.8478303482053
 44
-266.906943296999
 45
0.6985000000000002
 46
0.0
 79
     2
 49
0.508
 49
-0.1905
 98
        1
 10
-288.8478303482053
 20
-266.906943296999
1001
ACAD
1010
0.0
1020
0.0
1030
0.0
  0
LWPOLYLINE
  5
2B5F
102
{ACAD_REACTORS
330
2B5E
102
}
330
1F
100
AcDbEntity
  8
Silikon
 62
     1
100
AcDbPolyline
 90
        6
 70
     1
 43
0.0
 10
132.7301697322592
 20
70.80741987795049
 42
-0.4400105308918068
 10
130.1142777930292
 20
72.16916702931738
 10
130.0354752148552
 20
72.46326225482997
 42
0.3394542588633679
 10
127.1376977359894
 20
74.68680511952237
 10
125.5461294456073
 20
74.68680511952246
 10
125.5461294456073
 20
68.28363561040686
  0
HATCH
  5
2B60
330
1F
100
AcDbEntity
  8
Schraffur
 62
    84
100
AcDbHatch
 10
0.0
 20
0.0
 30
0.0
210
0.0
220
0.0
230
1.0
  2
STEEL
 70
     0
 71
     1
 91
        2
 92
        1
 93
       19
 72
     1
 10
129.0832028738684
 20
88.68680511952247
 11
149.4212717071842
 21
88.68680511952264
 72
     2
 10
149.4212717071847
 20
89.18680511952302
 40
0.5000000000003837
 50
269.9999999999414
 51
349.9999999999413
 73
     1
 72
     1
 10
149.9136755836911
 20
89.09998103068899
 11
150.1206214232731
 21
90.27362920835598
 72
     2
 10
150.6130252997791
 20
90.18680511952252
 40
0.499999999999943
 50
190.0000000000013
 51
270.0000000000196
 73
     0
 72
     1
 10
150.6130252997793
 20
90.68680511952246
 11
152.0461294456073
 21
90.68680511952264
 72
     2
 10
152.0461294456072
 20
88.68680511952305
 40
1.999999999999587
 50
270.0000000000025
 51
360.0000000000028
 73
     0
 72
     1
 10
154.0461294456068
 20
88.68680511952296
 11
154.0461294456068
 21
82.76703995768619
 72
     2
 10
148.0461294456074
 20
82.7670399576851
 40
5.999999999999374
 50
359.9999999999897
 51
429.9999999999879
 73
     0
 72
     1
 10
150.0982503055624
 20
77.12888423297066
 11
132.7301697322592
 21
70.80741987795049
 72
     2
 10
132.0461294456077
 20
72.68680511952268
 40
2.000000000000403
 50
69.99999999999982
 51
164.9999999999953
 73
     0
 72
     1
 10
130.1142777930292
 20
72.16916702931738
 11
130.0354752148552
 21
72.46326225483014
 72
     2
 10
127.1376977359887
 20
71.6868051195234
 40
2.999999999999081
 50
14.99999999998849
 51
89.99999999998669
 73
     1
 72
     1
 10
127.1376977359894
 20
74.68680511952246
 11
126.5461294456073
 21
74.68680511952246
 72
     1
 10
126.5461294456073
 20
74.68680511952246
 11
126.0461294456073
 21
75.18680511952246
 72
     1
 10
126.0461294456073
 20
75.18680511952246
 11
126.0461294456073
 21
81.25909793278017
 72
     2
 10
126.5461294456071
 20
81.25909793278035
 40
0.4999999999998295
 50
179.9999999999788
 51
250.5287793654948
 73
     0
 72
     2
 10
126.0461294456071
 20
82.67331149515332
 40
1.000000000000039
 50
289.4712206344845
 51
359.9999999999919
 73
     1
 72
     1
 10
127.0461294456072
 20
82.67331149515317
 11
127.0461294456072
 21
87.94537102662088
 72
     1
 10
127.0461294456072
 20
87.94537102662088
 11
129.0832028738684
 21
88.68680511952247
 97
        1
330
2B61
 92
       24
 93
        4
 72
     1
 10
136.3588210451102
 20
84.15172565182599
 11
145.6088210451102
 21
84.15172565182599
 72
     1
 10
145.6088210451102
 20
84.15172565182599
 11
145.6088210451102
 21
79.09220184230218
 72
     1
 10
145.6088210451102
 20
79.09220184230218
 11
136.3588210451102
 21
79.09220184230218
 72
     1
 10
136.3588210451102
 20
79.09220184230218
 11
136.3588210451102
 21
84.15172565182599
 97
        1
330
2B62
 75
     0
 76
     1
 52
0.0
 41
1.0
 77
     0
 78
     2
 53
45.0
 43
0.0000000000003126
 44
-95.77698622867064
 45
-2.245064030267287
 46
2.245064030267287
 79
     0
 53
45.0
 43
0.0000000000003126
 44
-94.18948622867066
 45
-2.245064030267287
 46
2.245064030267287
 79
     0
 98
        1
 10
0.0000000000003126
 20
-95.77698622867064
1001
ACAD
1010
0.0
1020
0.0
1030
0.0
  0
LWPOLYLINE
  5
2B61
102
{ACAD_REACTORS
330
2B60
102
}
330
1F
100
AcDbEntity
  8
Glasleiste
100
AcDbPolyline
 90
       19
 70
     1
 43
0.0
 10
129.0832028738684
 20
88.68680511952247
 10
149.4212717071842
 20
88.68680511952264
 42
0.3639702342661933
 10
149.9136755836911
 20
89.09998103068899
 10
150.1206214232731
 20
90.27362920835598
 42
-0.3639702342662952
 10
150.6130252997793
 20
90.68680511952246
 10
152.0461294456073
 20
90.68680511952264
 42
-0.4142135623730951
 10
154.0461294456068
 20
88.68680511952296
 10
154.0461294456068
 20
82.76703995768619
 42
-0.3152987888789748
 10
150.0982503055624
 20
77.12888423297066
 10
132.7301697322592
 20
70.80741987795049
 42
-0.4400105308918081
 10
130.1142777930292
 20
72.16916702931738
 10
130.0354752148552
 20
72.46326225483014
 42
0.3394542588633679
 10
127.1376977359894
 20
74.68680511952246
 10
126.5461294456073
 20
74.68680511952246
 10
126.0461294456073
 20
75.18680511952246
 10
126.0461294456073
 20
81.25909793278017
 42
-0.3178372451958047
 10
126.3794627789404
 20
81.73050245357117
 42
0.3178372451957714
 10
127.0461294456072
 20
82.67331149515317
 10
127.0461294456072
 20
87.94537102662088
  0
MTEXT
  5
2B62
102
{ACAD_REACTORS
330
2B60
102
}
330
1F
100
AcDbEntity
  8
Bemaßung
100
AcDbMText
 10
136.9838210451102
 20
83.52672565182599
 30
0.0
 40
2.5
 41
15.20500240567617
 71
     1
 72
     5
  1
20/28
  7
RomanS
 73
     1
 44
1.0
  0
INSERT
  5
2B63
330
1F
100
AcDbEntity
  8
0
100
AcDbBlockReference
  2
Glas 18mm ob IV
 10
107.0461294456072
 20
88.68680511952254
 30
0.0
  0
DIMENSION
  5
2B64
330
1F
100
AcDbEntity
  8
Bemaßung
100
AcDbDimension
  2
*D20
 10
154.0461294456068
 20
71.73762829140915
 30
0.0
 11
148.2127961122735
 21
73.61262829140915
 31
0.0
 70
    32
 71
     5
 42
1.000000000000227
  3
IDEAL Holz
100
AcDbAlignedDimension
 13
155.046129445607
 23
71.73762829140915
 33
0.0
 14
154.0461294456068
 24
71.73762829140915
 34
0.0
100
AcDbRotatedDimension
  0
LINE
  5
2BB6
330
1F
100
AcDbEntity
  8
Aluhalter
 62
     3
100
AcDbLine
 10
169.2763559120465
 20
88.68680511952275
 30
0.0
 11
166.9659143250234
 21
88.35195851270794
 31
0.0
1001
AcDbBlockRepETag
1070
     1
1071
        7
1005
2BA4
  0
LINE
  5
2BB7
330
1F
100
AcDbEntity
  8
Aluhalter
 62
     3
100
AcDbLine
 10
166.0619027240593
 20
84.15266790039044
 30
0.0
 11
169.2763559120465
 21
83.68680511952263
 31
0.0
1001
AcDbBlockRepETag
1070
     1
1071
        8
1005
2BA5
  0
LWPOLYLINE
  5
2BB8
330
1F
100
AcDbEntity
  8
Aluhalter
 62
     3
100
AcDbPolyline
 90
        4
 70
     0
 43
0.0
 10
167.0878389827312
 20
88.68680511952275
 10
169.2763559120465
 20
88.68680511952275
 10
169.2763559120465
 20
83.68680511952263
 10
166.0284771906268
 20
83.68680511952263
1001
AcDbBlockRepETag
1070
     1
1071
       36
1005
2BA6
  0
LWPOLYLINE
  5
2BB9
330
1F
100
AcDbEntity
  8
Glas
 62
   150
100
AcDbPolyline
 90
        5
 70
     0
 43
0.0
 10
166.015363439805
 20
83.42581264728085
 10
166.2763559120471
 20
83.68680511952263
 10
169.2763559120467
 20
83.68680511952263
 10
169.7763559120467
 20
83.18680511952273
 10
169.7763559120467
 20
72.01982386721344
1001
AcDbBlockRepETag
1070
     1
1071
       37
1005
2BA7
  0
HATCH
  5
2BBA
330
1F
100
AcDbEntity
  8
Glas
 62
   150
100
AcDbHatch
 10
0.0
 20
0.0
 30
0.0
210
0.0
220
0.0
230
1.0
  2
AR-CONC
 70
     0
 71
     0
 91
        1
 92
        1
 93
        5
 72
     2
 10
183.0
 20
82.70323329656404
 40
17.0
 50
141.0651836560979
 51
182.4360719642834
 73
     0
 72
     1
 10
166.015363439805
 20
83.42581264728085
 11
166.276355912047
 21
83.68680511952263
 72
     1
 10
166.2763559120471
 20
83.68680511952263
 11
169.2763559120467
 21
83.68680511952263
 72
     1
 10
169.2763559120467
 20
83.68680511952263
 11
169.7763559120467
 21
83.18680511952273
 72
     1
 10
169.7763559120467
 20
83.18680511952273
 11
169.7763559120467
 21
72.01982386721344
 97
        0
 75
     0
 76
     1
 52
0.0
 41
0.02
 77
     0
 78
    13
 53
310.0
 43
171.7763559120461
 44
88.68680511952275
 45
3.64369337992008
 46
0.3187817107780617
 79
     2
 49
0.381
 49
-4.190999999999998
 53
5.000000000000006
 43
171.7763559120461
 44
88.68680511952275
 45
-0.7048565195133401
 46
-3.821132857643598
 79
     2
 49
0.3048
 49
-3.352799999999998
 53
259.549
 43
172.0799959120463
 44
88.71337011952276
 45
2.938850033319181
 46
-3.502333756405836
 79
     2
 49
0.3237999999999999
 49
-3.561799999999993
 53
313.8158
 43
171.7763559120461
 44
87.67080511952284
 45
5.421580817842596
 46
0.8408465586545428
 79
     2
 49
0.5714999999999997
 49
-6.286499999999997
 53
263.3644
 43
172.2281539120464
 44
87.74087511952282
 45
4.748084689324741
 46
-4.948511117800983
 79
     2
 49
0.4857000000000001
 49
-5.342699999999998
 53
8.815999999999981
 43
171.7763559120461
 44
87.67080511952284
 45
4.748092116278677
 46
-4.948502357211953
 79
     2
 49
0.4572
 49
-5.0292
 53
339.0
 43
172.2843559120464
 44
87.92480511952275
 45
3.032297596707665
 46
2.045310370335247
 79
     2
 49
0.381
 49
-4.190999999999997
 53
34.00000000000004
 43
172.2843559120464
 44
87.92480511952275
 45
1.236040566952941
 46
-3.683759322446384
 79
     2
 49
0.3048
 49
-3.352799999999998
 53
288.5486
 43
172.5370459120462
 44
88.09524711952283
 45
4.268329815402489
 46
-1.638457154321149
 79
     2
 49
0.3237999999999987
 49
-3.561799999999985
 53
322.5
 43
171.7763559120461
 44
88.68680511952275
 45
0.0617720650118363
 46
-1.691100777463059
 79
     6
 49
0.0
 49
-3.312159999999998
 49
0.0
 49
-3.403599999999998
 49
0.0
 49
-3.365499999999998
 53
352.5
 43
171.7763559120461
 44
88.68680511952275
 45
1.336393250206113
 46
-2.00361149636239
 79
     6
 49
0.0
 49
-1.940559999999999
 49
0.0
 49
-3.235959999999998
 49
0.0
 49
-1.282699999999999
 53
32.50000000000003
 43
170.6435159120462
 44
88.68680511952275
 45
2.711811903337423
 46
0.1145748798534692
 79
     6
 49
0.0
 49
-1.27
 49
0.0
 49
-3.9624
 49
0.0
 49
-5.257799999999996
 53
42.5
 43
170.1355159120463
 44
88.68680511952275
 45
2.962583627720361
 46
-0.5085298206666603
 79
     6
 49
0.0
 49
-1.650999999999999
 49
0.0
 49
-2.63144
 49
0.0
 49
-3.7338
 98
        1
 10
168.5754967331364
 20
66.44198358067473
1001
ACAD
1010
0.0
1020
0.0
1030
0.0
1001
AcDbBlockRepETag
1070
     1
1071
       39
1005
2BA8
  0
VIEWPORT
  5
177E
330
D2
100
AcDbEntity
 67
     1
  8
0
100
AcDbViewport
 10
98.98666416800232
 20
142.5159155017387
 30
0.0
 40
544.9028871016279
 41
300.6360756422775
 68
     1
 69
     1
 12
98.98666416800232
 22
142.5159155017387
 13
0.0
 23
0.0
 14
10.0
 24
10.0
 15
10.0
 25
10.0
 16
0.0
 26
0.0
 36
1.0
 17
0.0
 27
0.0
 37
0.0
 42
50.0
 43
0.0
 44
0.0
 45
300.6360756422775
 50
0.0
 51
0.0
 72
  1000
 90
   557088
  1

281
     0
 71
     1
 74
     0
110
0.0
120
0.0
130
0.0
111
1.0
121
0.0
131
0.0
112
0.0
122
1.0
132
0.0
 79
     0
146
0.0
170
     0
  0
VIEWPORT
  5
1780
330
D2
100
AcDbEntity
 67
     1
  8
0
100
AcDbViewport
 10
98.98666312582941
 20
142.5159147323491
 30
0.0
 40
209.9733268086163
 41
297.0318298920366
 68
     2
 69
     2
 12
104.7879568455957
 22
148.3976811817479
 13
0.0
 23
0.0
 14
10.0
 24
10.0
 15
10.0
 25
10.0
 16
0.0
 26
0.0
 36
1.0
 17
0.0
 27
0.0
 37
0.0
 42
50.0
 43
0.0
 44
0.0
 45
297.0318250049743
 50
0.0
 51
0.0
 72
  1000
 90
   819296
  1

281
     0
 71
     1
 74
     0
110
0.0
120
0.0
130
0.0
111
1.0
121
0.0
131
0.0
112
0.0
122
1.0
132
0.0
 79
     0
146
0.0
170
     0
  0
ENDSEC
  0
SECTION
  2
OBJECTS
  0
DICTIONARY
  5
C
330
0
100
AcDbDictionary
281
     1
  3
ACAD_COLOR
350
6B
  3
ACAD_GROUP
350
D
  3
ACAD_LAYOUT
350
1A
  3
ACAD_MATERIAL
350
6A
  3
ACAD_MLINESTYLE
350
17
  3
ACAD_PLOTSETTINGS
350
19
  3
ACAD_PLOTSTYLENAME
350
E
  3
ACAD_TABLESTYLE
350
7E
  3
ACAD_VISUALSTYLE
350
EF
  3
AcDbVariableDictionary
350
5E
  0
DICTIONARY
  5
120
330
2
100
AcDbDictionary
280
     1
281
     1
  3
ACAD_LAYERSTATES
360
121
  0
DICTIONARY
  5
732
330
1F
100
AcDbDictionary
280
     1
281
     1
  3
ACAD_SORTENTS
360
733
  0
DICTIONARY
  5
2C0A
330
1F37
100
AcDbDictionary
280
     1
281
     1
  3
ACAD_SORTENTS
360
2C0B
  0
DICTIONARY
  5
2BF4
330
1F40
100
AcDbDictionary
280
     1
281
     1
  0
DICTIONARY
  5
2665
330
261F
100
AcDbDictionary
280
     1
281
     1
  0
DICTIONARY
  5
2B32
330
2B31
100
AcDbDictionary
280
     1
281
     1
  3
ACAD_SORTENTS
360
2B33
  0
DICTIONARY
  5
2BC3
330
207B
100
AcDbDictionary
280
     1
281
     1
  3
ACAD_MTEXT_RT
360
2C34
  0
DICTIONARY
  5
2BC5
330
207C
100
AcDbDictionary
280
     1
281
     1
  3
ACAD_MTEXT_RT
360
2C35
  0
DICTIONARY
  5
2BFF
330
20CD
100
AcDbDictionary
280
     1
281
     1
  0
DICTIONARY
  5
238F
330
2382
100
AcDbDictionary
280
     1
281
     1
  3
ACAD_DIMASSOC
360
2399
  0
DICTIONARY
  5
23E4
330
23D7
100
AcDbDictionary
280
     1
281
     1
  3
ACAD_DIMASSOC
360
23EE
  0
DICTIONARY
  5
24E1
330
24D4
100
AcDbDictionary
280
     1
281
     1
  3
ACAD_DIMASSOC
360
24EB
  0
DICTIONARY
  5
6B
102
{ACAD_REACTORS
330
C
102
}
330
C
100
AcDbDictionary
281
     1
  0
DICTIONARY
  5
D
102
{ACAD_REACTORS
330
C
102
}
330
C
100
AcDbDictionary
281
     1
  0
DICTIONARY
  5
1A
102
{ACAD_REACTORS
330
C
102
}
330
C
100
AcDbDictionary
281
     1
  3
Layout A4-hoch
350
D3
  3
Model
350
22
  0
DICTIONARY
  5
6A
102
{ACAD_REACTORS
330
C
102
}
330
C
100
AcDbDictionary
281
     1
  3
ByBlock
350
ED
  3
ByLayer
350
EC
  3
Global
350
EE
  0
DICTIONARY
  5
17
102
{ACAD_REACTORS
330
C
102
}
330
C
100
AcDbDictionary
281
     1
  3
Standard
350
18
  0
DICTIONARY
  5
19
102
{ACAD_REACTORS
330
C
102
}
330
C
100
AcDbDictionary
281
     1
  0
ACDBDICTIONARYWDFLT
  5
E
102
{ACAD_REACTORS
330
C
102
}
330
C
100
AcDbDictionary
281
     1
  3
Normal
350
F
100
AcDbDictionaryWithDefault
340
F
  0
DICTIONARY
  5
7E
102
{ACAD_REACTORS
330
C
102
}
330
C
100
AcDbDictionary
281
     1
  3
Standard
350
7F
  0
DICTIONARY
  5
EF
102
{ACAD_REACTORS
330
C
102
}
330
C
100
AcDbDictionary
281
     1
  3
2dWireframe
350
F5
  3
3D Hidden
350
F7
  3
3dWireframe
350
F6
  3
Basic
350
F4
  3
Brighten
350
FB
  3
ColorChange
350
FF
  3
Conceptual
350
F8
  3
Dim
350
FA
  3
Facepattern
350
FE
  3
Flat
350
F0
  3
FlatWithEdges
350
F1
  3
Gouraud
350
F2
  3
GouraudWithEdges
350
F3
  3
Linepattern
350
FD
  3
Realistic
350
F9
  3
Thicken
350
FC
  0
DICTIONARY
  5
5E
102
{ACAD_REACTORS
330
C
102
}
330
C
100
AcDbDictionary
281
     1
  3
CTABLESTYLE
350
84
  3
DIMASSOC
350
5F
  3
HIDETEXT
350
63
  3
INDEXCTL
350
70A
  3
PSOLHEIGHT
350
2C31
  3
PSOLWIDTH
350
2C30
  3
SORTENTS
350
709
  0
DICTIONARY
  5
121
102
{ACAD_REACTORS
330
120
102
}
330
120
100
AcDbDictionary
281
     1
  0
SORTENTSTABLE
  5
733
102
{ACAD_REACTORS
330
732
102
}
330
732
100
AcDbSortentsTable
330
1F
331
21B5
  5
22CB
331
208A
  5
208A
331
24BC
  5
2506
331
2074
  5
2074
331
20A7
  5
20A7
331
21BC
  5
20C9
331
2031
  5
2031
331
2561
  5
21C6
331
20BE
  5
20BE
331
207B
  5
207B
331
2382
  5
2401
331
21C3
  5
21B3
331
2038
  5
2038
331
205D
  5
205D
331
20C5
  5
21BA
331
242F
  5
2431
331
20CD
  5
21C2
331
2081
  5
2081
331
208D
  5
208D
331
204A
  5
204A
331
2077
  5
2077
331
2063
  5
2063
331
21BF
  5
20CC
331
2094
  5
2094
331
2059
  5
2059
331
2045
  5
2045
331
20C9
  5
21BE
331
207E
  5
207E
331
234A
  5
23D7
331
20AB
  5
20AB
331
259B
  5
21C7
331
21B4
  5
21C8
331
20A6
  5
20A6
331
2057
  5
2057
331
2073
  5
2073
331
2030
  5
2030
331
21BB
  5
20C8
331
2084
  5
2084
331
2066
  5
2066
331
207A
  5
207A
331
2037
  5
2037
331
2432
  5
2464
331
205C
  5
205C
331
242E
  5
2430
331
20C4
  5
21B9
331
20CC
  5
21C1
331
20AE
  5
20AE
331
21B7
  5
20C4
331
2080
  5
2080
331
23D7
  5
242D
331
2049
  5
2049
331
24A4
  5
24D4
331
2062
  5
2062
331
2076
  5
2076
331
21BE
  5
20CB
331
2093
  5
2093
331
2058
  5
2058
331
207D
  5
207D
331
20C8
  5
21BD
331
2349
  5
2382
331
205F
  5
205F
331
20C7
  5
21BC
331
21B3
  5
21C5
331
2088
  5
2088
331
2072
  5
2072
331
20A5
  5
20A5
331
21BA
  5
20C7
331
208F
  5
208F
331
2065
  5
2065
331
2036
  5
2036
331
2096
  5
2096
331
205B
  5
205B
331
2047
  5
2047
331
242D
  5
242F
331
22CB
  5
2349
331
20CB
  5
21C0
331
203D
  5
203D
331
20AD
  5
20AD
331
21B6
  5
2347
331
208B
  5
208B
331
2048
  5
2048
331
2347
  5
234A
331
20D8
  5
21C3
331
2061
  5
2061
331
2075
  5
2075
331
21BD
  5
20CA
331
2086
  5
2086
331
24D4
  5
2543
331
20BF
  5
20BF
331
207C
  5
207C
331
2039
  5
2039
331
205E
  5
205E
331
21B2
  5
21C4
331
20C6
  5
21BB
331
2497
  5
24BC
331
21B9
  5
20C6
331
2082
  5
2082
331
2401
  5
242E
331
204B
  5
204B
331
2064
  5
2064
331
2078
  5
2078
331
2035
  5
2035
331
2430
  5
2432
331
2464
  5
24A4
331
2046
  5
2046
331
205A
  5
205A
331
207F
  5
207F
331
20CA
  5
21BF
331
203C
  5
203C
331
2506
  5
257D
331
20B0
  5
20B0
  0
SORTENTSTABLE
  5
2C0B
102
{ACAD_REACTORS
330
2C0A
102
}
330
2C0A
100
AcDbSortentsTable
330
1F37
331
2C07
  5
2C08
331
2C08
  5
2C09
331
2C06
  5
2C07
331
2C09
  5
2C06
  0
SORTENTSTABLE
  5
2B33
102
{ACAD_REACTORS
330
2B32
102
}
330
2B32
100
AcDbSortentsTable
330
2B31
  0
XRECORD
  5
2C34
102
{ACAD_REACTORS
330
2BC3
102
}
330
2BC3
100
AcDbXrecord
280
     1
 40
1919451.0
  1
{\fArial|b1|i0|c0|p34;Holzfenster IDEAL IV68xxxx - ClassicLine\PVerbreiterung\P\fArial|b0|i0|c0|p34;\H0.6x;Getriebenutmitte 13.15mm\PGlasstärken 18mm bis 36mm\P\PVertikalschnitt - Horizontalschnitt}
  0
XRECORD
  5
2C35
102
{ACAD_REACTORS
330
2BC5
102
}
330
2BC5
100
AcDbXrecord
280
     1
 40
293718.0
  1
{\fArial|b0|i0|c0|p34;Zeichnung ohne Gewähr; Änderungen vorbehalten}
  0
DIMASSOC
  5
2399
102
{ACAD_REACTORS
330
238F
102
}
330
238F
100
AcDbDimAssoc
330
2382
 90
        2
 70
     0
 71
     0
  1
AcDbOsnapPointRef
 72
     1
331
203D
 73
     2
 91
       54
 40
1.0
 10
0.0
 20
0.0
 30
2.000000000000000E+50
 75
     0
  0
DIMASSOC
  5
23EE
102
{ACAD_REACTORS
330
23E4
102
}
330
23E4
100
AcDbDimAssoc
330
23D7
 90
        3
 70
     0
 71
     0
  1
AcDbOsnapPointRef
 72
    13
331
2082
 73
     2
 91
        0
 40
0.0
 10
0.0
 20
0.0
 30
2.000000000000000E+50
 75
     0
  1
AcDbOsnapPointRef
 72
     8
331
2037
 73
     2
 91
        7
 40
0.6052631578947433
 10
0.0
 20
0.0
 30
0.0
 75
     1
  1
AcDbOsnapPointRef
 72
    13
331
2082
 73
     2
 91
        0
 40
0.0
 10
0.0
 20
0.0
 30
2.000000000000000E+50
 75
     0
  0
DIMASSOC
  5
24EB
102
{ACAD_REACTORS
330
24E1
102
}
330
24E1
100
AcDbDimAssoc
330
24D4
 90
        2
 70
     0
 71
     0
  1
AcDbOsnapPointRef
 72
    10
331
242D
 73
     2
 91
       25
 40
0.7493768963088641
 10
0.0
 20
0.0
 30
0.0
 75
     0
  0
LAYOUT
  5
D3
102
{ACAD_XDICTIONARY
360
1785
102
}
102
{ACAD_REACTORS
330
1A
102
}
330
1A
100
AcDbPlotSettings
  1

  2
Adobe PDF
  4
A4
  6

 40
3.174999952316281
 41
3.174999952316281
 42
3.175003051757812
 43
3.17498779296875
 44
209.9733276367186
 45
297.0318298339844
 46
2.825000047683714
 47
2.825000047683714
 48
0.0
 49
0.0
140
0.0
141
0.0
142
1.0
143
1.0
 70
   672
 72
     1
 73
     0
 74
     5
  7
Grayscale.ctb
 75
    16
147
1.0
 76
     0
 77
     2
 78
   300
148
0.0
149
0.0
100
AcDbLayout
  1
Layout A4-hoch
 70
     1
 71
     1
 10
-5.999999999999997
 20
-5.999999999999997
 11
203.9733276367186
 21
291.0318298339844
 12
0.0
 22
0.0
 32
0.0
 14
-6.009609552272422
 24
-6.013593655315842
 34
-0.0000000000000058
 15
203.9829408217793
 25
291.0454288085755
 35
0.0000000000000104
146
0.0
 13
0.0
 23
0.0
 33
0.0
 16
1.0
 26
0.0
 36
0.0
 17
0.0
 27
1.0
 37
0.0
 76
     0
330
D2
331
177E
1001
ACAD_PSEXT
1000
Adobe PDF
1000
Adobe PDF Converter
1000
Eigene Dateien
1000

1070
     0
  0
LAYOUT
  5
22
102
{ACAD_REACTORS
330
1A
102
}
330
1A
100
AcDbPlotSettings
  1

  2
\\ideal2000-01\RICOH Aficio MP 161 PCL 6
  4
A4
  6

 40
5.027082920074462
 41
5.027085781097412
 42
5.027069091796875
 43
5.027069091796875
 44
209.9733276367186
 45
296.9259948730469
 46
-110.0404121875763
 47
-5.064079999923706
 48
0.0
 49
0.0
140
0.0
141
0.0
142
1.0
143
1.0
 70
 11940
 72
     1
 73
     0
 74
     2
  7
Grayscale.ctb
 75
     0
147
0.4759980372020177
 76
     0
 77
     2
 78
   300
148
0.0
149
0.0
100
AcDbLayout
  1
Model
 70
     1
 71
     0
 10
0.0
 20
0.0
 11
12.0
 21
9.0
 12
0.0
 22
0.0
 32
0.0
 14
0.0
 24
0.0
 34
0.0
 15
0.0
 25
0.0
 35
0.0
146
0.0
 13
0.0
 23
0.0
 33
0.0
 16
1.0
 26
0.0
 36
0.0
 17
0.0
 27
1.0
 37
0.0
 76
     0
330
1F
331
EA
1001
ACAD_PSEXT
1000
\\ideal2000-01\RICOH Aficio MP 161 PCL 6
1000
RICOH Aficio MP 161 PCL 6
1000
Bei Hern Becker an JetAdmin 172.16.99.14
1000

1070
     0
  0
MATERIAL
  5
ED
102
{ACAD_XDICTIONARY
360
718
102
}
102
{ACAD_REACTORS
330
6A
102
}
330
6A
100
AcDbMaterial
  1
ByBlock
  0
MATERIAL
  5
EC
102
{ACAD_XDICTIONARY
360
716
102
}
102
{ACAD_REACTORS
330
6A
102
}
330
6A
100
AcDbMaterial
  1
ByLayer
  0
MATERIAL
  5
EE
102
{ACAD_XDICTIONARY
360
71A
102
}
102
{ACAD_REACTORS
330
6A
102
}
330
6A
100
AcDbMaterial
  1
Global
  0
MLINESTYLE
  5
18
102
{ACAD_REACTORS
330
17
102
}
330
17
100
AcDbMlineStyle
  2
STANDARD
 70
     0
  3

 62
   256
 51
90.0
 52
90.0
 71
     2
 49
0.5
 62
   256
  6
BYLAYER
 49
-0.5
 62
   256
  6
BYLAYER
  0
ACDBPLACEHOLDER
  5
F
102
{ACAD_REACTORS
330
E
102
}
330
E
  0
TABLESTYLE
  5
7F
102
{ACAD_XDICTIONARY
360
2C32
102
}
102
{ACAD_REACTORS
330
7E
102
}
330
7E
100
AcDbTableStyle
  3
Standard
 70
     0
 71
     0
 40
1.5
 41
1.5
280
     0
281
     0
  7
Standard
140
4.5
170
     2
 62
     0
 63
     7
283
     0
274
    -2
284
     1
 64
     0
275
    -2
285
     1
 65
     0
276
    -2
286
     1
 66
     0
277
    -2
287
     1
 67
     0
278
    -2
288
     1
 68
     0
279
    -2
289
     1
 69
     0
  7
Standard
140
6.0
170
     5
 62
     0
 63
     7
283
     0
274
    -2
284
     1
 64
     0
275
    -2
285
     1
 65
     0
276
    -2
286
     1
 66
     0
277
    -2
287
     1
 67
     0
278
    -2
288
     1
 68
     0
279
    -2
289
     1
 69
     0
  7
Standard
140
4.5
170
     5
 62
     0
 63
     7
283
     0
274
    -2
284
     1
 64
     0
275
    -2
285
     1
 65
     0
276
    -2
286
     1
 66
     0
277
    -2
287
     1
 67
     0
278
    -2
288
     1
 68
     0
279
    -2
289
     1
 69
     0
  0
VISUALSTYLE
  5
F5
102
{ACAD_REACTORS
330
EF
102
}
330
EF
100
AcDbVisualStyle
  2
2dWireframe
 70
     4
 71
     0
 72
     2
 73
     1
 90
        0
 40
-0.6
 41
-30.0
 62
     5
 63
     7
 74
     1
 91
        4
 64
     7
 65
   257
 75
     1
175
     1
 42
1.0
 92
        0
 66
   257
 43
1.0
 76
     1
 77
     6
 78
     2
 67
     7
 79
     5
170
     0
171
     0
290
     0
174
     0
 93
        1
 44
0.0
173
     0
291
     0
 45
0.0
1001
ACAD
1000
AcDbSavedByObjectVersion
1070
     0
1000
AcDbSavedByObjectVersion
1070
     0
1000
AcDbSavedByObjectVersion
1070
     0
1000
AcDbSavedByObjectVersion
1070
     0
1000
AcDbSavedByObjectVersion
1070
     0
1000
AcDbSavedByObjectVersion
1070
     0
1000
AcDbSavedByObjectVersion
1070
     0
1000
AcDbSavedByObjectVersion
1070
     0
1000
AcDbSavedByObjectVersion
1070
     0
1000
AcDbSavedByObjectVersion
1070
     0
1000
AcDbSavedByObjectVersion
1070
     0
  0
VISUALSTYLE
  5
F7
102
{ACAD_REACTORS
330
EF
102
}
330
EF
100
AcDbVisualStyle
  2
3D Hidden
 70
     6
 71
     1
 72
     2
 73
     2
 90
        0
 40
-0.6
 41
-30.0
 62
     5
 63
     7
 74
     2
 91
        2
 64
     7
 65
   257
 75
     2
175
     1
 42
40.0
 92
        0
 66
   257
 43
1.0
 76
     1
 77
     6
 78
     2
 67
     7
 79
     3
170
     0
171
     0
290
     0
174
     0
 93
        1
 44
0.0
173
     0
291
     0
 45
0.0
1001
ACAD
1000
AcDbSavedByObjectVersion
1070
     0
1000
AcDbSavedByObjectVersion
1070
     0
1000
AcDbSavedByObjectVersion
1070
     0
1000
AcDbSavedByObjectVersion
1070
     0
1000
AcDbSavedByObjectVersion
1070
     0
1000
AcDbSavedByObjectVersion
1070
     0
1000
AcDbSavedByObjectVersion
1070
     0
1000
AcDbSavedByObjectVersion
1070
     0
1000
AcDbSavedByObjectVersion
1070
     0
1000
AcDbSavedByObjectVersion
1070
     0
1000
AcDbSavedByObjectVersion
1070
     0
  0
VISUALSTYLE
  5
F6
102
{ACAD_REACTORS
330
EF
102
}
330
EF
100
AcDbVisualStyle
  2
3dWireframe
 70
     5
 71
     0
 72
     2
 73
     1
 90
        0
 40
-0.6
 41
-30.0
 62
     5
 63
     7
 74
     1
 91
        4
 64
     7
 65
   257
 75
     1
175
     1
 42
1.0
 92
        0
 66
   257
 43
1.0
 76
     1
 77
     6
 78
     2
 67
     7
 79
     5
170
     0
171
     0
290
     0
174
     0
 93
        1
 44
0.0
173
     0
291
     0
 45
0.0
1001
ACAD
1000
AcDbSavedByObjectVersion
1070
     0
1000
AcDbSavedByObjectVersion
1070
     0
1000
AcDbSavedByObjectVersion
1070
     0
1000
AcDbSavedByObjectVersion
1070
     0
1000
AcDbSavedByObjectVersion
1070
     0
1000
AcDbSavedByObjectVersion
1070
     0
1000
AcDbSavedByObjectVersion
1070
     0
1000
AcDbSavedByObjectVersion
1070
     0
1000
AcDbSavedByObjectVersion
1070
     0
1000
AcDbSavedByObjectVersion
1070
     0
1000
AcDbSavedByObjectVersion
1070
     0
  0
VISUALSTYLE
  5
F4
102
{ACAD_REACTORS
330
EF
102
}
330
EF
100
AcDbVisualStyle
  2
Basic
 70
     7
 71
     1
 72
     0
 73
     1
 90
        0
 40
-0.6
 41
-30.0
 62
     5
 63
     7
 74
     0
 91
        4
 64
     7
 65
   257
 75
     1
175
     1
 42
1.0
 92
        8
 66
     7
 43
1.0
 76
     1
 77
     6
 78
     2
 67
     7
 79
     5
170
     0
171
     0
290
     0
174
     0
 93
        1
 44
0.0
173
     0
291
     1
 45
0.0
1001
ACAD
1000
AcDbSavedByObjectVersion
1070
     0
1000
AcDbSavedByObjectVersion
1070
     0
1000
AcDbSavedByObjectVersion
1070
     0
1000
AcDbSavedByObjectVersion
1070
     0
1000
AcDbSavedByObjectVersion
1070
     0
1000
AcDbSavedByObjectVersion
1070
     0
1000
AcDbSavedByObjectVersion
1070
     0
1000
AcDbSavedByObjectVersion
1070
     0
1000
AcDbSavedByObjectVersion
1070
     0
1000
AcDbSavedByObjectVersion
1070
     0
1000
AcDbSavedByObjectVersion
1070
     0
  0
VISUALSTYLE
  5
FB
102
{ACAD_REACTORS
330
EF
102
}
330
EF
100
AcDbVisualStyle
  2
Brighten
 70
    12
 71
     2
 72
     2
 73
     1
 90
        0
 40
-0.6
 41
-30.0
 62
     5
 63
     7
 74
     1
 91
        4
 64
     7
 65
   257
 75
     1
175
     1
 42
1.0
 92
        8
 66
     7
 43
1.0
 76
     1
 77
     6
 78
     2
 67
     7
 79
     5
170
     0
171
     0
290
     0
174
     0
 93
        1
 44
50.0
173
     0
291
     1
 45
0.0
1001
ACAD
1000
AcDbSavedByObjectVersion
1070
     0
1000
AcDbSavedByObjectVersion
1070
     0
1000
AcDbSavedByObjectVersion
1070
     0
1000
AcDbSavedByObjectVersion
1070
     0
1000
AcDbSavedByObjectVersion
1070
     0
1000
AcDbSavedByObjectVersion
1070
     0
1000
AcDbSavedByObjectVersion
1070
     0
1000
AcDbSavedByObjectVersion
1070
     0
1000
AcDbSavedByObjectVersion
1070
     0
1000
AcDbSavedByObjectVersion
1070
     0
1000
AcDbSavedByObjectVersion
1070
     0
  0
VISUALSTYLE
  5
FF
102
{ACAD_REACTORS
330
EF
102
}
330
EF
100
AcDbVisualStyle
  2
ColorChange
 70
    16
 71
     2
 72
     2
 73
     3
 90
        0
 40
-0.6
 41
-30.0
 62
     5
 63
     8
 74
     1
 91
        4
 64
     7
 65
   257
 75
     1
175
     1
 42
1.0
 92
        8
 66
     8
 43
1.0
 76
     1
 77
     6
 78
     2
 67
     7
 79
     5
170
     0
171
     0
290
     0
174
     0
 93
        1
 44
0.0
173
     0
291
     1
 45
0.0
1001
ACAD
1000
AcDbSavedByObjectVersion
1070
     0
1000
AcDbSavedByObjectVersion
1070
     0
1000
AcDbSavedByObjectVersion
1070
     0
1000
AcDbSavedByObjectVersion
1070
     0
1000
AcDbSavedByObjectVersion
1070
     0
1000
AcDbSavedByObjectVersion
1070
     0
1000
AcDbSavedByObjectVersion
1070
     0
1000
AcDbSavedByObjectVersion
1070
     0
1000
AcDbSavedByObjectVersion
1070
     0
1000
AcDbSavedByObjectVersion
1070
     0
1000
AcDbSavedByObjectVersion
1070
     0
  0
VISUALSTYLE
  5
F8
102
{ACAD_REACTORS
330
EF
102
}
330
EF
100
AcDbVisualStyle
  2
Conceptual
 70
     9
 71
     3
 72
     2
 73
     1
 90
        0
 40
-0.6
 41
-30.0
 62
     5
 63
     7
 74
     2
 91
        2
 64
     7
 65
   257
 75
     1
175
     1
 42
40.0
 92
        8
 66
     7
 43
1.0
 76
     1
 77
     6
 78
     2
 67
     7
 79
     3
170
     0
171
     0
290
     0
174
     0
 93
        1
 44
0.0
173
     0
291
     0
 45
0.0
1001
ACAD
1000
AcDbSavedByObjectVersion
1070
     0
1000
AcDbSavedByObjectVersion
1070
     0
1000
AcDbSavedByObjectVersion
1070
     0
1000
AcDbSavedByObjectVersion
1070
     0
1000
AcDbSavedByObjectVersion
1070
     0
1000
AcDbSavedByObjectVersion
1070
     0
1000
AcDbSavedByObjectVersion
1070
     0
1000
AcDbSavedByObjectVersion
1070
     0
1000
AcDbSavedByObjectVersion
1070
     0
1000
AcDbSavedByObjectVersion
1070
     0
1000
AcDbSavedByObjectVersion
1070
     0
  0
VISUALSTYLE
  5
FA
102
{ACAD_REACTORS
330
EF
102
}
330
EF
100
AcDbVisualStyle
  2
Dim
 70
    11
 71
     2
 72
     2
 73
     1
 90
        0
 40
-0.6
 41
-30.0
 62
     5
 63
     7
 74
     1
 91
        4
 64
     7
 65
   257
 75
     1
175
     1
 42
1.0
 92
        8
 66
     7
 43
1.0
 76
     1
 77
     6
 78
     2
 67
     7
 79
     5
170
     0
171
     0
290
     0
174
     0
 93
        1
 44
-50.0
173
     0
291
     1
 45
0.0
1001
ACAD
1000
AcDbSavedByObjectVersion
1070
     0
1000
AcDbSavedByObjectVersion
1070
     0
1000
AcDbSavedByObjectVersion
1070
     0
1000
AcDbSavedByObjectVersion
1070
     0
1000
AcDbSavedByObjectVersion
1070
     0
1000
AcDbSavedByObjectVersion
1070
     0
1000
AcDbSavedByObjectVersion
1070
     0
1000
AcDbSavedByObjectVersion
1070
     0
1000
AcDbSavedByObjectVersion
1070
     0
1000
AcDbSavedByObjectVersion
1070
     0
1000
AcDbSavedByObjectVersion
1070
     0
  0
VISUALSTYLE
  5
FE
102
{ACAD_REACTORS
330
EF
102
}
330
EF
100
AcDbVisualStyle
  2
Facepattern
 70
    15
 71
     2
 72
     2
 73
     1
 90
        0
 40
-0.6
 41
-30.0
 62
     5
 63
     7
 74
     1
 91
        4
 64
     7
 65
   257
 75
     1
175
     1
 42
1.0
 92
        8
 66
     7
 43
1.0
 76
     1
 77
     6
 78
     2
 67
     7
 79
     5
170
     0
171
     0
290
     0
174
     0
 93
        1
 44
0.0
173
     0
291
     1
 45
0.0
1001
ACAD
1000
AcDbSavedByObjectVersion
1070
     0
1000
AcDbSavedByObjectVersion
1070
     0
1000
AcDbSavedByObjectVersion
1070
     0
1000
AcDbSavedByObjectVersion
1070
     0
1000
AcDbSavedByObjectVersion
1070
     0
1000
AcDbSavedByObjectVersion
1070
     0
1000
AcDbSavedByObjectVersion
1070
     0
1000
AcDbSavedByObjectVersion
1070
     0
1000
AcDbSavedByObjectVersion
1070
     0
1000
AcDbSavedByObjectVersion
1070
     0
1000
AcDbSavedByObjectVersion
1070
     0
  0
VISUALSTYLE
  5
F0
102
{ACAD_REACTORS
330
EF
102
}
330
EF
100
AcDbVisualStyle
  2
Flat
 70
     0
 71
     2
 72
     1
 73
     1
 90
        2
 40
-0.6
 41
30.0
 62
     5
 63
     7
 74
     0
 91
        4
 64
     7
 65
   257
 75
     1
175
     1
 42
1.0
 92
        8
 66
     7
 43
1.0
 76
     1
 77
     6
 78
     2
 67
     7
 79
     5
170
     0
171
     0
290
     0
174
     0
 93
        1
 44
0.0
173
     0
291
     1
 45
0.0
1001
ACAD
1000
AcDbSavedByObjectVersion
1070
     0
1000
AcDbSavedByObjectVersion
1070
     0
1000
AcDbSavedByObjectVersion
1070
     0
1000
AcDbSavedByObjectVersion
1070
     0
1000
AcDbSavedByObjectVersion
1070
     0
1000
AcDbSavedByObjectVersion
1070
     0
1000
AcDbSavedByObjectVersion
1070
     0
1000
AcDbSavedByObjectVersion
1070
     0
1000
AcDbSavedByObjectVersion
1070
     0
1000
AcDbSavedByObjectVersion
1070
     0
1000
AcDbSavedByObjectVersion
1070
     0
  0
VISUALSTYLE
  5
F1
102
{ACAD_REACTORS
330
EF
102
}
330
EF
100
AcDbVisualStyle
  2
FlatWithEdges
 70
     1
 71
     2
 72
     1
 73
     1
 90
        2
 40
-0.6
 41
30.0
 62
     5
 63
     7
 74
     1
 91
        4
 64
     7
 65
   257
 75
     1
175
     1
 42
1.0
 92
        0
 66
   257
 43
1.0
 76
     1
 77
     6
 78
     2
 67
     7
 79
     5
170
     0
171
     0
290
     0
174
     0
 93
        1
 44
0.0
173
     0
291
     1
 45
0.0
1001
ACAD
1000
AcDbSavedByObjectVersion
1070
     0
1000
AcDbSavedByObjectVersion
1070
     0
1000
AcDbSavedByObjectVersion
1070
     0
1000
AcDbSavedByObjectVersion
1070
     0
1000
AcDbSavedByObjectVersion
1070
     0
1000
AcDbSavedByObjectVersion
1070
     0
1000
AcDbSavedByObjectVersion
1070
     0
1000
AcDbSavedByObjectVersion
1070
     0
1000
AcDbSavedByObjectVersion
1070
     0
1000
AcDbSavedByObjectVersion
1070
     0
1000
AcDbSavedByObjectVersion
1070
     0
  0
VISUALSTYLE
  5
F2
102
{ACAD_REACTORS
330
EF
102
}
330
EF
100
AcDbVisualStyle
  2
Gouraud
 70
     2
 71
     2
 72
     2
 73
     1
 90
        2
 40
-0.6
 41
30.0
 62
     5
 63
     7
 74
     0
 91
        4
 64
     7
 65
   257
 75
     1
175
     1
 42
1.0
 92
        0
 66
     7
 43
1.0
 76
     1
 77
     6
 78
     2
 67
     7
 79
     5
170
     0
171
     0
290
     0
174
     0
 93
        1
 44
0.0
173
     0
291
     1
 45
0.0
1001
ACAD
1000
AcDbSavedByObjectVersion
1070
     0
1000
AcDbSavedByObjectVersion
1070
     0
1000
AcDbSavedByObjectVersion
1070
     0
1000
AcDbSavedByObjectVersion
1070
     0
1000
AcDbSavedByObjectVersion
1070
     0
1000
AcDbSavedByObjectVersion
1070
     0
1000
AcDbSavedByObjectVersion
1070
     0
1000
AcDbSavedByObjectVersion
1070
     0
1000
AcDbSavedByObjectVersion
1070
     0
1000
AcDbSavedByObjectVersion
1070
     0
1000
AcDbSavedByObjectVersion
1070
     0
  0
VISUALSTYLE
  5
F3
102
{ACAD_REACTORS
330
EF
102
}
330
EF
100
AcDbVisualStyle
  2
GouraudWithEdges
 70
     3
 71
     2
 72
     2
 73
     1
 90
        2
 40
-0.6
 41
30.0
 62
     5
 63
     7
 74
     1
 91
        4
 64
     7
 65
   257
 75
     1
175
     1
 42
1.0
 92
        0
 66
   257
 43
1.0
 76
     1
 77
     6
 78
     2
 67
     7
 79
     5
170
     0
171
     0
290
     0
174
     0
 93
        1
 44
0.0
173
     0
291
     1
 45
0.0
1001
ACAD
1000
AcDbSavedByObjectVersion
1070
     0
1000
AcDbSavedByObjectVersion
1070
     0
1000
AcDbSavedByObjectVersion
1070
     0
1000
AcDbSavedByObjectVersion
1070
     0
1000
AcDbSavedByObjectVersion
1070
     0
1000
AcDbSavedByObjectVersion
1070
     0
1000
AcDbSavedByObjectVersion
1070
     0
1000
AcDbSavedByObjectVersion
1070
     0
1000
AcDbSavedByObjectVersion
1070
     0
1000
AcDbSavedByObjectVersion
1070
     0
1000
AcDbSavedByObjectVersion
1070
     0
  0
VISUALSTYLE
  5
FD
102
{ACAD_REACTORS
330
EF
102
}
330
EF
100
AcDbVisualStyle
  2
Linepattern
 70
    14
 71
     2
 72
     2
 73
     1
 90
        0
 40
-0.6
 41
-30.0
 62
     5
 63
     7
 74
     1
 91
        4
 64
     7
 65
   257
 75
     7
175
     7
 42
1.0
 92
        8
 66
     7
 43
1.0
 76
     1
 77
     6
 78
     2
 67
     7
 79
     5
170
     0
171
     0
290
     0
174
     0
 93
        1
 44
0.0
173
     0
291
     1
 45
0.0
1001
ACAD
1000
AcDbSavedByObjectVersion
1070
     0
1000
AcDbSavedByObjectVersion
1070
     0
1000
AcDbSavedByObjectVersion
1070
     0
1000
AcDbSavedByObjectVersion
1070
     0
1000
AcDbSavedByObjectVersion
1070
     0
1000
AcDbSavedByObjectVersion
1070
     0
1000
AcDbSavedByObjectVersion
1070
     0
1000
AcDbSavedByObjectVersion
1070
     0
1000
AcDbSavedByObjectVersion
1070
     0
1000
AcDbSavedByObjectVersion
1070
     0
1000
AcDbSavedByObjectVersion
1070
     0
  0
VISUALSTYLE
  5
F9
102
{ACAD_REACTORS
330
EF
102
}
330
EF
100
AcDbVisualStyle
  2
Realistic
 70
     8
 71
     2
 72
     2
 73
     1
 90
        0
 40
-0.6
 41
-30.0
 62
     5
 63
     7
 74
     1
 91
        0
 64
     7
 65
   257
 75
     1
175
     1
 42
1.0
 92
        8
 66
     8
 43
1.0
 76
     1
 77
     6
 78
     2
 67
     7
 79
     5
170
     0
171
     0
290
     0
174
     0
 93
       13
 44
0.0
173
     0
291
     0
 45
0.0
1001
ACAD
1000
AcDbSavedByObjectVersion
1070
     0
1000
AcDbSavedByObjectVersion
1070
     0
1000
AcDbSavedByObjectVersion
1070
     0
1000
AcDbSavedByObjectVersion
1070
     0
1000
AcDbSavedByObjectVersion
1070
     0
1000
AcDbSavedByObjectVersion
1070
     0
1000
AcDbSavedByObjectVersion
1070
     0
1000
AcDbSavedByObjectVersion
1070
     0
1000
AcDbSavedByObjectVersion
1070
     0
1000
AcDbSavedByObjectVersion
1070
     0
1000
AcDbSavedByObjectVersion
1070
     0
  0
VISUALSTYLE
  5
FC
102
{ACAD_REACTORS
330
EF
102
}
330
EF
100
AcDbVisualStyle
  2
Thicken
 70
    13
 71
     2
 72
     2
 73
     1
 90
        0
 40
-0.6
 41
-30.0
 62
     5
 63
     7
 74
     1
 91
        4
 64
     7
 65
   257
 75
     1
175
     1
 42
1.0
 92
       12
 66
     7
 43
1.0
 76
     1
 77
     6
 78
     2
 67
     7
 79
     5
170
     0
171
     0
290
     0
174
     0
 93
        1
 44
0.0
173
     0
291
     1
 45
0.0
1001
ACAD
1000
AcDbSavedByObjectVersion
1070
     0
1000
AcDbSavedByObjectVersion
1070
     0
1000
AcDbSavedByObjectVersion
1070
     0
1000
AcDbSavedByObjectVersion
1070
     0
1000
AcDbSavedByObjectVersion
1070
     0
1000
AcDbSavedByObjectVersion
1070
     0
1000
AcDbSavedByObjectVersion
1070
     0
1000
AcDbSavedByObjectVersion
1070
     0
1000
AcDbSavedByObjectVersion
1070
     0
1000
AcDbSavedByObjectVersion
1070
     0
1000
AcDbSavedByObjectVersion
1070
     0
  0
DICTIONARYVAR
  5
84
102
{ACAD_REACTORS
330
5E
102
}
330
5E
100
DictionaryVariables
280
     0
  1
STANDARD
  0
DICTIONARYVAR
  5
5F
102
{ACAD_REACTORS
330
5E
102
}
330
5E
100
DictionaryVariables
280
     0
  1
2
  0
DICTIONARYVAR
  5
63
102
{ACAD_REACTORS
330
5E
102
}
330
5E
100
DictionaryVariables
280
     0
  1
1
  0
DICTIONARYVAR
  5
70A
102
{ACAD_REACTORS
330
5E
102
}
330
5E
100
DictionaryVariables
280
     0
  1
0
  0
DICTIONARYVAR
  5
2C31
102
{ACAD_REACTORS
330
5E
102
}
330
5E
100
DictionaryVariables
280
     0
  1
80.000000
  0
DICTIONARYVAR
  5
2C30
102
{ACAD_REACTORS
330
5E
102
}
330
5E
100
DictionaryVariables
280
     0
  1
5.000000
  0
DICTIONARYVAR
  5
709
102
{ACAD_REACTORS
330
5E
102
}
330
5E
100
DictionaryVariables
280
     0
  1
127
  0
DICTIONARY
  5
1785
330
D3
100
AcDbDictionary
280
     1
281
     1
  3
ADSK_XREC_LAYOUTTHUMBNAIL
360
1786
  0
DICTIONARY
  5
718
330
ED
100
AcDbDictionary
280
     1
281
     1
  3
ACAD_XREC_ROUNDTRIP
360
719
  0
DICTIONARY
  5
716
330
EC
100
AcDbDictionary
280
     1
281
     1
  3
ACAD_XREC_ROUNDTRIP
360
717
  0
DICTIONARY
  5
71A
330
EE
100
AcDbDictionary
280
     1
281
     1
  3
ACAD_XREC_ROUNDTRIP
360
71B
  0
DICTIONARY
  5
2C32
330
7F
100
AcDbDictionary
280
     1
281
     1
  3
ACAD_XREC_ROUNDTRIP
360
2C33
  0
XRECORD
  5
1786
102
{ACAD_REACTORS
330
1785
102
}
330
1785
100
AcDbXrecord
280
     1
310
28000000620000008C0000000100080000000000B036000000000000000000000001000000000000FFFFFF0000000000FFFFFF000000000000000000000000000000000000000000000000000000000000000000330000006600000099000000CC000000FF00000000330000333300006633000099330000CC330000FF3300
310
0000660000336600006666000099660000CC660000FF66000000990000339900006699000099990000CC990000FF99000000CC000033CC000066CC000099CC0000CCCC0000FFCC000000FF000033FF000066FF000099FF0000CCFF0000FFFF000000003300330033006600330099003300CC003300FF003300003333003333
310
33006633330099333300CC333300FF33330000663300336633006666330099663300CC663300FF66330000993300339933006699330099993300CC993300FF99330000CC330033CC330066CC330099CC3300CCCC3300FFCC330000FF330033FF330066FF330099FF3300CCFF3300FFFF330000006600330066006600660099
310
006600CC006600FF00660000336600333366006633660099336600CC336600FF33660000666600336666006666660099666600CC666600FF66660000996600339966006699660099996600CC996600FF99660000CC660033CC660066CC660099CC6600CCCC6600FFCC660000FF660033FF660066FF660099FF6600CCFF6600
310
FFFF660000009900330099006600990099009900CC009900FF00990000339900333399006633990099339900CC339900FF33990000669900336699006666990099669900CC669900FF66990000999900339999006699990099999900CC999900FF99990000CC990033CC990066CC990099CC9900CCCC9900FFCC990000FF99
310
0033FF990066FF990099FF9900CCFF9900FFFF99000000CC003300CC006600CC009900CC00CC00CC00FF00CC000033CC003333CC006633CC009933CC00CC33CC00FF33CC000066CC003366CC006666CC009966CC00CC66CC00FF66CC000099CC003399CC006699CC009999CC00CC99CC00FF99CC0000CCCC0033CCCC0066CC
310
CC0099CCCC00CCCCCC00FFCCCC0000FFCC0033FFCC0066FFCC0099FFCC00CCFFCC00FFFFCC000000FF003300FF006600FF009900FF00CC00FF00FF00FF000033FF003333FF006633FF009933FF00CC33FF00FF33FF000066FF003366FF006666FF009966FF00CC66FF00FF66FF000099FF003399FF006699FF009999FF00CC
310
99FF00FF99FF0000CCFF0033CCFF0066CCFF0099CCFF00CCCCFF00FFCCFF0000FFFF0033FFFF0066FFFF0099FFFF00CCFFFF00FFFFFF00000000000D0D0D001A1A1A00282828003535350043434300505050005D5D5D006B6B6B00787878008686860093939300A1A1A100AEAEAE00BBBBBB00C9C9C900D6D6D600E4E4E400
310
F1F1F100FFFFFF0000000000000000000000000000000000000000000000000000000000000000000000000000000000E2E2E2E2E2E2E2E2E2E2E2E2E2E2E2E2E2E2E2E2E2E2E2E2E2E2E2E2E2E2E2E2E2E2E2E2E2E2E2E2E2E2E2E2E2E2E2E2E2E2E2E2E2E2E2E2E2E2E2E2E2E2E2E2E2E2E2E2E2E2E2E2E2E2E2E2E2E2E2
310
E2E2E2E2E2E2E2E2E2E2E2E2E2E2E2E2E2E2E20000E2E2E2E2E2E2E2E2E2E2E2E2E2E2E2E2E2E2E2E2E2E2E2E2E2E2E2E2E2E2E2E2E2E2E2E2E2E2E2E2E2E2E2E2E2E2E2E2E2E2E2E2E2E2E2E2E2E2E2E2E2E2E2E2E2E2E2E2E2E2E2E2E2E2E2E2E2E2E2E2E2E2E2E2E2E2E2E2E2E2E2E2E2E2E2E2E2E20000E2E2E2E2E2E2
310
E2E2E2F5F5F5F5F5F5F5F5F5E2E2E2E2E2E2E2E2E2E2E2E2E2E2E2F5F5F5F5F5F5F5F5E2E2E2E2E2E2E2E2E2E2E2E2E2E2E2E2F5F5F5F5F5F5F5F5E2E2E2E2E2E2E2E2E2E2E2E2E2E2E2F5F5F5F5F5F5F5F5F5E2E2E2E2E2E2E2E2E20000E2E2F5F5F5F5F5F5F5F5F5F5F5F5F5F5F5F5F5F5F5F5F5F5F5F5F5F5F5F5F5F5F5
310
F5F5F5F5F5F5F5F5F5F5F5F5F5F5F5F5F5F5F5F5F5F5F5F5F5F5F5F5F5F5F5F5F5F5F5F5F5F5F5F5F5F5F5F5F5F5F5F5F5F5F5F5F5F5F5F5F5F5F5F5F5F5F5E2E20000E2E2F5E2E2E2E2E2E2E2E2E2E2E2E2E2E2E2E2E2E2E2E2E2E2E2E2E2E2E2E2E2E2E2E2E2E2E2E2E2E2E2E2E2E2E2E2E2E2E2E2E2E2E2E2E2E2E2E2E2
310
E2E2E2E2E2E2E2E2E2E2E2E2E2E2E2E2E2E2E2E2E2E2E2E2E2E2E2E2E2E2E2E2E2E2E2E2E2E20000E2E2F5E2E2E2E2E2E2E2E2E2E2E2E2E2E2E2E2E2E2E2E2E2E2E2E2E2E2E2E2E2E2E2E2E2E2E2E2E2E2E2E2E2E2E2E2F5F5F5F5F5F5F5F5F5F5F5F5F5F5F5F5F5F5F5F5F5F5F5F5F5E2E2E2E2E2E2E2E2E2E2E2E2E2E2E2
310
E2E2E2E2E2E2F5F5E2E2E20000E2E2F5E2E2E2E2E2E2E2E2E2E2E2E2E2E2F5F5F5F5F5F5F5F5F5F5F5F5F5F5F5F5F5F5F5F5F5F5F5F5F5F5F5F5F5F5F5F5F5F5F5F5F5F5F5F5F5F5F5F5F5F5F5F5F5F5F5F5F5F5F5E2E2E2E2E2E2E2E2E2E2E2E2E2E2E2E2E2E2E2E2E2F5F5E2E2E20000E2E2F5E2E2E2E2E2E2E2E2E2E2E2
310
E2E2E2F5F5F5F5F5F5F5F5F5F5F5F5F5F5F5F5F5F5F5F5F5F5F5F5F5F5F5F5F5F5F5F5F5F5F5F5F5F5F5F5F5F5F5F5F5F5F5F5F5F5F5F5F5F5F5E2E2E2E2E2E2E2E2E2E2E2E2E2E2E2E2E2E2E2E2E2F5F5E2E2E20000E2E2F5E2E2E2E2E2E2E2E2E2E2E2E2E2E2E2E2E2E2E2E2E2E2E2E2E2F5F5F5F5F5F5F5F5F5F5F5F5F5
310
F5F5F5F5F5F5F5F5F5F5F5F5F5F5F5F5F5F5F5F5F5F5F5F5F5F5F5F5F5F5F5F5F5F5F5F5F5F5F5F5F5F5F5F5F5F5F5F5F5F5F5F5F5F5E2E2E20000E2E2F5E2E2E2E2E2E2E2E2E2E2E2E2E2E2E2E2E2E2E2E2E2E2E2E2E2F5F5F5F5F5F5F5F5F5F5F5F5F5F5F5F5F5F5F5F5F5F5F5F5F5F5F5F5F5F5F5F5F5F5F5F5F5F5F5F5
310
F5F5F5F5F5F5F5F5F5F5F5F5F5F5F5F5F5F5F5F5F5F5F5F5F5F5F5E2E2E20000E2E2F5E2F5F5F5F5F5F5F5F5F5F5F5F5F5F5F5F5F5F5F5F5F5F5F5F5F5F5F5F5F5F5F5F5F5F5F5F5F5F5F5F5F5F5F5F5F5F5F5F5F5F5F5F5F5F5F5F5F5F5F5F5F5F5F5F5F5F5F5F5F5F5F5F5F5F5F5F5F5F5F5E5E2E2E2E2E2E2E2E2E2E2F5
310
E2E2E20000E2F5F5E2F5F5F5F5F5F5F5F5F5F5F5F5F5F5F5F5F5F5F5F5F5F5F5F5F5F5F5F5F5F5F5F5F5F5F5F5F5F5F5F5F5F5F5F5F5F5F5F5F5F5F5F5F5F5F5F5F5F5F5F5F5F5F5F5F5F5F5F5F5F5F5F5F5F5F5F5F5F5F5E2E2E2E2E2E2E2E5E5E2E2F5E2F5E20000E2F5F5E2F5F5F5F5F5F5F5F5F5F5F5F5F5F5F5F5F5F5
310
F5F5F5F5F5F5F5F5F5F5F5F5F5F5F5F5F5F5F5F5F5F5F5F5F5F5F5F5F5F5F5F5F5F5F5F5F5F5F5F5F5F5F5F5F5F5F5F5F5F5F5F5F5F5F5F5F5F5F5F5F5E2E2E2E2F5E5E5F5E5E2E2F5E2F5E20000E2F5F5E2F5F5F5F5F5F5F5F5F5F5F5F5F5F5F5F5F5F5F5F5F5F5F5F5F5F5F5F5F5F5F5F5F5F5F5F5F5F5F5F5F5F5F5F5F5
310
F5F5F5F5F5F5F5F5F5F5F5F5F5F5F5F5F5F5F5F5F5F5F5F5F5F5F5F5F5F5F5F5F5F5E2E2E5E5E5F5F5F5E5E2E2F5E2F5E20000E2F5F5E2F5F5F5F5F5F5F5F5F5F5F5F5F5F5F5F5F5F5F5F5F5F5F5F5F5F5F5F5F5F5F5F5F5F5F5F5F5F5F5F5F5F5F5F5F5F5F5F5F5F5F5F5F5F5F5F5F5F5F5F5F5F5F5F5F5F5F5F5F5F5F5F5
310
F5F5F5F5F5F5F5E2E5E5F5F5F5F5E5E2E2E2F5E2F5E20000E2F5F5E2F5F5F5F5F5F5F5F5F5F5F5F5F5F5F5F5F5F5F5F5F5F5F5F5F5F5F5F5F5F5F5F5F5F5F5F5F5F5F5F5F5F5F5F5F5F5F5F5F5F5F5F5F5F5F5F5F5F5F5F5F5F5F5F5F5F5F5F5F5F5F5F5F5F5F5F5F5F5F5E5E5F5E5F5F5F5E5E2E2E2E2E2F5E20000E2F5F5
310
E2F5F5F5F5F5F5F5F5F5F5F5F5F5F5F5F5F5F5F5F5F5F5F5F5F5F5F5F5F5F5F5F5F5F5F5F5F5F5F5F5F5F5F5F5F5F5F5F5F5F5F5F5F5F5F5F5F5F5F5F5F5F5F5F5F5F5F5F5F5F5F5F5F5F5F5F5F5F5F5E2E2E5E5F5F5E5F5E2E2E2E5E2F5E20000E2F5F5E2F5F5F5F5F5F5F5F5F5F5F5F5F5F5F5F5F5F5F5F5F5F5F5F5F5F5
310
F5F5F5F5F5F5F5F5F5F5F5F5F5F5F5F5F5F5F5F5F5F5F5F5F5F5F5F5F5F5F5F5F5F5F5F5F5F5F5F5F5F5F5F5F5F5F5F5F5F5F5F5F5E2E2F5F5E5E5E5F5E2E2E2E5E2F5E20000E2F5F5E2F5F5F5F5F5F5F5F5F5F5F5F5F5F5F5F5F5F5F5F5F5F5F5F5F5F5F5F5F5F5F5F5F5F5F5F5F5F5F5F5F5F5F5F5F5F5F5F5F5F5F5F5F5
310
F5F5F5F5F5F5F5F5F5F5F5F5F5F5F5F5F5F5F5F5F5F5F5F5F5F5E2E2E2E2E5E5E5E5E2E2E2F5E2F5E20000E2F5F5E2F5F5F5F5F5F5F5F5F5F5F5F5F5F5F5F5F5F5F5F5F5F5F5F5F5F5F5F5F5F5F5F5F5F5F5F5F5F5F5F5F5F5F5F5F5F5F5F5F5F5F5F5F5F5F5F5F5F5F5F5F5F5F5F5F5F5F5F5F5F5F5F5F5F5F5F5F5F5F5E2
310
E2E2E2E2E2E2E2E2E2E2F5E2F5E20000E2F5F5E2F5F5F5F5F5F5F5F5F5F5F5F5F5F5F5F5F5F5F5F5F5F5F5F5F5F5F5F5F5F5F5F5F5F5F5F5F5F5F5F5F5F5F5F5F5F5F5F5F5F5F5F5F5F5F5F5F5F5F5F5F5F5F5F5F5F5F5F5F5F5F5F5F5F5F5F5F5F5F5E2E2E2E2E2E2E2E2E2E2E2F5E2F5E20000E2E2F5E2F5F5F5F5F5F5F5
310
F5F5F5F5F5F5F5F5F5F5F5F5F5F5F5F5F5F5F5F5F5F5F5F5F5F5F5F5F5F5F5F5F5F5F5F5F5F5F5F5F5F5F5F5F5F5F5F5F5F5F5F5F5F5F5F5F5F5F5F5F5F5F5F5F5F5F5F5F5F5F5F5F5F5F5F5F5F5F5E5F5F5F5F5E2E2E20000E2E2F5E2F5F5F5F5F5F5F5F5F5F5F5F5F5F5F5F5F5F5F5F5F5F5F5F5F5F5F5F5F5F5F5F5F5F5
310
F5F5F5F5F5F5F5F5F5F5F5F5F5F5F5F5F5F5F5F5F5F5F5F5F5F5F5F5F5F5F5F5F5F5F5F5F5F5F5F5F5F5F5F5F5F5F5F5F5F5F5F5F5F5F5F5F5E2E2E20000E2E2F5E2F5F5F5F5F5F5F5F5F5F5F5F5F5F5F5F5F5F5F5F5F5F5F5F5F5F5F5F5F5F5F5F5F5F5F5F5F5F5F5F5F5F5F5F5F5F5F5F5F5F5F5F5F5F5F5F5F5F5F5F5F5
310
F5F5F5F5F5F5F5F5F5F5F5F5F5F5F5F5F5F5F5F5F5F5F5F5F5F5F5F5F5F5E2E2E20000E2E2F5E2F5F5F5F5F5F5F5F5F5F5F5F5F5F5F5F5F5F5F5F5F5F5F5F5F5F5F5F5F5F5F5F5F5F5F5F5F5F5F5F5F5F5F5F5F5F5F5F5F5F5F5F5F5F5F5F5F5F5F5F5F5F5F5F5F5F5F5F5F5F5F5F5F5F5F5F5F5F5F5F5F5F5F5F5F5F5F5F5
310
F5F5F5E2E2E20000E2E2F5E2F5F5F5F5F5F5F5F5F5F5F5F5F5F5F5F5F5F5F5F5F5F5F5F5F5F5F5F5F5F5F5F5F5F5F5F5F5F5F5F5F5F5F5F5F5F5F5F5F5F5F5F5F5F5F5F5F5F5F5F5F5F5F5F5F5F5F5F5F5F5F5F5F5F5F5F5F5F5F5F5F5F5F5F5F5F5F5F5F5F5F5E2E2E20000E2E2F5E2F5F5F5F5F5F5F5F5F5F5F5F5F5F5F5
310
F5F5F5F5F5F5F5F5F5F5F5F5F5F5F5F5F5F5F5F5F5F5F5F5F5F5F5F5F5F5F5F5F5F5F5F5F5F5F5F5F5F5F5F5F5F5F5F5F5F5F5F5F5F5F5F5F5F5F5F5F5F5F5F5F5F5F5F5F5F5F5F5F5F5F5F5E2E2E20000E2E2F5E2F5F5F5F5F5F5F5F5F5F5F5F5F5F5F5F5F5F5F5F5F5F5F5F5F5F5F5F5F5F5F5F5F5F5F5F5F5F5F5F5F5F5
310
F5F5F5F5F5F5F5F5F5F5F5F5F5F5F5F5F5F5F5F5F5F5F5F5F5F5F5F5F5F5F5F5F5F5F5F5F5F5F5F5F5F5F5F5F5F5F5F5F5E2E2E233C2E2E2F5E2F5F5F5F5F5F5F5F5F5F5F5F5F5F5F5F5F5F5F5F5F5F5F5F5F5F5F5F5F5F5F5F5F5F5F5F5F5F5F5F5F5F5F5F5F5F5F5F5F5F5F5F5F5F5F5F5F5F5F5F5F5F5F5F5F5F5F5F5F5
310
F5F5F5F5F5F5F5F5F5F5F5F5F5F5F5F5F5F5F5F5F5F5E2E2E20000E2E2F5E2F5F5F5F5F5E2E2E2E2E2E2E2E2F5F5F5F5F5F5F5F5F5F5F5F5F5F5F5F5F5F5F5F5F5F5F5F5F5F5F5F5F5F5F5F5F5F5F5F5F5F5F5F5F5F5F5F5F5F5F5F5F5F5F5F5F5F5F5F5F5F5F5F5F5F5F5F5F5F5F5F5F5F5F5F5F5F5F5F5F5F5E2E2E20000
310
E2E2F5E2F5F5F5F5E2F5F5F5F5F5F5F5E26FF5F5F5F5F5F5F5F5F5F5F5F5F5F5F5F5F5F5F5F5F5F5F5F5F5F5F5F5F5F5F5F56F6F6FF56F6F6F6F6FF5F5F5F5F5F5F5F5F5F5F5F5F5F5F5F5F5F5F5F5F5F5F5F5F5F5F5F5F5F5F5F5F5F5F5F5E2E2E20000E2E2F5E2F5F5F5E2F5F5F5F5F5F5F5F5F56F6FF5F5F5F5F5F5F5F5
310
F5F5F5F5F5F5F5F5F5F5F5F5F5F5F5F5F5F5F5F5F5F5F56F6F6FF56F6F6F6F6FF5F5F5F5F5F5F5F5F5F5F5F5F5F5F5F5F5F5F5F5F5F5F5E2E2E2E2E2E2E2F5F5F5F5F5F5E2E2E20000E2E2F5E2F5F5E2F5F5F5F5F5F5F5F5F5BEBE6FE2F5F5F5F5F5F5F5F5F5F5F5F5F5F5F5F5F5F5F5F5F5F5F5F5F5F5F5F5F5BE6F6F6FF5
310
6F6F6F6F6FBEF5F5F5F5F5F5F5F5F5F5F5F5F5F5F5F5F5F5F5F5E2E2F5F5F5F5F5F5F5E2F5F5F5F5F5E2E2E23B22E2E2F5E2F5E2F5F5F5F5F5F53A3A3ABEBEBE6FF5E2F5F5F5F5F5F5F5F5F5F5F5F5F5F5F5F5BEBEBEBEF5F5F5F53A3A3ABEBE6F6F6FF56F6F6F6F6FBEBE3A3AF5F5F5F5F5F5F5F5F5F5F5F5F5F5F5F5BEE2
310
BEBE3AF5F5F5F5F5F5E2F5F5F5F5E2E2E23B22E2E2F5E2F5E2F5F5F5F53A3AF53A3A3ABEBE6FF5E2F5F5F5F5F5F5F5F5F5F5F5F5F5F5F5F5BEF5F5F5F5F53A3A3AECF53ABE6F6F6FF56F6F6F6F6FBE3AF53A3A3A3AF5F5F5F5F5F5F5F5F5F5F5F56FE2BEBEF53A3A3AF5F5F5F5F5E2F5F5F5E2E2E2696CE2E2F5E2F5E2F5F5
310
F53A3AF53AF53A3A3A3A6F6F6FF5F5F5F5F5F5F5F5F5F5F5F5F5F5F5F5BEF5F5F53A3AF53A3AEC3A3A3A6F6F6F6F6F6F6F6F6F3A3A3AF53AF53A3A3A3AF5F5F5F5F5F5F5F5F56F6FBEBE3AF53A3A3AF5F5F5F5F5E2F5F5E2E2E22250E2E2F5E2E2F5F5F53A3AF53AF53A3AF5F53A6FF5E2F5F5F5F5F5F5F5F5F5F5F5F5F5F5
310
F5F5BEF5F53ABEBEBE3AF5ECF5E2E26F6F6FF5F5F56F6F6FF53AF53AF53AF53AF53A3A3AF5F5F5F5F5F56F6F6FF53AF53AF53A3A3AF5F5F5F5E2F5F5E2E2E26368E2E2F5E2E2F5F53A3A3A3AF53A3AF5F5F53A6FF5E2F5F5F5F5F5F5F5F5F5F5F5F5F5F5F5BEBEF5F53ABEBE3AF53AF5E2F5F56F6F6FF5F5F56F6F6F3AF53A
310
3A3ABE3AF53AF53A3A3AF5F5F5F5F56F6F6F3AF53AF53AF53AF53A3AF5F5F5E2F5E2E2E2223BE2F5F5E2F5E2F53A3AF5F53A3AF5F5F53A3A6FF5E2F5F5F5F5F5F5F5F5F5F5F5F5F5F5F5BEBEF5F53A3AF5F53AF5ECE2F53A6F6F6FF5F5F56F6F6F3A3AF53ABEBEBEBE3A3AF53A3AF5F5F5F5F56F6F6FF53AF53AF53A3A3A3A
310
3AF5F5F5E2F5E2F5E2616CE2F5F5E2F5E2F53AF5F53AF53AF5F53A3A3A6FF5E2F5F5F5F5F5F5F5F5F5F5F5F5F5F5F5F5BEF5F53AF5F53A3A3AECE23A3A6F6F6F6F6F6F6F6F6F3A3A3AF5BEBEBEBEBE3A3AF53AF5F5F5F5F56F6F6F3A3A3A3A3AF53A3A3A3AF5F5F5E2F5E2F5E2223BE2F5F5E2F5E2E23AF53AF53AF5F53A3A
310
F53A6F6F6FF5F5F5F5F5F5F5F5F5F5F5F5F5F5F5F5BEF5F53AF53A3AF5F5ECE23AF56FF56F6F6F6F6FF56F3A3A3A3AF53A3A3A3A3A3A3A3AF5F5F5F5F56F6F6F3A3A3A3A3A3AF53A3A3AF5F5F5E2F5E2F5E2223BE2F5F5E2F5F5E23A3AF53AF53A3A3AF5F53AF56FF5F5F5F5F5F5F5F5F5F5F5F5F5F5F5F5F5BEBEF53A3A3A
310
F5F5F5ECE2F5F56FF56F6FF56F6FF56F3A3A3A3A3A3A3A3A3AF53A3A3AF5F5F5F5F56F6F3A3A3A3A3A3A3A3AF53A3AF5F5F5E2F5E2F5E26B40E2F5F5E2F5F5F53AF53AF53A3AF5F5F53A3A3AF5F5F5F5F5F5F5F5F5F5F5F5F5F5F5F5F5F5BEBEBEBE3AF5F5F53AECE2F53A3A6F6F6F6FEC6F6F6F3A3AEC3A3A3A3A3A3A3A3A
310
3A3AF5F5F5F5F5E26F3A3A3A3A3A3A3A3A3A3A3AF5F5E2F5F5E2F5E20000E2F5F5E2F5F5F5E2E2F53A3AF5F53A3A3A3AF5F5F5F5F5F5F5F5F5F5F5F5F5F5F5F5F5F5F5F5F5F53AF5F53A3A3AECE23A3A3AF53A3A3AEC3A3AF5F53AEC3AF5F53A3A3A3AF53A3AF5F5F5F5F5F5E23A3A3AF53A3A3A3A3A3A3AF5E2F5F5F5E2F5
310
E20200E2F5F5E2F5F5F5F5F5E2E2E2E2E2E2E2E2F5F5F5F5F5F5F5F5F5F5F5F5F5F5F5F5F5F5F5F5F5F5F53AF53A3A3AF5ECE23AF53AF5F53A3AECF53A3AF5F5EC3A3A3AF5F53AF53AF53A3AF5F5F5F5F5F5E2F53A3AF53A3AF5F53A3A3AE2F5F5F5E2F5E22F06E2F5F5E2F5F5F5F5F5E2E2F5F5F5F53A3AF5F5F5F5F5F5F5
310
F5F5F5F5F5F5F5F5F5F5F5F5F5F5F5F53A3A3AF5F5F5ECE2F53A3A3A3AF53AEC3AF53A3A3AEC3AF53AF53AF53AF5F53A3AF5F5F5F5F5F5F5E2F5F53A3AF5F5F53AE2E2F5F5F5F5E2F5E20000E2F5F5E2F5F5F5E2E2F5F5F50F0F0F3A3AE2F5F5F5F5F5F5F5F5F5F5F5F5F5F5F5F5F5F5F5F5F5F53A3AF5F5F53AECE2F53A3A
310
3AF53AF5ECF53AF5F53AEC3A3AF53AF53AF5F53A3A3AF5F5F5F5F5F5F5F5E2E2E2F5F5F5E2E2E2F5F5F5F5F5E2F5E20000E2F5F5E2F5F5E2E2F5F50F0FF50F0F3AF5F53A3AF5F5F5F5F5F5F5F5F5F5F5F5F5F5F5F5F5F5F5F53AF5F53A3A3AECE23A3A3AF53ABEBEBEBEBEBEF5F5EC3AF5F53A3AF5F53A3AF53AF5F5F5F5F5
310
F5F5F5F5E2E2E2E2E2E2E2F5F5F5F5F5F5E2F5E20000E2E2F5E2F5F5E2F5F50F0FF50FF50F3AF53A3AE2F5F5F5F5F5F5F5F5F5F5F5F5F5F5F5F5F5F5F5F53AF53AF53AF5ECE23AF53AF5F5BEBEECBEBEBE3AF5EC3AF53A3AF5F53A3AF5F53AF5F5F5F5F5F5F5F5F5E2E2E2E2E2E2E2F5F5F5F5F5F5E2E2E20000E2E2F5E2F5
310
E2F5F50F0FF50FF50F0F3A3A3AF5F53AF5F5F5F5F5F5F5F5F5F5F5F5F5F5F5F5F5F5F53A3AF53AF5F5ECE2F53A3A3ABEBEBEF5BEBEBEF53AF53A3A3AF5F53A3AF5F53A3AF5F5F5F5F5E2E2E2E2E2E2E2E2E2E2E2E2E2E2E2F5F5E2E2E20000E2E2F5E2F5E2F50F0FF50FF50FF5F53A3AF53A3A3AF5F5F5F5F5F5F5F5F5BEBE
310
BEF5F5F5F5F50F0F3AF53AF5F53AECE2F53A3AF53AF5F5EC3AF5F53AF5EC3A3AF5F53A3AF5F53A3A3AF5F5F5F5F5E2E2E2E2E2E2E2E2E2E2E2E2E2E2E2F5F5E2E2E20000E2E2F5E2F5E2F50FF50FF50FF50FF53A3A3A3A3AE2F5F5F5F5F5F5F5F5BEBEF5F5F5F5F50F0FECF53A3AF53A3A3AECE23A3A3A3A3A3AF5EC3A3AF5
310
F53AEC3AF5F53A3AF5F53A3AF53AF5F5F5F5F5E2E2E2E2E2E2E2E2E2E2E2E2E2F5F5F5F5E2E2E20000E2E2F5E2E2F5F50F0FF50FF50FF50F0FF5F5F5F5E2F5F5F5F5F5F5F5F5BEBEF5F50F0F0FF5F5EC0F3AF53AF53AF5ECE23AF53AC3C33A3AECF53A3AF5F5EC3AF53A3AF5F53A3AF5F53AF5F5F5F5F5F5E2E2E2E2E2E2E2
310
E2E2E2E2E2F5F5F5F5E2E2E20000E2E2F5E2E2F5F50FF50FF50FF50F0F0F0F0F0F0F0FF5F5F5F5F5F5F5F5BEBEBEF50FF50F0FF5EC0F3A3AF53AF5F5ECE2F5F5C3C3C3F53AEC3AF53A3A3AEC3A3A3AF5F53A3AF5F53A3AF5F5F5F5F5F5F5F5F5F5F5F5F5F5F5F5F5F5F5F5F5F5E2E2E20000E2E2F5E2F5E2F50FF5F50FF50F
310
F50F0FF50FF50FE2F5F5F5F5F5F5F5F5F5BEF5F50FF5F50F0FF5F53AF53AF53A3AECE2F53A3AC3C33AF5ECF53AF53AF5EC3A3AF5F53A3AF5F53A3A3AF5F5F5F5F5F5F5F5F5F5F5F5F5F5F5F5F5F5F5F5F5F5E2E2E20000E2E2F5E2F5E2F50F0FF5F50F0FF5F50F0F0F0FF50FF5F5F5F5F5F5F5F5F5F5F5F50F0FF5F50FECF5
310
3A3A3A3A3ABEBE3A3A3AC3C3C33A3AEC3A3A3A3A3AEC3AF5F53A3AF5F53A3AF53AF5F5F5F5F5F5F5F5F5F5F5F5F5F5F5F5F5F5F5F5F5F5E2E2E20000E2E2F5E2F5F5E20F0F0FF5F50F0FF5F50F0F0F0FF5F5F5F5F5F5F5F5F5F5F5F5F50F0F0FF5F5EC0F0FF5F5F5BEBEBEF5F5F5C3C3C3C33A3AF5F5F5F5F53A3AF53A3AF5
310
F53A3AF5F53AF5F5F5F5F5F5F5F5F5F5F5F5F5F5F5F5F5F5F5F5F5F5E2E2E27301E2E2F5E2F5F5E20FF50F0FF5F50F0FF5F50FF5E2F5F5F5F5F5F5F5F5F5F5F5F5F50FF50F0FF5EC0F0F0F0F0F0FBEBE0FEC0FC3C3C3C33A3AF5F5BEBEF53A3A3A3AF5F53A3AF5F53A3AF5F5F5F5F5F5F5F5F5F5F5F5F5F5F5F5F5F5F5F5F5
310
F5E2E2E2FB7EE2E2F5E2F5F5F5E2E2F50F0FF5F50F0FF50FE2F5F5F5F5F5F5F5F5F5F5F5F5F5F50FF5F50F0FECF50F0FF50F0FBE0FF5ECF5C3F5C3C3F53AF5F5BEBEF53A3A3ABEF53A3AF5F53ABE3AF5F5F5F5F5F5F5F5F5F5E23AE23AE2F5F5F5F5F5F5F5E2E2E20000E2E2F5E2F5F5F5F5E2E2F50F0FF5F50FE2F5F5F5F5
310
F5F5F5F5F5F5F5F5F5F5F5F50F0FF5F50FECF5F50F0F0FF50FF50FEC0FC3C3C3C33A3AF5BEBEBEF53A3AF5BEBEBEBEBEBEBEBEBEF5F5F5F5F5F5F5F53AE23AF53AF53A3AE2F5F5F5F5F5E2E2E20000E2E2F5E2F5F5F5F5F5F5E2E2E2E2E2E2F5F5F5F5F5F5F5F5F5F5F5F5F5F5F5F5F50F0F0FF5F5EC0FF5F50F0F0FF50FF5
310
ECF5C3C3C3C33A3AF5F5F5BEF53A3AF53A3AF5BEBEBEF5F53AF5F5F5F5F5F5F53AF53AF53AF53AF53AE2E2F5F5F5F5E2E2E20000E2E2F5E2F5F5E2E2E2E2E2E2E2F5E2E2E2E2E2E2E2F5F5F5F5F5F5F5F5F5F5F5F50FF50F0FF5EC0F0FF5F50FF50FF50FEC0FC3C3C3C33AF5F5F5BEBEF5F53A3A3AF5F53AF53AF53A3AF5F5
310
F5F5F5F53A3A3AF53AF53AF5F53AF5F5E2F5F5F5E2E2E25940E2E2F5E2F5F5E2E2E2E2E2E2E2F5E2E2E2E2E2E2E2F5F5F5F5F5F5F5F5F5F5F5F50FF5F50F0FECF50F0FF50F0FF50FF5ECF50FF5F5F5F5F5F5F5F5BEF5F5F5F53AF5C33A3AF53AF53AF5F5F5F5F5E2F53AF53AF53AF5F53A3AF5F5E2E2F5F5E2E2E20000E2E2
310
F5E2F5F5E2E2E2E2F5E2F5F5E2E2F5E2E2F5E2F5F5F5F5F5F5F5F5F5F5F5F50F0FF5F50FECF5F50F0F0FF50FF50FEC0F0FF5F5F5F5F5F5BEBEBEF5F5F5F53A3AC3C3F53AF53A3AF5F5F5F5E2F5F53A3AF53AF5F53A3A3AF5F5F5E2F5F5E2E2E24940E2E2F5E2F5F5F5F5F5F5F5F5F5F5F5F5F5F5F5F5F5F5F5F5F5F5F5F5F5
310
F5F5F5F50F0F0FF5F5EC0FF5F50F0F0FF50FF5ECF50FF5F5F5F5F5F5BEBEBEF5F5F5F53AF5C3C33A3A3AF53AF5F5F5F5E2F5F53AF53AF5F53AF53A3AF5F5F5F5E2F5E2E2E20000E2F5F5E2F5F5F5F5F5F5F5F5F5F5F5F5F5F5F5F5F5F5F5F5F5F5F5F5F5F5F5F5F50FF50F0FF5EC0F0FF5F50FF50FF50FEC0F0FF5F5F5F5F5
310
F5F5F5BEF5F5F5F5C3C3C3C33AF5F53A3AF5F5F5F5E2F5F53A3AF5F53ABEBEBE3AF5F5F5F5E2F5E2F5E26340E2F5F5E2F5F5F5F5F5E2E2E2E2E2E2E2E2F5F5F5F5F5F5F5F5F5F5F5F5F5F5F5F50FF5F50F0FECF50F0FF50F0FF5F50FECF50F0F0FEC0F0F0F0FBEBE0F0F0F0F0FC3C3C3F5F53AF53AF5F5F5F50F0F0F3AF5F5
310
3A3ABEBEBE3AF5F5F5F5E2F5E2F5E20000E2F5F5E2F5F5F5F5E2F5F5F5F5F5F5F5E26FF5F5F5F5F5F5F5F5F5F5F5F5F5F5F50F0FF5F50FECF5F50F0F0FF5F50F0FEC0FF50FF5EC0F0FF5F5BE0FF5F50F0F0FC3C3C3F53AF53A3AF5F5F5F5E20FF53AF53A3AF5BEBEBE3AF5F5F5F5E2F5E2F5E20000E2F5F5E2F5F5F5E2F5F5
310
F5F5F5F5F5F5F56F6FF5F5F5F5F5F5F5F5F5F5F5F5F5F50F0F0FF5F5EC0FF5F50F0FF50F0FF5ECF50FF5F5EC0FF50FF5F50F0FF5F50FC3C3C3C33A3A3AF53AF5F5F5F5E2F50F3A3A3AF5F5BEBEBE3AF5F5F5F5E2F5E2F5E20000E2F5F5E2F5F5E2F5F5F5F5F5F5F5F5F5BEBE6FE2F5F5F5F5F5F5F5F5F5F5F5F5F50FF50F0F
310
F5F50F0FF5F50F0F0FF5F5EC0FF5F50FEC0F0FF50FF5F50F0FF50FC3C3C3C33ABEBE3AF5F5F5F5F5E2F5F53A3A3A3A3A3A3A3AF5F5F5F5E2F5F5E2F5E20000E2F5F5E2F5E2F5F5F5F5F5F5F53A3ABEBEBE6FF5E2F5F5F5F5F5F5F5F5F5F5F5F50FF5F50F0FECF50F0FF50F0FF5F50F0FF5F50F0FF50FF50FF50FF5F50F0FF5
310
0FF5F5F5F5BEF5F5F5F5F5F5F5F50FF50FF5F5F5F5F5F5F5F5F5F5E2E2F5F5E2F5E20000E2F5F5E2F5E2F5F5F5F53A3A3A3A3A3ABEBE6FF5E2F5F5F5F5F5F5F5F5F5F5F5F50F0FF5F50FECF5F50F0F0FF5F50F0FECF50F0FF5EC0FF5F50FF50FF50FF50F0FF5F5F5F5BEF5F5F5F5F5F5F5F5F50F0FF5F5F5F5F5F5F5F5F5F5
310
E2F5F5F5E2F5E20000E2F5F5E2F5E2F5F5F53A3AF53A3AF53A3A3A6F6F6FF5F5F5F5F5F5F5F5F5F5F5F50FF50FF5F5EC0FF5F50F0FF50F0FBEEC0F0FF50FEC0F0FF5F50F0FF5F50FF50FF5F5F5F5BEF5F5F5F5F5F5F5F5F5F50FF5F5F5F5F5F5F5F5E2E2F5F5F5F5E2F5E20000E2F5F5E2E2F5F5F5F5BEBEBE3AF53A3AF53A
310
6FF5E2F5F5F5F5F5F5F5F5F5F5F5F50F0FF50FF5ECF50FF5F50F0FBEBEBEBEBEBEBEF5EC0F0F0FF5F50F0FF5F50F0FF5F5F5F5BEF5F5F5F5F5F5F5F5F5F5F5E2E2F5F5F5F5F5E2E2F5F5F5F5F5E2F5E2322EE2E2F5E2E2F5F5F53ABEBEBEF53A3AF5F53A6FF5E2F5F5F5F5F5F5F5F5F5F5F5F50FF50FF50FEC0FF50FF50F0F
310
F5BEBEBEBEBEBE0FEC0FF50F0FF5F50F0FF5F50FF5F5F5F5BEF5F5F5F5F5F5F5F5F5F5F5F5E2E2E2E2E2E2F5F5F5F5E2F5F5E2E2E2616DE2E2F5E2F5E2F53A3A3AF5F53A3AF5F5F53A6FF5E2F5F5F5F5F5F5F5F5F5F5F5F50F0FF50FF5ECF50FF50F0FF5BEBEBEECBEBEBEF5EC0FF5F50F0FF5F50F0FF50FF5F5F5F5BEF5F5
310
F5F5F5F5F5E2E2E2E2E2E2E2E2E2E2E2E2E2E2E2E2F5F5E2E2E25072E2E2F5E2F5E2F53A3AF5F5F53AF5F5F53A3A6FF5E2F5F5F5F5F5F5F5F5F5F5F5F50FF50FF50FEC0FF50FF50FF50F0FF5EC0FF50FF5EC0F0FF5F50F0FF5F50F0F0FF5F5F5F5BEF5F5F5F5F5F5F5E2E2E2E2E2E2E2E2E2E2E2E2E2E2E2E2E2F5E2E2E26E
310
67E2E2F5E2F5E2E23AF5F5F53AF5F5F53A3A3A6F6F6FF5F5F5F5F5F5F5F5F5F5F5F50F0FF50FF50FF50FF50F0F0F0FF5F5ECF50FF50FEC0F0F0FF5F50F0FF5F50F0FF5F5F5BEBEF5F5F5F5F5F5F5F5F5E2E2E2E2E2E2E2E2E2E2E2E2F5F5F5F5E2E2E27420E2E2F5E2F5F5E23AF5F53AF5F53A3A3AF53A3A6FF5F5F5F5F5F5
310
F5F5F5F5F5F5F50FF50FF50FEC0FF50FF50F0FF5F50FF50FF50FF50F0FF50F0FF5F50F0FF5F50FF5F5F5BEBEF5F5F5F5F5F5F5F5F5E2E2E2E2E2E2E2E2E2E2E2E2F5F5F5F5E2E2E22222E2E2F5E2F5F5F53AF53AF5F53AF53AF53A3AE2F5F5F5F5F5F5F5F5F5F5F5F5F5F50F0F0FF50FECF50FF50F0FF5F50FF5ECF50FF50F
310
EC0FF5F50F0FF5F50F0FF50FF5F5F5F5BEF5F5F5F5F5F5F5F5F5F5F5E2F5F5F5E2F5E2F5F5F5F5F5F5F5E2E2E25C49E2E2F5E2F5F5F5E2E2F5F53AF53AF53AF5E2F5F5F5F5F5F5F5F5F5F5F5F5F5F5F50FF50F0FF5ECF5F50FF50FF50F0F0FEC0FF50FF5EC0F0FF5F50F0FF5F50F0F0FF5F5F5F5BEF5F5F5F5F5F5F5F5F5F5
310
F5F5F5F5F5F5F5F5F5F5F5F5F5F5F5E2E2E26822E2E2F5E2F5F5F5F5F5E2E2E2E2E2E2E2E2F5F5F5F5F5F5F5F5F5F5F5F5F5F5F5F50F0F0FF50FEC0FF5F50F0F0F0FF5F5ECF50FF5F5EC0F0F0FF5F50F0FF5F50F0FF5F5F5F5BEF5F5F5F5F5F5F5F5F5F5F5F5F5F5F5F5F5F5F5F5F5F5F5F5F5E2E2E22222E2E2F5E2F5F5F5
310
F5E2E2E2F5F5F5F5E23A3AF5F5F5F5F5F5F5F5F5F5F5F5F5F5F50FF50F0FF55E5E5E5E5E5E0FF5F50F5E5E5E5E5E5E0FF50F0FF5F50F0FF5F50FF5F5F5F5BEF5F5F5F5F5F5F5F5F5F5F5F5F5F5F5F5F5F5F5F5F5F5F5F5F5E2E2E20000E2E2F5E2F5F5F5E2F5F5F5F5F50F0F3A3AE2F5F5F5F5F5F5F5F5F5F5F5F5F5F5F50F
310
F5F50F0F5EF55EF55E5EF5F50FF55EF55EF55E5E0FF5F50F0FF5F50F0FF50FF5F5F5F5BEF5F5F5F5F5F5F5F5F5F5F5F5F5F5F5F5F5F5F5F5F5F5F5F5F5E2E2E20000E2E2F5E2F5F5E2E2F5F50F0F0FF50F3AF5F53A3AF5F5F5F5F5F5F5F5F5F5F5F5F50F0FF5F50F5E5EF55EF55EF50FF50F5E5EF55EF55E0F0FF5F50F0FF5
310
F50F0F0FF5F5F5F5BEF5F5F5F5F5F5F5F5F5F5F5F5F5F5F5F5F5F5F5F5F5F5F5F5F5E2E2E28132E2E2F5E2F5F5E2F5F50F0FF50F0FF50FF53A3AE2F5F5F5F5F5F5F5F5F5F5F5F5F50F0F0FF5F55EF55EF5F55E0F0F0FF55EF55EF55E5E0F0F0FF5F50F0FF5F50F0FF5F5F5F5BEF5F5F5F5F5F5F5F5F5F5F5F5F5F5F5F5F5F5
310
F5F5F5F5F5F5F5E2E2E20000E2E2F5E2F5E2F5F50F0F0FF5F50F0F0F3A3AF5F53AF5F5F5F5F5F5F5F5F5F5F5F55E5E5E5E5E5E5EF5F55E5E0F0F0F5E5E5EF55EF55E5E5E5E5E5E5E5E5E5E5E5EF5BEBEBEBEBEF5F5F5F5F5F5F5F5F5F5F5F5F5F5F5F5F5F5F5F5F5F5F5F5E2E2E20000E2E2F5E2F5E2F5F50F0FF50FF5F50F
310
3A3AF5F53A3AF5F5F5F5F5F5F5F5F5F5F5F55E5EF55EF55EF5F55E5E5E5E5E5E5E5EF55EF55EF55E5EF55EF55EF55EF55E5EF5F5F5F5BEF5F5F5F5F5F5F5F5F5F5F5F5F5F5F5F5F5F5F5F5F5F5F5F5F5E2E2E20000E2E2F5E2F5E2F50FF5F50FF50FF5F53A3A3A3A3AE2F5F5F5F5F5F5F5F5F5F5F5F55EF55EF55EF5F55E5E
310
F55EBEBEF5F5F5BEF5F5BEBE5EF55EF55EF55EF55EF55EF5F5F5F5BEF5F5F5F5F5F5F5F5F5F5F5F5F5F5F5F5F5F5F5F5F5F5F5F5F5E2E2E20000E2E2F5E2E2F5F50F0FF5F50FF50FF50FF5F5F5F5E2F5F5F5F5F5F5F5F5F5F5F5F55EF55E5EF5F55E5EF5F55EBEBEBEBEBEBEBEBEBEBE5E5EF55EF55EF55EF55E5EF5F5F5F5
310
BEF5F5F5F5F5F5F5F5F5F5F5F5F5F5F5F5F5F5F5F5F5F5F5F5F5E2E2E20000E2E2F5E2E2F5F50F0F0FF5F50F0FF50F0F0F0F0F0FF5F5F5F5F5F5F5F5F5F5F5F55E5E5EF5F55E5EF5F55E5EBEBEBEBEBEF5BEBEBEBE5EF55EF55EF55EF55EF55EF5F5BEBEBEF5F5F5F5F5F5F5F5F5F5F5F5F5F5F5F5F5F5F5F5F5F5F5F5F5E2
310
E2E20000E2F5F5E2F5E2F50FF50F0FF5F50F0FF5F50FF50FE2F5F5F5F5F5F5F5F5F5F5F5F55E5EF5F55E5EF5F55E5E5EBEBEF5F5BEF5BEF5BEBE5E5EF55EF55EF55EF55E5EF5F5BEBEBEF5F5F5F5F5F5F5F5F5F5F5F5F5F5F5F5F5F5F5F5F5F5F5F5F5E2F5E20000E2F5F5E2F5E2F50FF5F50F0F0FF50F0FF50F0FF50FF5F5
310
F5F5F5F5F5F5F5F5F5F55EF5F55E5EF5F55E5EF55EF5F5BEBEBEF5BEBEBE5E5EF55EF55EF55EF55EF55EF5F5BEBEBEF5F5F5F5F5F5F5F5F5F5F5F5F5F5F5F5F5F5F5F5F5F5F5F5F5E2F5E20000E2F5F5E2F5F5E20F0FF5F50FF50FF50F0F0F0F0FF5F5F5F5F5F5F5F5F5F5F5F5F55EF55E5EF5F55E5EF5F55EF5F5BEBEBEBE
310
BEBEBEF55E5EF55EF55EF55EF5F55EF5F5BEBEBEF5F5F5F5F5F5F5F5F5F5F5F5F5F5F5F5F5F5F5F5F5F5F5F5F5E2F5E20000E2F5F5E2F5F5E20F0F0FF5F50FF50FF50F0FF5E2F5F5F5F5F5F5F5F5F5F5F5F5F55E5E5EF5F55E5EF55E5E5E5EF5BEBEBEBEBEBEF55E5EF55EF55EF55EF5F55E5EF5F5BEBEBEF5F5F5F5F5F5F5
310
F5F5F5F5F5F5F5F5F5F5F5F5F5F5F5F5F5F5E2F5E20000E2F5F5E2F5F5F50FE20F0FF5F50FF50FF50FE2F5F5F5F5F5F5F5F5F5F5F5F5F5F55E5EF5F55E5E5E5EBE5E5E5E5EF5F55E5E5E5E5E5E5E5EF55EF55EF5F55E5E5EF5F5BEBEBEF5F5F5F5F5F5F5F5F5F5F5F5F5F5F5F5F5F5F5F5F5F5F5F5F5E2F5E20000E2F5F5E2
310
F5F5F5F5E2E20F0FF5F50FF5E2F5F5F5F5F5F5F5F5F5F5F5F5F5F5F5F55EF5F55E5E5E5EBEBE5E5EF55E5EF55E5E5E5E5E5E5EF55EF55EF5F55E5EF55EF5BEBEBEBEF5F5F5F5F5F5F5F5F5F5F5F5F5F5F5F5F5F5F5F5F5F5F5F5F5E2F5E20000E2F5F5E2F5F5F5F5F5F5E2E2E2E2E2E2F5F5F5F5F5F5F5F5F5F5F5F5F5F5F5
310
F5F55EF55E5EF55E5EF5BE5E5EF5F55E5E5E5EF5F55E5E5E5EF55EF5F55E5EF5F55EF5F5F5F5BEF5F5F5F5F5F5F5F5F5F5F5F5F5F5F5F5F5F5F5F5F5F5F5F5F5E2F5E20000E2F5F5E2F5F5E2E2E2E2E2E2E2F5E2E2E2E2E2E2E2F5F5F5F5F5F5F5F5F5F5F5F55E5E5EF5F55EBEBEBEF55E5EF5F55E5EF5F55EF55E5EF55EF5
310
F55E5EF5F55E5EF5F5F5F5BEF5F5F5F5F5F5F5F5F5F5F5F5F5F5F5F5F5F5F5F5F5F5F5F5F5E2F5E240CEE2F5F5E2F5F5E2E2E2E2E2E2E2F5E2E2E2E2E2E2E2F5F5F5F5F5F5F5F5F5F5F5F55E5EF5F55E5E5EF5BEF55E5E5EF5F55E5E5E5EF55E5E5EF5F55E5EF5F55E5E5EF5F5F5F5BEBEF5F5F5F5F5F5F5F5F5F5F5F5F5F5
310
F5F5F5F5F5F5F5F5F5F5E2F5E26240E2F5F5E2F5F5E2E2E2E2F5E2F5F5E2F5E2E2E2F5F5F5F5F5F5F5F5F5F5F5F5F5F55E5E5E5E5E5EF5BEBE5E5E5E5E5E5E5EF55EF55E5E5E5E5E5E5E5E5E5E5E5E5EF5BEBEBEBEBEF5F5F5F5F5F5F5F5F5F5F5F5F5F5F5F5F5F5F5F5F5F5F5F5E2F5E20000E2E2F5E2F5F5F5F5F5F5F5F5
310
F5F5F5F5F5F5F5F5F5F5F5F5F5F5F5F5F5F5F5F5F55E5EF5F55E5EF5BE5EF55E5EF5F55EF55EF55EF55E5E5EF5F55E5EF5F55E5E5EF5F5F5F5BEF5F5F5F5F5F5F5F5F5F5F5F5F5F5F5F5F5F5F5F5F5F5F5F5F5E2E2E20000E2E2F5E2F5F5F5F5F5F5F5F5F5F5F5F5F5F5F5F5F5F5F5F5F5F5F5F5F5F5F5F5F55E5E5EF5F55E
310
5EF5F55E5EBEBEBEBEBEBEBEBEBEBE5E5E5EF5F55E5EF5F55E5EF5F5F5F5BEF5F5F5F5F5F5F5F5F5F5F5F5F5F5F5F5F5F5F5F5F5F5F5F5F5E2E2E20000E2E2F5E2F5F5F5F5F5F5F5F5F5F5F5F5F5F5F5F5F5F5F5F5F5F5F5F5F5F5F5F5F55EF55E5EF5F55E5E5EF55EBEBEBEBEBEBEBEBEBEBE5EF55E5EF5F55E5EF5F55EF5
310
F5F5F5BEF5F5F5F5F5F5F5F5F5F5F5F5F5F5F5F5F5F5F5F5F5F5F5F5F5E2E2E20000E2E2F5E2F5F5F5F5F5F5F5F5F5F5F5F5F5F5F5F5F5F5F5F5F5F5F5F5F5F5F5F5F55E5EF55E5EF5F55EF55E5EBEBEBEBEBEF5BEBEBEBE5EF5F55E5EF5F55E5EF55EF5F5BEBEBEF5F5F5F5F5F5F5F5F5F5F5F5F5F5F5F5F5F5F5F5F5F5F5
310
F5F5E2E2E228BCE2E2F5E2F5F5F5F5F5F5F5F5F5F5F5F5F5F5F5F5F5F5F5F5F5F5F5F5F5F5F5F5F55EF55EF55E5E5EF55EF55E5EBEF5F5BEF5BEF5BEF55E5EF5F55E5EF5F55E5E5EF5F5BEBEBEF5F5F5F5F5F5F5F5F5F5F5F5F5F5F5F5F5F5F5F5F5F5F5F5F5E2E2E26300E2E2F5E2F5F5F5F5F5F5F5F5F5F5F5F5F5F5F5F5
310
F5F5F5F5F5F5F5F5F5F5F5F5F55E5E5EF5F55EF55EF55E5E5EF5BEBEBEBEBEBEBEF55E5E5EF5F55E5EF5F55E5EF5F5F5BEBEF5F5F5F5F5F5F5F5F5F5F5F5F5F5F5F5F5F5F5F5F5F5F5F5F5E2E2E20000E2E2F5E2F5F5F5F5F5F5F5F5F5F5F5F5F5F5F5F5F5F5F5F5F5F5F5F5F5F5F5F5F55EF55E5EF5F55EF55EF55EF5F5BE
310
BEBEBEBEBEF55E5EF55E5EF5F55E5EF5F55EF5F5BEBEBEF5F5F5F5F5F5F5F5F5F5F5F5F5F5F5F5F5F5F5F5F5F5F5F5F5E2E2E20000E2E2F5E2F5F5F5F5F5F5F5F5F5F5F5F5F5F5F5F5F5F5F5F5F5F5F5F5F5F5F5F5F55EF5F55E5EF5F55EF55E5E5EF5BEBE5EBEBEBE5EF55EF5F55E5EF5F55E5EF55EF5F5BEBEBEF5F5F5F5
310
F5F5F5F5F5F5F5F5F5F5F5F5F5F5F5F5F5F5F5F5F5E2E2E20000E2E2F5E2F5F5F5F5F5F5F5F5F5F5F5F5F5F5F5F5F5F5F5F5F5F5F5F5F5F5F5F5F55E5EF5F55E5E5E5E5E5E5E5E5EF55E5E5E5E5E5E5E5E5EBEBE5E5E5EF55E5E5EF5F5BEBEBEF5F5F5F5F5F5F5F5F5F5F5F5F5F5F5F5F5F5F5F5F5F5F5F5F5E2E2E27E00E2
310
E2F5E2F5F5F5F5F5F5F5F5F5F5F5F5F5F5F5F5F5F5F5F5F5F5F5F5F5F5F5F5BE5E5E5EF5F5BEF5F5F5BE5E5EF5F5BE5EF5F5F5F5BE5E5EBEF55EF5F55EF55E5EF5F5F5BEBEF5F5F5F5F5F5F5F5F5F5F5F5F5F5F5F5F5F5F5F5F5F5F5F5F5E2E2E20000E2E2F5E2F5F5F5F5F5F5F5F5F5F5F5F5F5F5F5F5F5F5F5F5F5F5F5F5
310
F5F5F5F5F5BEBEBEBEBEBEBEBEBEBEBEBEBEBEBEBEBEBEBEBEBEBEBEBE5EF55EF5F55EF55EF5F5F5F5BEF5F5F5F5F5F5F5F5F5F5F5F5F5F5F5F5F5F5F5F5F5F5F5F5F5E2E2E20000E2E2F5E2F5F5F5F5F5F5F5F5F5F5F5F5F5F5F5F5F5F5F5F5F5F5F5F5F5F5F5F5F55EBEBEBEBE5EF5BEBEF55EBEBEBEF55EBEBEBEBE5E5E
310
BEBEF55EF55EF5F55E5EF5F5F5F5BEF5F5F5F5F5F5F5F5F5F5F5F5F5F5F5F5F5F5F5F5F5F5F5F5F5E2E2E20000E2E2F5E2F5F5F5F5F5F5F5F5F5F5F5F5F5F5F5F5F5F5F5F5F5F5F5F5F5F5F5F5F55E5EF55EF55EF5F5F5F55E5E5EF55E5EF5F5F5F55E5E5EBEBEF55EF55EF5F55EF5F5F5F5BEBEF5F5F5F5F5F5F5F5F5F5F5
310
F5F5F5F5F5F5F5F5F5F5F5F5F5E2E2E20000E2E2F5E2F5F5F5F5F5F5F5F5F5F5F5F5F5F5F5F5F5F5F5F5F5F5F5F5F5F5F5F5F55E5E5E5E5E5EF5F5F5F55E5E5E5E5EF5F5F5F5F5F55E5EBE5E5E5E5E5E5E5EF5F5BEBEBEBEBEF5F5F5F5F5F5F5F5F5F5F5F5F5F5F5F5F5F5F5F5F5F5F5F5E2E2E2223BE2E2F5E2F5F5F5F5F5
310
F5F5F5F5F5F5F5F5F5F5F5F5F5F5F5F5F5F5F5F5F5F5F5F5F5F5F5F5F5F5F5F5F5F5F5F5F5F5F5F5F5F5F5F5F5F5F5F5F5F5F5F5F5F5F5F5F5F5F5F5F5F5F5F5F5F5F5F5F5F5F5F5F5F5F5F5F5F5F5F5F5F5F5F5F5F5E2E2E22222E2E2F5E2E2E2E2E2E2E2E2E2E2E2E2E2E2E2E2E2E2E2E2E2E2E2E2E2E2E2E2E2F5F5F5F5
310
F5F5F5F5F5F5F5F5F5F5F5F5F5F5F5F5F5F5F5F5F5F5F5F5F5F5F5F5F5F5F5F5F5F5F5F5F5F5F5F5F5F5F5F5F5F5F5F5F5F5F5F5F5F5F5F5F5F5F5E2E2E22146E2E2F5E2E2E2E2E2E2E2E2E2E2E2E2E2E2E2E2E2E2E2E2E2E2E2E2E2E2E2E2E2F5F5F5F5F5F5F5F5F5F5F5F5F5F5F5F5F5F5F5F5F5F5F5F5F5F5F5F5F5F5F5
310
F5F5F5F5F5F5F5F5F5F5F5F5F5F5F5F5F5F5F5F5F5F5F5F5F5F5F5F5F5F5F5F5E2E2E2706CE2F5F5E2F5F5F5F5F5F5F5F5F5F5F5F5F5F5F5F5F5F5F5F5F5F5F5F5F5F5F5F5F5F5F5F5F5F5F5F5F5F5F5F5F5F5F5F5F5F5F5F5F5F5F5F5F5F5F5F5F5F5F5F5F5F5F5F5F5F5F5F5F5F5F5F5F5F5F5F5F5F5F5F5F5F5F5F5F5F5
310
F5F5F5F5F5E2F5E20000E2F5F5E2F5F5F5F5F5F5F5F5F5F5F5F5F5F5F5F5F5F5F5F5F5F5F5F5F5F5F5F5F5F5F5F5F5F5F5F5F5F5F5F5F5F5F5F5F5F5F5F5F5F5F5F5F5F5F5F5F5F5F5F5F5F5F5F5F5F5F5F5F5F5F5F5F5F5F5F5F5F5F5F5F5F5F5F5F5F5F5F5F5F5F5E2F5E20000E2F5F5E2F5F5F5F5F5F5F5F5F5F5F5F5F5
310
F5F5F5F5F5F5F5F5F5F5F5F5F5F5F5F5F5F5F5F5F5F5F5F5F5F5F5F5F5F5F5F5F5F5F5F5F5F5F5F5F5F5F5F5F5F5F5F5F5F5F5F5F5F5F5F5F5F5F5F5F5F5F5F5F5F5F5F5F5F5F5F5F5F5F5F5F5F5E2F5E20000E2F5F5E2E2E2E2E2E2E2E2E2E2E2E2E2E2E2E2E2E2E2E2E2E2E2E2E2E2F5F5F5F5F5F5F5F5F5F5F5F5F5F5F5
310
F5F5F5F5F5F5F5F5F5F5F5F5F5F5F5F5F5F5F5F5F5F5F5F5F5F5F5F5F5F5F5F5F5F5F5F5F5F5F5F5F5F5F5F5F5F5F5F5F5F5F5E2F5E20000E2F5F5E2E2E2E2E2E2E2E2E2E2E2E2E2E2E2E2E2E2E2E2E2E2E2E2E2E2F5F5F5F5F5F5F5F5F5F5F5F5F5F5F5F5F5F5F5F5F5F5F5F5F5F5F5F5F5F5F5F5F5F5F5F5F5F5F5F5F5F5
310
F5F5F5F5F5F5F5F5F5F5F5F5F5F5F5F5F5F5F5F5F5F5F5F5E2F5E20000E2F5F5E2F5F5F5F5F5F5F5F5F5F5F5F5F5F5F5F5F5F5F5F5F5F5F5F5F5F5F5F5F5F5F5F5F5F5F5F5F5F5F5F5F5F5F5F5F5F5F5F5F5F5F5F5F5F5F5F5F5F5F5F5F5F5F5F5F5F5F5F5F5F5F5F5F5F5F5F5F5F5F5F5F5F5F5F5F5F5F5F5F5F5F5E2F5E2
310
0000E2F5F5E2E2E2E2E2E2E2E2E2E2E2E2E2E2E2E2E2E2E2E2E2E2E2E2F5F5F5F5F5F5F5F5F5F5F5F5F5F5F5F5F5F5F5F5F5F5F5F5F5F5F5F5F5F5F5F5F5F5F5F5F5F5F5F5F5F5F5F5F5F5F5F5F5F5F5F5F5F5F5F5F5F5F5F5F5F5F5F5F5F5F5F5E2F5E20000E2F5F5E2E2E2E2E2E2E2E2E2E2E2E2E2E2E2E2E2E2E2E2E2E2
310
E2E2F5F5F5F5F5F5F5F5F5F5F5F5F5F5F5F5F5F5F5F5F5F5F5F5F5F5F5F5F5F5F5F5F5F5F5F5F5F5F5F5F5F5F5F5F5F5F5F5F5F5F5F5F5F5F5F5F5F5F5F5F5F5F5F5F5F5F5F5E2F5E20000E2F5F5E2F5F5F5F5F5F5F5F5F5F5F5F5F5F5F5F5F5F5F5F5F5F5F5F5F5F5F5F5F5F5F5F5F5F5F5F5F5F5F5F5F5F5F5F5F5F5F5F5
310
F5F5F5F5F5F5F5F5F5F5F5F5F5F5F5F5F5F5F5F5F5F5F5F5F5F5F5F5F5F5F5F5F5F5F5F5F5F5F5F5F5F5F5E2F5E20000E2F5F5E2E2E2E2E2E2E2E2E2E2E2E2E2E2E2E2E2E2E2E2E2E2F5F5F5F5F5F5F5F5F5F5F5F5F5F5F5F5F5F5F5F5F5F5F5F5F5F5F5F5F5F5F5F5F5F5F5F5F5F5F5F5F5F5F5F5F5F5F5F5F5F5F5F5F5F5
310
F5F5F5F5F5F5F5F5F5F5F5F5F5F5F5F5E2F5E20000E2E2F5E2E2E2E2E2E2E2E2E2E2E2E2E2E2E2E2E2E2E2E2E2E2F5F5F5F5F5F5F5F5F5F5F5F5F5F5F5F5F5F5F5F5F5F5F5F5F5F5F5F5F5F5F5F5F5F5F5F5F5F5F5F5F5F5F5F5F5F5F5F5F5F5F5F5F5F5F5F5F5F5F5F5F5F5F5F5F5F5F5F5F5F5E2E2E20000E2E2F5E2E2E2
310
E2E2E2E2E2E2E2E2E2E2E2E2E2E2E2E2E2E2E2F5F5F5F5F5F5F5F5F5F5F5F5F5F5F5F5F5F5F5F5F5F5F5F5F5F5F5F5F5F5F5F5F5F5F5F5F5F5F5F5F5F5F5F5F5F5F5F5F5F5F5F5F5F5F5F5F5F5F5F5F5F5F5F5F5F5F5F5F5F5E2E2E20000E2E2F5E2E2E2E2E2E2E2E2E2E2E2E2E2E2E2E2E2E2E2E2E2E2E2E2E2E2E2E2E2E2
310
E2E2E2E2E2E2E2E2E2E2E2E2E2E2E2E2E2F5F5F5F5F5F5F5F5F5F5F5F5F5F5F5F5F5F5F5F5F5F5F5F5F5F5F5F5F5F5F5F5F5F5F5F5F5F5F5F5F5F5F5F5F5E2E2E20000E2E2F5E2E2E2E2E2E2E2E2E2E2E2E2E2E2E2E2E2E2E2E2E2E2E2E2E2E2E2E2E2E2E2E2E2E2E2E2E2E2E2E2E2E2E2E2E2E2E2F5F5F5F5F5F5F5F5F5F5
310
F5F5F5F5F5F5F5F5F5F5F5F5F5F5F5F5F5F5F5F5F5F5F5F5F5F5F5F5F5F5F5F5F5F5F5E2E2E20000E2E2F5E2E2E2E2E2E2E2E2E2E2E2E2E2E2E2E2E2E2E2E2E2E2E2E2E2E2E2E2E2E2E2E2E2E2E2E2E2E2E2E2E2E2E2E2E2E2E2F5F5F5F5F5F5F5F5F5F5F5F5F5F5F5F5F5F5F5F5F5F5F5F5F5F5F5F5F5F5F5F5F5F5F5F5F5
310
F5F5F5F5F5F5F5F5E2E2E20000E2E2F5E2E2E2E2E2E2E2E2E2E2E2E2E2E2E2E2E2E2E2E2E2E2E2E2E2E2E2E2E2E2E2E2E2E2E2E2E2E2E2E2E2E2E2E2E2E2E2F5F5F5F5F5F5F5F5F5F5F5F5F5F5F5F5F5F5F5F5F5F5F5F5F5F5F5F5F5F5F5F5F5F5F5F5F5F5F5F5F5F5F5F5F5E2E2E20000E2E2F5E2F5F5F5F5F5F5F5F5F5F5
310
F5F5F5F5F5F5F5F5F5F5F5F5F5F5F5F5F5F5F5F5F5F5F5F5F5F5F5F5F5F5F5F5F5F5F5F5F5F5F5F5F5F5F5F5F5F5F5F5F5F5F5F5F5F5F5F5F5F5F5F5F5F5F5F5F5F5F5F5F5F5F5F5F5F5F5F5F5F5F5F5F5E2E2E20000E2E2F5E2E2E2E2E2E2E2E2E2E2E2E2E2E2E2E2E2E2E2E2E2E2E2E2E2E2E2E2E2E2E2E2E2E2E2E2E2E2
310
E2E2E2E2E2E2E2E2E2E2E2E2E2E2E2E2E2E2E2E2E2E2E2E2E2E2E2E2E2E2E2E2E2E2E2E2E2E2E2E2E2E2E2E2E2E2E2E2E2E2E2E2E2E2E2E2E20000E2E2E2E2E2E2E2E2E2F5F5F5F5F5F5F5F5F5E2E2E2E2E2E2E2E2E2E2E2E2E2E2E2F5F5F5F5F5F5F5F5E2E2E2E2E2E2E2E2E2E2E2E2E2E2E2E2F5F5F5F5F5F5F5F5E2E2E2
310
E2E2E2E2E2E2E2E2E2E2E2E2F5F5F5F5F5F5F5F5F5E2E2E2E2E2E2E2E2E20000E2E2E2E2E2E2E2E2E2E2E2E2E2E2E2E2E2E2E2E2E2E2E2E2E2E2E2E2E2E2E2E2E2E2E2E2E2E2E2E2E2E2E2E2E2E2E2E2E2E2E2E2E2E2E2E2E2E2E2E2E2E2E2E2E2E2E2E2E2E2E2E2E2E2E2E2E2E2E2E2E2E2E2E2E2E2E2E2E2E2E2E2E2E2E2
310
E2E2E20000E2E2E2E2E2E2E2E2E2E2E2E2E2E2E2E2E2E2E2E2E2E2E2E2E2E2E2E2E2E2E2E2E2E2E2E2E2E2E2E2E2E2E2E2E2E2E2E2E2E2E2E2E2E2E2E2E2E2E2E2E2E2E2E2E2E2E2E2E2E2E2E2E2E2E2E2E2E2E2E2E2E2E2E2E2E2E2E2E2E2E2E2E2E2E2E2E2E20000EFEFEFEFEFEFEFEFEFEFEFEFEFEFEFEFEFEFEFEFEFEF
310
EFEFEFEFEFEFEFEFEFEFEFEFEFEFEFEFEFEFEFEFEFEFEFEFEFEFEFEFEFEFEFEFEFEFEFEFEFEFEFEFEFEFEFEFEFEFEFEFEFEFEFEFEFEFEFEFEFEFEFEFEFEFEFEFEFEFEFEFEFEFEFEFEFEFEFEF0000
  0
XRECORD
  5
719
102
{ACAD_REACTORS
330
718
102
}
330
718
100
AcDbXrecord
280
     1
102
MATERIAL
148
0.0
149
0.0
149
0.0
 93
        0
 94
       63
282
     0
 72
     1
 77
     1
171
     1
175
     1
179
     1
273
     0
  0
XRECORD
  5
717
102
{ACAD_REACTORS
330
716
102
}
330
716
100
AcDbXrecord
280
     1
102
MATERIAL
148
0.0
149
0.0
149
0.0
 93
        0
 94
       63
282
     0
 72
     1
 77
     1
171
     1
175
     1
179
     1
273
     0
  0
XRECORD
  5
71B
102
{ACAD_REACTORS
330
71A
102
}
330
71A
100
AcDbXrecord
280
     1
102
MATERIAL
148
0.0
149
0.0
149
0.0
 93
        0
 94
       63
282
     0
 72
     1
 77
     1
171
     1
175
     1
179
     1
273
     0
  0
XRECORD
  5
2C33
102
{ACAD_REACTORS
330
2C32
102
}
330
2C32
100
AcDbXrecord
280
     1
102
ACAD_ROUNDTRIP_PRE2007_TABLESTYLE
 90
      512
 91
        0
  1

 92
      512
 93
        0
  2

 94
      512
 95
        0
  3

  0
ENDSEC
  0
EOF
