  0
SECTION
  2
HEADER
  9
$ACADVER
  1
AC1015
  9
$ACADMAINTVER
 70
    20
  9
$DWGCODEPAGE
  3
ANSI_1252
  9
$INSBASE
 10
0.0
 20
0.0
 30
0.0
  9
$EXTMIN
 10
-0.0064082024693448
 20
-0.0090630292066862
 30
-0.0015258207003583
  9
$EXTMAX
 10
210.0064091803581
 20
297.0090644122207
 30
0.0000000349246037
  9
$LIMMIN
 10
0.0
 20
0.0
  9
$LIMMAX
 10
210.0
 20
297.0000000000001
  9
$ORTHOMODE
 70
     1
  9
$REGENMODE
 70
     1
  9
$FILLMODE
 70
     1
  9
$QTEXTMODE
 70
     0
  9
$MIRRTEXT
 70
     0
  9
$LTSCALE
 40
10.0
  9
$ATTMODE
 70
     1
  9
$TEXTSIZE
 40
2.5
  9
$TRACEWID
 40
1.0
  9
$TEXTSTYLE
  7
RomanS
  9
$CLAYER
  8
Bemaßung
  9
$CELTYPE
  6
ByLayer
  9
$CECOLOR
 62
   256
  9
$CELTSCALE
 40
1.0
  9
$DISPSILH
 70
     0
  9
$DIMSCALE
 40
1.0
  9
$DIMASZ
 40
2.5
  9
$DIMEXO
 40
0.625
  9
$DIMDLI
 40
3.75
  9
$DIMRND
 40
0.0
  9
$DIMDLE
 40
0.0
  9
$DIMEXE
 40
1.25
  9
$DIMTP
 40
0.0
  9
$DIMTM
 40
0.0
  9
$DIMTXT
 40
2.5
  9
$DIMCEN
 40
2.5
  9
$DIMTSZ
 40
0.0
  9
$DIMTOL
 70
     0
  9
$DIMLIM
 70
     0
  9
$DIMTIH
 70
     0
  9
$DIMTOH
 70
     0
  9
$DIMSE1
 70
     0
  9
$DIMSE2
 70
     0
  9
$DIMTAD
 70
     1
  9
$DIMZIN
 70
     8
  9
$DIMBLK
  1
Oblique
  9
$DIMASO
 70
     1
  9
$DIMSHO
 70
     1
  9
$DIMPOST
  1

  9
$DIMAPOST
  1

  9
$DIMALT
 70
     0
  9
$DIMALTD
 70
     3
  9
$DIMALTF
 40
0.03937007874016
  9
$DIMLFAC
 40
1.0
  9
$DIMTOFL
 70
     1
  9
$DIMTVP
 40
0.0
  9
$DIMTIX
 70
     0
  9
$DIMSOXD
 70
     0
  9
$DIMSAH
 70
     0
  9
$DIMBLK1
  1

  9
$DIMBLK2
  1

  9
$DIMSTYLE
  2
IDEAL Holz
  9
$DIMCLRD
 70
     0
  9
$DIMCLRE
 70
     0
  9
$DIMCLRT
 70
     0
  9
$DIMTFAC
 40
1.0
  9
$DIMGAP
 40
0.625
  9
$DIMJUST
 70
     0
  9
$DIMSD1
 70
     0
  9
$DIMSD2
 70
     0
  9
$DIMTOLJ
 70
     0
  9
$DIMTZIN
 70
     8
  9
$DIMALTZ
 70
     0
  9
$DIMALTTZ
 70
     0
  9
$DIMUPT
 70
     0
  9
$DIMDEC
 70
     1
  9
$DIMTDEC
 70
     1
  9
$DIMALTU
 70
     2
  9
$DIMALTTD
 70
     3
  9
$DIMTXSTY
  7
RomanS
  9
$DIMAUNIT
 70
     0
  9
$DIMADEC
 70
     0
  9
$DIMALTRND
 40
0.0
  9
$DIMAZIN
 70
     0
  9
$DIMDSEP
 70
    44
  9
$DIMATFIT
 70
     3
  9
$DIMFRAC
 70
     0
  9
$DIMLDRBLK
  1
Oblique
  9
$DIMLUNIT
 70
     2
  9
$DIMLWD
 70
    -2
  9
$DIMLWE
 70
    -2
  9
$DIMTMOVE
 70
     0
  9
$LUNITS
 70
     2
  9
$LUPREC
 70
     4
  9
$SKETCHINC
 40
1.0
  9
$FILLETRAD
 40
3.0
  9
$AUNITS
 70
     0
  9
$AUPREC
 70
     0
  9
$MENU
  1
.
  9
$ELEVATION
 40
0.0
  9
$PELEVATION
 40
0.0
  9
$THICKNESS
 40
0.0
  9
$LIMCHECK
 70
     0
  9
$CHAMFERA
 40
0.0
  9
$CHAMFERB
 40
0.0
  9
$CHAMFERC
 40
0.0
  9
$CHAMFERD
 40
0.0
  9
$SKPOLY
 70
     0
  9
$TDCREATE
 40
2454587.317474965
  9
$TDUCREATE
 40
2454587.275808299
  9
$TDUPDATE
 40
2455980.605120567
  9
$TDUUPDATE
 40
2455980.563453901
  9
$TDINDWG
 40
0.2584918866
  9
$TDUSRTIMER
 40
0.2584636458
  9
$USRTIMER
 70
     1
  9
$ANGBASE
 50
0.0
  9
$ANGDIR
 70
     0
  9
$PDMODE
 70
     0
  9
$PDSIZE
 40
0.0
  9
$PLINEWID
 40
0.0
  9
$SPLFRAME
 70
     0
  9
$SPLINETYPE
 70
     6
  9
$SPLINESEGS
 70
     8
  9
$HANDSEED
  5
31BC
  9
$SURFTAB1
 70
     6
  9
$SURFTAB2
 70
     6
  9
$SURFTYPE
 70
     6
  9
$SURFU
 70
     6
  9
$SURFV
 70
     6
  9
$UCSBASE
  2

  9
$UCSNAME
  2

  9
$UCSORG
 10
0.0
 20
0.0
 30
0.0
  9
$UCSXDIR
 10
1.0
 20
0.0
 30
0.0
  9
$UCSYDIR
 10
0.0
 20
1.0
 30
0.0
  9
$UCSORTHOREF
  2

  9
$UCSORTHOVIEW
 70
     0
  9
$UCSORGTOP
 10
0.0
 20
0.0
 30
0.0
  9
$UCSORGBOTTOM
 10
0.0
 20
0.0
 30
0.0
  9
$UCSORGLEFT
 10
0.0
 20
0.0
 30
0.0
  9
$UCSORGRIGHT
 10
0.0
 20
0.0
 30
0.0
  9
$UCSORGFRONT
 10
0.0
 20
0.0
 30
0.0
  9
$UCSORGBACK
 10
0.0
 20
0.0
 30
0.0
  9
$PUCSBASE
  2

  9
$PUCSNAME
  2

  9
$PUCSORG
 10
0.0
 20
0.0
 30
0.0
  9
$PUCSXDIR
 10
1.0
 20
0.0
 30
0.0
  9
$PUCSYDIR
 10
0.0
 20
1.0
 30
0.0
  9
$PUCSORTHOREF
  2

  9
$PUCSORTHOVIEW
 70
     0
  9
$PUCSORGTOP
 10
0.0
 20
0.0
 30
0.0
  9
$PUCSORGBOTTOM
 10
0.0
 20
0.0
 30
0.0
  9
$PUCSORGLEFT
 10
0.0
 20
0.0
 30
0.0
  9
$PUCSORGRIGHT
 10
0.0
 20
0.0
 30
0.0
  9
$PUCSORGFRONT
 10
0.0
 20
0.0
 30
0.0
  9
$PUCSORGBACK
 10
0.0
 20
0.0
 30
0.0
  9
$USERI1
 70
     0
  9
$USERI2
 70
     0
  9
$USERI3
 70
     0
  9
$USERI4
 70
     0
  9
$USERI5
 70
     0
  9
$USERR1
 40
0.0
  9
$USERR2
 40
0.0
  9
$USERR3
 40
0.0
  9
$USERR4
 40
0.0
  9
$USERR5
 40
0.0
  9
$WORLDVIEW
 70
     1
  9
$SHADEDGE
 70
     3
  9
$SHADEDIF
 70
    70
  9
$TILEMODE
 70
     1
  9
$MAXACTVP
 70
    64
  9
$PINSBASE
 10
0.0
 20
0.0
 30
0.0
  9
$PLIMCHECK
 70
     0
  9
$PEXTMIN
 10
-6.006404489069383
 20
-6.009059718562637
 30
-0.0000000000000053
  9
$PEXTMAX
 10
203.9797374698058
 20
291.0408972925567
 30
0.0000000000000099
  9
$PLIMMIN
 10
-5.999999999999997
 20
-5.999999999999997
  9
$PLIMMAX
 10
203.9733276367186
 20
291.0318298339844
  9
$UNITMODE
 70
     0
  9
$VISRETAIN
 70
     1
  9
$PLINEGEN
 70
     0
  9
$PSLTSCALE
 70
     1
  9
$TREEDEPTH
 70
  3020
  9
$CMLSTYLE
  2
Standard
  9
$CMLJUST
 70
     0
  9
$CMLSCALE
 40
20.0
  9
$PROXYGRAPHICS
 70
     1
  9
$MEASUREMENT
 70
     1
  9
$CELWEIGHT
370
    -1
  9
$ENDCAPS
280
     0
  9
$JOINSTYLE
280
     0
  9
$LWDISPLAY
290
     0
  9
$INSUNITS
 70
     4
  9
$HYPERLINKBASE
  1

  9
$STYLESHEET
  1
GRAYSCALE.CTB
  9
$XEDIT
290
     1
  9
$CEPSNTYPE
380
     0
  9
$PSTYLEMODE
290
     1
  9
$FINGERPRINTGUID
  2
{6CA3B094-A75F-41C3-8665-51827AA2356D}
  9
$VERSIONGUID
  2
{BDEC9CC1-5165-4DCF-BEE1-381C38C67757}
  9
$EXTNAMES
290
     1
  9
$PSVPSCALE
 40
1.0
  9
$OLESTARTUP
290
     0
  0
ENDSEC
  0
SECTION
  2
CLASSES
  0
CLASS
  1
ACDBDICTIONARYWDFLT
  2
AcDbDictionaryWithDefault
  3
ObjectDBX Classes
 90
        0
280
     0
281
     0
  0
CLASS
  1
DICTIONARYVAR
  2
AcDbDictionaryVar
  3
ObjectDBX Classes
 90
        0
280
     0
281
     0
  0
CLASS
  1
TABLESTYLE
  2
AcDbTableStyle
  3
ObjectDBX Classes
 90
     4095
280
     0
281
     0
  0
CLASS
  1
MATERIAL
  2
AcDbMaterial
  3
ObjectDBX Classes
 90
     1153
280
     0
281
     0
  0
CLASS
  1
VISUALSTYLE
  2
AcDbVisualStyle
  3
ObjectDBX Classes
 90
     4095
280
     0
281
     0
  0
CLASS
  1
SORTENTSTABLE
  2
AcDbSortentsTable
  3
ObjectDBX Classes
 90
        0
280
     0
281
     0
  0
CLASS
  1
DIMASSOC
  2
AcDbDimAssoc
  3
"AcDbDimAssoc|Product Desc:     AcDim ARX App For Dimension|Company:          Autodesk, Inc.|WEB Address:      www.autodesk.com"
 90
        0
280
     0
281
     0
  0
CLASS
  1
ACAD_EVALUATION_GRAPH
  2
AcDbEvalGraph
  3
ObjectDBX Classes
 90
    33921
280
     0
281
     0
  0
CLASS
  1
ACAECUSTOBJ
  2
AcAeEditorObj
  3
AcAeEditorObj
 90
    33792
280
     0
281
     0
  0
CLASS
  1
ACDB_DYNAMICBLOCKPURGEPREVENTER_VERSION
  2
AcDbDynamicBlockPurgePreventer
  3
ObjectDBX Classes
 90
    33921
280
     0
281
     0
  0
CLASS
  1
ACDB_BLOCKREPRESENTATION_DATA
  2
AcDbBlockRepresentationData
  3
ObjectDBX Classes
 90
    33921
280
     0
281
     0
  0
CLASS
  1
SCALE
  2
AcDbScale
  3
ObjectDBX Classes
 90
     1153
280
     0
281
     0
  0
CLASS
  1
MLEADERSTYLE
  2
AcDbMLeaderStyle
  3
ACDB_MLEADERSTYLE_CLASS
 90
     4095
280
     0
281
     0
  0
CLASS
  1
CELLSTYLEMAP
  2
AcDbCellStyleMap
  3
ObjectDBX Classes
 90
     1152
280
     0
281
     0
  0
CLASS
  1
ACDBPLACEHOLDER
  2
AcDbPlaceHolder
  3
ObjectDBX Classes
 90
        0
280
     0
281
     0
  0
CLASS
  1
LAYOUT
  2
AcDbLayout
  3
ObjectDBX Classes
 90
        0
280
     0
281
     0
  0
ENDSEC
  0
SECTION
  2
TABLES
  0
TABLE
  2
VPORT
  5
8
330
0
100
AcDbSymbolTable
 70
     1
  0
VPORT
  5
EA
330
8
100
AcDbSymbolTableRecord
100
AcDbViewportTableRecord
  2
*Active
 70
     0
 10
0.0
 20
0.0
 11
1.0
 21
1.0
 12
105.0000004889444
 22
148.500000691507
 13
0.0
 23
0.0
 14
10.0
 24
10.0
 15
10.0
 25
10.0
 16
0.0
 26
0.0
 36
1.0
 17
0.0
 27
0.0
 37
0.0
 40
299.4006257898881
 41
2.203480589022757
 42
50.0
 43
0.0
 44
0.0
 50
0.0
 51
0.0
 71
     0
 72
  1000
 73
     1
 74
     3
 75
     0
 76
     0
 77
     0
 78
     0
281
     0
 65
     1
110
0.0
120
0.0
130
0.0
111
1.0
121
0.0
131
0.0
112
0.0
122
1.0
132
0.0
 79
     0
146
0.0
1001
ACAD_NAV_VCDISPLAY
1070
     3
  0
ENDTAB
  0
TABLE
  2
LTYPE
  5
5
330
0
100
AcDbSymbolTable
 70
     3
  0
LTYPE
  5
14
330
5
100
AcDbSymbolTableRecord
100
AcDbLinetypeTableRecord
  2
ByBlock
 70
     0
  3

 72
    65
 73
     0
 40
0.0
  0
LTYPE
  5
15
330
5
100
AcDbSymbolTableRecord
100
AcDbLinetypeTableRecord
  2
ByLayer
 70
     0
  3

 72
    65
 73
     0
 40
0.0
  0
LTYPE
  5
16
330
5
100
AcDbSymbolTableRecord
100
AcDbLinetypeTableRecord
  2
Continuous
 70
     0
  3
Solid line
 72
    65
 73
     0
 40
0.0
  0
LTYPE
  5
1F66
330
5
100
AcDbSymbolTableRecord
100
AcDbLinetypeTableRecord
  2
STRICHPUNKT
 70
     0
  3
Strichpunkt __ . __ . __ . __ . __ . __ . __ . 
 72
    65
 73
     4
 40
1.0
 49
0.5
 74
     0
 49
-0.25
 74
     0
 49
0.0
 74
     0
 49
-0.25
 74
     0
  0
LTYPE
  5
1F67
330
5
100
AcDbSymbolTableRecord
100
AcDbLinetypeTableRecord
  2
VERDECKT
 70
     0
  3
Verdeckt __ __ __ __ __ __ __ __ __ __ __ __ __
 72
    65
 73
     2
 40
0.375
 49
0.25
 74
     0
 49
-0.125
 74
     0
  0
ENDTAB
  0
TABLE
  2
LAYER
  5
2
102
{ACAD_XDICTIONARY
360
120
102
}
330
0
100
AcDbSymbolTable
 70
    14
  0
LAYER
  5
10
330
2
100
AcDbSymbolTableRecord
100
AcDbLayerTableRecord
  2
0
 70
     0
 62
     7
  6
Continuous
370
    -3
390
F
  0
LAYER
  5
12AC
330
2
100
AcDbSymbolTableRecord
100
AcDbLayerTableRecord
  2
Defpoints
 70
     0
 62
     7
  6
Continuous
290
     0
370
    -3
390
F
  0
LAYER
  5
1D6A
330
2
100
AcDbSymbolTableRecord
100
AcDbLayerTableRecord
  2
Zusatzprofile
 70
     0
 62
    54
  6
Continuous
370
    -3
390
F
1001
AcAecLayerStandard
1000

1000

  0
LAYER
  5
1D6B
330
2
100
AcDbSymbolTableRecord
100
AcDbLayerTableRecord
  2
Bemaßung
 70
     0
 62
     1
  6
Continuous
370
    -3
390
F
  0
LAYER
  5
1D6C
330
2
100
AcDbSymbolTableRecord
100
AcDbLayerTableRecord
  2
Schraffur
 70
     0
 62
   251
  6
Continuous
370
    -3
390
F
1001
AcAecLayerStandard
1000

1000

  0
LAYER
  5
1F6B
330
2
100
AcDbSymbolTableRecord
100
AcDbLayerTableRecord
  2
Dichtungen
 70
     0
 62
     6
  6
Continuous
370
    -3
390
F
1001
AcAecLayerStandard
1000

1000

  0
LAYER
  5
1F6C
330
2
100
AcDbSymbolTableRecord
100
AcDbLayerTableRecord
  2
Glasleiste
 70
     0
 62
    84
  6
Continuous
370
    -3
390
F
  0
LAYER
  5
1F6D
330
2
100
AcDbSymbolTableRecord
100
AcDbLayerTableRecord
  2
Blendrahmen
 70
     0
 62
     5
  6
Continuous
370
    -3
390
F
1001
AcAecLayerStandard
1000

1000

  0
LAYER
  5
1F6E
330
2
100
AcDbSymbolTableRecord
100
AcDbLayerTableRecord
  2
Flügelrahmen
 70
     0
 62
    84
  6
Continuous
370
    -3
390
F
1001
AcAecLayerStandard
1000

1000

  0
LAYER
  5
1F6F
330
2
100
AcDbSymbolTableRecord
100
AcDbLayerTableRecord
  2
Silikon
 70
     0
 62
    10
  6
Continuous
370
    -3
390
F
1001
AcAecLayerStandard
1000

1000

  0
LAYER
  5
1F70
330
2
100
AcDbSymbolTableRecord
100
AcDbLayerTableRecord
  2
Belüftung
 70
     0
 62
     7
  6
VERDECKT
370
    -3
390
F
1001
AcAecLayerStandard
1000

1000

  0
LAYER
  5
1F74
330
2
100
AcDbSymbolTableRecord
100
AcDbLayerTableRecord
  2
Schlitz-Zapfen
 70
     0
 62
   253
  6
STRICHPUNKT
370
    -3
390
F
1001
AcAecLayerStandard
1000

1000

  0
LAYER
  5
2F8E
330
2
100
AcDbSymbolTableRecord
100
AcDbLayerTableRecord
  2
Aluhalter
 70
     0
 62
     3
  6
Continuous
370
    -3
390
F
1001
AcAecLayerStandard
1000

1000

  0
LAYER
  5
2F8F
330
2
100
AcDbSymbolTableRecord
100
AcDbLayerTableRecord
  2
Glas
 70
     0
 62
   150
  6
Continuous
370
    -3
390
F
  0
ENDTAB
  0
TABLE
  2
STYLE
  5
3
330
0
100
AcDbSymbolTable
 70
     2
  0
STYLE
  5
11
330
3
100
AcDbSymbolTableRecord
100
AcDbTextStyleTableRecord
  2
Standard
 70
     0
 40
0.0
 41
1.0
 50
0.0
 71
     0
 42
2.5
  3
txt
  4

  0
STYLE
  5
11D
330
3
100
AcDbSymbolTableRecord
100
AcDbTextStyleTableRecord
  2
RomanS
 70
     0
 40
0.0
 41
0.7
 50
0.0
 71
     0
 42
2.5
  3
romans.shx
  4

  0
ENDTAB
  0
TABLE
  2
VIEW
  5
6
330
0
100
AcDbSymbolTable
 70
     0
  0
ENDTAB
  0
TABLE
  2
UCS
  5
7
330
0
100
AcDbSymbolTable
 70
     0
  0
ENDTAB
  0
TABLE
  2
APPID
  5
9
330
0
100
AcDbSymbolTable
 70
    11
  0
APPID
  5
12
330
9
100
AcDbSymbolTableRecord
100
AcDbRegAppTableRecord
  2
ACAD
 70
     0
  0
APPID
  5
9E
330
9
100
AcDbSymbolTableRecord
100
AcDbRegAppTableRecord
  2
ACAD_PSEXT
 70
     0
  0
APPID
  5
1B4
330
9
100
AcDbSymbolTableRecord
100
AcDbRegAppTableRecord
  2
AcAecLayerStandard
 70
     0
  0
APPID
  5
3F2
330
9
100
AcDbSymbolTableRecord
100
AcDbRegAppTableRecord
  2
AcDbBlockRepETag
 70
     0
  0
APPID
  5
722
330
9
100
AcDbSymbolTableRecord
100
AcDbRegAppTableRecord
  2
ACAD_EXEMPT_FROM_CAD_STANDARDS
 70
     0
  0
APPID
  5
12AF
330
9
100
AcDbSymbolTableRecord
100
AcDbRegAppTableRecord
  2
AcDbDynamicBlockGUID
 70
     0
  0
APPID
  5
17A4
330
9
100
AcDbSymbolTableRecord
100
AcDbRegAppTableRecord
  2
ACAUTHENVIRON
 70
     0
  0
APPID
  5
17AA
330
9
100
AcDbSymbolTableRecord
100
AcDbRegAppTableRecord
  2
AcDbDynamicBlockTrueName
 70
     0
  0
APPID
  5
186B
330
9
100
AcDbSymbolTableRecord
100
AcDbRegAppTableRecord
  2
AcDbBlockRepBTag
 70
     0
  0
APPID
  5
3178
330
9
100
AcDbSymbolTableRecord
100
AcDbRegAppTableRecord
  2
ACAD_NAV_VCDISPLAY
 70
     0
  0
APPID
  5
31BB
330
9
100
AcDbSymbolTableRecord
100
AcDbRegAppTableRecord
  2
ACAD_MLEADERVER
 70
     0
  0
ENDTAB
  0
TABLE
  2
DIMSTYLE
  5
A
330
0
100
AcDbSymbolTable
 70
     2
100
AcDbDimStyleTable
 71
     1
340
142C
  0
DIMSTYLE
105
11E
330
A
100
AcDbSymbolTableRecord
100
AcDbDimStyleTableRecord
  2
Standard
 70
     0
 41
0.5
 42
1.0
 43
2.0
 44
0.2
140
1.5
147
1.0
172
     1
271
     1
272
     1
340
11
371
     5
372
     5
  0
DIMSTYLE
105
142C
102
{ACAD_REACTORS
330
22CB
330
2430
330
2464
330
2497
330
24A4
330
24BC
330
24D4
330
2506
330
2AAC
330
2AAD
330
2AAF
330
2AB1
330
2AB2
330
2AB3
330
2AB4
330
2D63
330
2EA2
330
2ED5
330
2FC5
102
}
330
A
100
AcDbSymbolTableRecord
100
AcDbDimStyleTableRecord
  2
IDEAL Holz
 70
     0
 41
2.5
 42
0.625
 43
3.75
 44
1.25
 73
     0
 74
     0
 77
     1
 78
     8
140
2.5
141
2.5
143
0.03937007874016
147
0.625
171
     3
172
     1
271
     1
272
     1
274
     3
278
    44
283
     0
284
     8
340
11D
341
117
342
117
  0
ENDTAB
  0
TABLE
  2
BLOCK_RECORD
  5
1
330
0
100
AcDbSymbolTable
 70
    24
  0
BLOCK_RECORD
  5
1F
102
{ACAD_XDICTIONARY
360
732
102
}
330
1
100
AcDbSymbolTableRecord
100
AcDbBlockTableRecord
  2
*Model_Space
340
22
  0
BLOCK_RECORD
  5
D2
330
1
100
AcDbSymbolTableRecord
100
AcDbBlockTableRecord
  2
*Paper_Space
340
D3
  0
BLOCK_RECORD
  5
117
330
1
100
AcDbSymbolTableRecord
100
AcDbBlockTableRecord
  2
_Oblique
340
0
102
{BLKREFS
331
2ED0
331
2E9C
331
2E9D
331
2ECF
331
2EE6
331
2EE7
331
2FF6
331
2FF7
331
30C7
331
30C8
331
30D0
331
30D1
331
30D9
331
30DA
331
2E03
331
2E04
331
2E0C
331
2E0D
331
2E1E
331
2E1F
331
2E39
331
2E3A
331
2E42
331
2E43
331
2E4B
331
2E4C
331
2E54
331
2E55
331
2E66
331
2E67
331
2E6F
331
2E70
331
2E78
331
2E79
331
2E81
331
2E82
331
2E8A
331
2E8B
102
}
  0
BLOCK_RECORD
  5
1F37
102
{ACAD_XDICTIONARY
360
306B
102
}
330
1
100
AcDbSymbolTableRecord
100
AcDbBlockTableRecord
  2
D-Mitteldichtung
340
0
102
{BLKREFS
331
2ABA
102
}
1001
AcDbDynamicBlockGUID
1000
{3CF7A36C-C02C-4401-B09B-95D5AD81CC26}
1001
AcDbBlockRepETag
1070
     1
1071
        6
1001
ACAD
1000
DesignCenter Data
1002
{
1070
     1
1070
     4
1002
}
  0
BLOCK_RECORD
  5
1F40
102
{ACAD_XDICTIONARY
360
3061
102
}
330
1
100
AcDbSymbolTableRecord
100
AcDbBlockTableRecord
  2
D-Überschlag
340
0
102
{BLKREFS
331
2AB0
102
}
1001
AcDbDynamicBlockGUID
1000
{A2749B78-9DB7-4B7E-81A2-E4550753E111}
1001
AcDbBlockRepETag
1070
     1
1071
        3
1001
ACAD
1000
DesignCenter Data
1002
{
1070
     1
1070
     4
1002
}
  0
BLOCK_RECORD
  5
22CC
330
1
100
AcDbSymbolTableRecord
100
AcDbBlockTableRecord
  2
*D3
340
0
  0
BLOCK_RECORD
  5
2434
330
1
100
AcDbSymbolTableRecord
100
AcDbBlockTableRecord
  2
*D4
340
0
  0
BLOCK_RECORD
  5
2465
330
1
100
AcDbSymbolTableRecord
100
AcDbBlockTableRecord
  2
*D5
340
0
  0
BLOCK_RECORD
  5
2498
330
1
100
AcDbSymbolTableRecord
100
AcDbBlockTableRecord
  2
*D6
340
0
  0
BLOCK_RECORD
  5
24A5
330
1
100
AcDbSymbolTableRecord
100
AcDbBlockTableRecord
  2
*D7
340
0
  0
BLOCK_RECORD
  5
24BD
330
1
100
AcDbSymbolTableRecord
100
AcDbBlockTableRecord
  2
*D8
340
0
  0
BLOCK_RECORD
  5
24D5
330
1
100
AcDbSymbolTableRecord
100
AcDbBlockTableRecord
  2
*D9
340
0
  0
BLOCK_RECORD
  5
2507
330
1
100
AcDbSymbolTableRecord
100
AcDbBlockTableRecord
  2
*D10
340
0
  0
BLOCK_RECORD
  5
261F
102
{ACAD_XDICTIONARY
360
2665
102
}
330
1
100
AcDbSymbolTableRecord
100
AcDbBlockTableRecord
  2
I-Verbr30mm
340
0
102
{BLKREFS
331
2648
102
}
1001
AcDbDynamicBlockGUID
1000
{EDA653F5-53A5-482A-B18B-AF74C77E2F2F}
1001
AcDbBlockRepETag
1070
     1
1071
       25
1001
ACAD
1000
DesignCenter Data
1002
{
1070
     1
1070
     4
1002
}
  0
BLOCK_RECORD
  5
2ABB
330
1
100
AcDbSymbolTableRecord
100
AcDbBlockTableRecord
  2
*D12
340
0
  0
BLOCK_RECORD
  5
2AC7
330
1
100
AcDbSymbolTableRecord
100
AcDbBlockTableRecord
  2
*D13
340
0
  0
BLOCK_RECORD
  5
2AD3
330
1
100
AcDbSymbolTableRecord
100
AcDbBlockTableRecord
  2
*D14
340
0
  0
BLOCK_RECORD
  5
2ADF
330
1
100
AcDbSymbolTableRecord
100
AcDbBlockTableRecord
  2
*D15
340
0
  0
BLOCK_RECORD
  5
2AEB
330
1
100
AcDbSymbolTableRecord
100
AcDbBlockTableRecord
  2
*D16
340
0
  0
BLOCK_RECORD
  5
2AF7
330
1
100
AcDbSymbolTableRecord
100
AcDbBlockTableRecord
  2
*D17
340
0
  0
BLOCK_RECORD
  5
2B03
330
1
100
AcDbSymbolTableRecord
100
AcDbBlockTableRecord
  2
*D18
340
0
  0
BLOCK_RECORD
  5
2D64
330
1
100
AcDbSymbolTableRecord
100
AcDbBlockTableRecord
  2
*D19
340
0
  0
BLOCK_RECORD
  5
2EA3
330
1
100
AcDbSymbolTableRecord
100
AcDbBlockTableRecord
  2
*D20
340
0
  0
BLOCK_RECORD
  5
2ED6
330
1
100
AcDbSymbolTableRecord
100
AcDbBlockTableRecord
  2
*D21
340
0
  0
BLOCK_RECORD
  5
2F54
102
{ACAD_XDICTIONARY
360
2F55
102
}
330
1
100
AcDbSymbolTableRecord
100
AcDbBlockTableRecord
  2
Glas 28mm ob
340
0
102
{BLKREFS
331
2FC6
102
}
1001
AcDbDynamicBlockGUID
1000
{75492171-47EA-4A08-A287-AE9D0330A9F1}
1001
AcDbBlockRepETag
1070
     1
1071
       51
1001
ACAD
1000
DesignCenter Data
1002
{
1070
     1
1070
     4
1002
}
  0
BLOCK_RECORD
  5
2FD8
330
1
100
AcDbSymbolTableRecord
100
AcDbBlockTableRecord
  2
*D23
340
0
  0
ENDTAB
  0
ENDSEC
  0
SECTION
  2
BLOCKS
  0
BLOCK
  5
20
330
1F
100
AcDbEntity
  8
0
100
AcDbBlockBegin
  2
*Model_Space
 70
     0
 10
0.0
 20
0.0
 30
0.0
  3
*Model_Space
  1

  0
ENDBLK
  5
21
330
1F
100
AcDbEntity
  8
0
100
AcDbBlockEnd
  0
BLOCK
  5
D4
330
D2
100
AcDbEntity
 67
     1
  8
0
100
AcDbBlockBegin
  2
*Paper_Space
 70
     0
 10
0.0
 20
0.0
 30
0.0
  3
*Paper_Space
  1

  0
ENDBLK
  5
D5
330
D2
100
AcDbEntity
 67
     1
  8
0
100
AcDbBlockEnd
  0
BLOCK
  5
118
330
117
100
AcDbEntity
  8
0
 62
     1
 48
0.3
100
AcDbBlockBegin
  2
_Oblique
 70
     0
 10
0.0
 20
0.0
 30
0.0
  3
_Oblique
  1

  0
LINE
  5
119
330
117
100
AcDbEntity
  8
0
  6
ByBlock
 62
     0
370
    -2
100
AcDbLine
 10
-0.5
 20
-0.5
 30
0.0
 11
0.5
 21
0.5
 31
0.0
  0
ENDBLK
  5
11A
330
117
100
AcDbEntity
  8
0
 62
     1
 48
0.3
100
AcDbBlockEnd
  0
BLOCK
  5
1F3A
330
1F37
100
AcDbEntity
  8
0
100
AcDbBlockBegin
  2
D-Mitteldichtung
 70
     0
 10
0.0
 20
0.0
 30
0.0
  3
D-Mitteldichtung
  1

  0
LWPOLYLINE
  5
3067
102
{ACAD_REACTORS
330
306A
102
}
330
1F37
100
AcDbEntity
  8
Dichtungen
100
AcDbPolyline
 90
       31
 70
     0
 43
0.0
 10
-2.199999999999854
 20
-18.20710678118664
 10
-3.846446609406528
 20
-19.85355339059342
 10
-2.199999999999854
 20
-18.20710678118664
 10
-0.5535533905931961
 20
-19.85355339059342
 42
0.6681786379192989
 10
0.3000000000001375
 20
-19.5000000000002
 10
0.3000000000001375
 20
-9.500000000000195
 42
0.2015127546239996
 10
0.000000000000183
 20
-8.785857157145841
 10
0.000000000000183
 20
-2.000000000000198
 42
0.6068148963145977
 10
-1.573576436350814
 20
-1.180847955711186
 10
-4.699999999999862
 20
-3.580055564077468
 10
-4.241138850919055
 20
-4.235377199508633
 10
-1.472072930905178
 20
-2.08639410705254
 42
-0.6068148963145489
 10
-0.9999999999998159
 20
-2.332139720339311
 10
-0.9999999999998159
 20
-3.604729044764866
 10
-3.282702335169731
 20
-8.500000000000085
 10
-6.19999999999986
 20
-8.500000000000197
 10
-6.19999999999986
 20
-8.500000000000197
 42
0.4142135623730951
 10
-5.19999999999986
 20
-9.500000000000195
 10
-3.199999999999861
 20
-9.500000000000195
 10
-3.199999999999861
 20
-11.50000000000008
 10
-4.199999999999858
 20
-11.50000000000008
 42
0.4142135623731117
 10
-4.699999999999862
 20
-12.00000000000008
 10
-4.699999999999862
 20
-14.81801488286712
 42
0.1763269807084733
 10
-4.583022221559343
 20
-15.1394086877103
 10
-3.596074994209216
 20
-16.3156065916057
 42
-0.3152987888789738
 10
-3.546084513876435
 20
-16.88700039644888
 10
-3.899999999999907
 20
-17.5000000000002
 10
-3.899999999999907
 20
-17.40000000000017
 42
0.9999999999999998
 10
-4.699999999999862
 20
-17.40000000000017
 10
-4.699999999999862
 20
-19.5000000000002
 42
0.6681786379192989
 10
-3.846446609406528
 20
-19.85355339059342
1001
AcDbBlockRepETag
1070
     1
1071
        0
1005
3067
  0
LWPOLYLINE
  5
3068
102
{ACAD_REACTORS
330
306A
102
}
330
1F37
100
AcDbEntity
  8
Dichtungen
100
AcDbPolyline
 90
       11
 70
     1
 43
0.0
 10
-4.299999999999908
 20
-15.01996857795925
 10
-3.559843884025843
 20
-15.90205228825172
 42
-0.3152987888789714
 10
-3.459862923360513
 20
-17.0448398979382
 10
-4.299999999999908
 20
-18.5000000000002
 10
-4.299999999999908
 20
-18.77573593128815
 10
-2.953553390593191
 20
-17.42928932188144
 42
-0.4142135623730922
 10
-2.246446609406529
 20
-17.42928932188144
 10
-1.199999999999771
 20
-18.4757359312882
 10
-1.199999999999771
 20
-14.23137084989864
 10
-3.131370849898253
 20
-12.30000000000015
 10
-4.299999999999908
 20
-12.30000000000015
1001
AcDbBlockRepETag
1070
     1
1071
        1
1005
3068
  0
LWPOLYLINE
  5
3069
102
{ACAD_REACTORS
330
306A
102
}
330
1F37
100
AcDbEntity
  8
Dichtungen
100
AcDbPolyline
 90
        6
 70
     1
 43
0.0
 10
-0.9999999999998159
 20
-5.497690311286845
 10
-2.399999999999904
 20
-8.499999999999971
 10
-2.399999999999904
 20
-11.50000000000008
 10
-0.7999999999997716
 20
-13.10000000000011
 10
-0.7999999999997716
 20
-10.0000000000002
 10
-0.9999999999998159
 20
-8.865743636076528
1001
AcDbBlockRepETag
1070
     1
1071
        2
1005
3069
  0
HATCH
  5
306A
330
1F37
100
AcDbEntity
  8
Schraffur
 62
     6
100
AcDbHatch
 10
0.0
 20
0.0
 30
0.0
210
0.0
220
0.0
230
1.0
  2
ANSI37
 70
     0
 71
     1
 91
        3
 92
        7
 72
     1
 73
     1
 93
       28
 10
-4.699999999999863
 20
-3.580055564077468
 42
0.0
 10
-4.241138850919055
 20
-4.235377199508631
 42
0.0
 10
-1.472072930905178
 20
-2.08639410705254
 42
-0.6068148963145466
 10
-0.9999999999998159
 20
-2.332139720339306
 42
0.0
 10
-0.9999999999998159
 20
-3.604729044764863
 42
0.0
 10
-3.282702335169731
 20
-8.500000000000085
 42
0.0
 10
-6.19999999999986
 20
-8.500000000000197
 42
0.4142135623730951
 10
-5.19999999999986
 20
-9.500000000000195
 42
0.0
 10
-3.199999999999861
 20
-9.500000000000195
 42
0.0
 10
-3.199999999999861
 20
-11.50000000000008
 42
0.0
 10
-4.199999999999858
 20
-11.50000000000008
 42
0.4142135623731033
 10
-4.699999999999862
 20
-12.00000000000007
 42
0.0
 10
-4.699999999999862
 20
-14.81801488286712
 42
0.1763269807084436
 10
-4.583022221559382
 20
-15.13940868771026
 42
0.0
 10
-3.596074994209216
 20
-16.3156065916057
 42
-0.3152987888790008
 10
-3.546084513876461
 20
-16.88700039644892
 42
0.0
 10
-3.899999999999908
 20
-17.5000000000002
 42
0.0
 10
-3.899999999999907
 20
-17.40000000000017
 42
1.0
 10
-4.699999999999862
 20
-17.40000000000017
 42
0.0
 10
-4.699999999999862
 20
-19.5000000000002
 42
0.6681786379192989
 10
-3.846446609406528
 20
-19.85355339059342
 42
0.0
 10
-2.199999999999863
 20
-18.20710678118664
 42
0.0
 10
-0.5535533905931961
 20
-19.85355339059342
 42
0.6681786379193274
 10
0.3000000000001375
 20
-19.50000000000016
 42
0.0
 10
0.3000000000001375
 20
-9.500000000000195
 42
0.2015127546239996
 10
0.000000000000183
 20
-8.785857157145841
 42
0.0
 10
0.000000000000183
 20
-2.000000000000198
 42
0.6068148963145996
 10
-1.57357643635082
 20
-1.180847955711187
 42
0.0
 97
        1
330
3067
 92
       22
 72
     0
 73
     1
 93
        6
 10
-0.9999999999998163
 20
-5.497690311286846
 10
-0.9999999999998159
 20
-8.865743636076528
 10
-0.7999999999997717
 20
-10.00000000000019
 10
-0.7999999999997716
 20
-13.10000000000011
 10
-2.399999999999908
 20
-11.50000000000008
 10
-2.399999999999904
 20
-8.499999999999971
 97
        1
330
3069
 92
       22
 72
     1
 73
     1
 93
       11
 10
-3.131370849898253
 20
-12.30000000000015
 42
0.0
 10
-1.199999999999771
 20
-14.23137084989864
 42
0.0
 10
-1.199999999999771
 20
-18.4757359312882
 42
0.0
 10
-2.246446609406529
 20
-17.42928932188144
 42
0.4142135623730922
 10
-2.953553390593191
 20
-17.42928932188144
 42
0.0
 10
-4.299999999999908
 20
-18.77573593128815
 42
0.0
 10
-4.299999999999909
 20
-18.50000000000019
 42
0.0
 10
-3.459862923360513
 20
-17.0448398979382
 42
0.3152987888789714
 10
-3.559843884025843
 20
-15.90205228825172
 42
0.0
 10
-4.299999999999907
 20
-15.01996857795924
 42
0.0
 10
-4.299999999999909
 20
-12.30000000000015
 42
0.0
 97
        1
330
3068
 75
     0
 76
     1
 52
0.0
 41
0.4
 77
     0
 78
     2
 53
45.0
 43
0.0
 44
0.0
 45
-0.8980256121069151
 46
0.8980256121069153
 79
     0
 53
135.0
 43
0.0
 44
0.0
 45
-0.8980256121069153
 46
-0.8980256121069151
 79
     0
 47
0.0569593147751606
 98
        3
 10
-2.80745315721924
 20
-2.411777091431304
 10
-2.80745315721924
 20
-2.411777091431304
 10
-2.80745315721924
 20
-2.411777091431304
1001
ACAD
1010
0.0
1020
0.0
1030
0.0
1001
AcDbBlockRepETag
1070
     1
1071
        4
1005
306A
  0
HATCH
  5
307E
330
1F37
100
AcDbEntity
  8
Dichtungen
100
AcDbHatch
 10
0.0
 20
0.0
 30
0.0
210
0.0
220
0.0
230
1.0
  2
SOLID
 70
     1
 71
     1
 91
        1
 92
        1
 93
        1
 72
     2
 10
-0.1999999999998838
 20
-19.50000000000016
 40
0.2270269807753889
 50
0.0
 51
360.0
 73
     1
 97
        1
330
307F
 75
     0
 76
     1
 98
        1
 10
-1006.175094846241
 20
-441.6450035416293
1001
ACAD
1010
0.0
1020
0.0
1030
0.0
1001
AcDbBlockRepETag
1070
     1
1071
        3
1005
307E
  0
CIRCLE
  5
307F
102
{ACAD_REACTORS
330
307E
102
}
330
1F37
100
AcDbEntity
  8
Dichtungen
100
AcDbCircle
 10
-0.1999999999998838
 20
-19.50000000000016
 30
0.0
 40
0.2270269807753889
1001
AcDbBlockRepETag
1070
     1
1071
        5
1005
307F
  0
ENDBLK
  5
1F3F
330
1F37
100
AcDbEntity
  8
0
100
AcDbBlockEnd
  0
BLOCK
  5
1F42
330
1F40
100
AcDbEntity
  8
0
100
AcDbBlockBegin
  2
D-Überschlag
 70
     0
 10
0.0
 20
0.0
 30
0.0
  3
D-Überschlag
  1

  0
LWPOLYLINE
  5
305C
330
1F40
100
AcDbEntity
  8
Dichtungen
100
AcDbPolyline
 90
       20
 70
     1
 43
0.0
 10
-1.100000000000362
 20
2.54142135623783
 10
-1.100000000000362
 20
4.500000000000452
 42
0.4142135623730864
 10
-2.100000000000362
 20
5.500000000000452
 10
-5.24199999999996
 20
5.500000000000452
 10
-5.24199999999996
 20
5.500000000000452
 42
-0.4142135623730951
 10
-4.24199999999996
 20
6.500000000000452
 10
-5.0
 20
12.15358983848682
 10
-5.200000000000271
 20
12.50000000000045
 10
-5.200000000000271
 20
12.40000000000054
 42
-0.9999999999999998
 10
-6.0
 20
12.40000000000054
 10
-6.0
 20
14.50000000000022
 42
-0.6068148963145993
 10
-5.213211781824611
 20
14.90957602214507
 10
-3.0
 20
13.35986844885701
 10
-0.7867882181758433
 20
14.90957602214507
 42
-0.6068148963145922
 10
0.0
 20
14.50000000000022
 10
0.0
 20
2.000000000000448
 42
-0.6681786379192928
 10
-1.707106781186894
 20
1.29289321881401
 10
-3.0
 20
2.585786437627345
 10
-2.434314575050845
 20
3.151471862576725
 10
-1.612132034356363
 20
2.329289321882013
 42
0.6681786379192941
1001
AcDbBlockRepETag
1070
     1
1071
        0
1005
305C
  0
LWPOLYLINE
  5
305D
330
1F40
100
AcDbEntity
  8
Dichtungen
100
AcDbPolyline
 90
       10
 70
     1
 43
0.0
 10
-4.467949192431206
 20
12.23205080756929
 10
-5.200000000000271
 20
13.50000000000045
 10
-5.200000000000271
 20
13.92370536190924
 10
-3.286788218175843
 20
12.58406005008373
 42
0.3152987888789827
 10
-2.713211781824607
 20
12.58406005008373
 10
-1.100000000000362
 20
13.71364310044623
 10
-1.100000000000362
 20
7.000000000000452
 42
-0.4142135623730951
 10
-1.60000000000036
 20
6.500000000000452
 10
-3.442000000000231
 20
6.500000000000452
 10
-4.118586108390442
 20
11.23205080756929
 42
0.0557712343996485
1001
AcDbBlockRepETag
1070
     1
1071
        1
1005
305D
  0
HATCH
  5
305E
330
1F40
100
AcDbEntity
  8
Dichtungen
100
AcDbHatch
 10
0.0
 20
0.0
 30
0.0
210
0.0
220
0.0
230
1.0
  2
ANSI37
 70
     0
 71
     0
 91
        3
 92
        5
 93
       19
 72
     3
 10
-5.5
 20
14.50000000000045
 11
-0.3535533905932914
 21
-0.3535533905932913
 40
0.9999999999999099
 50
190.0000000000208
 51
314.9999999999999
 73
     1
 72
     1
 10
-6.0
 20
14.50000000000045
 11
-6.0
 21
12.40000000000054
 72
     3
 10
-5.600000000000137
 20
12.40000000000054
 11
-0.2828427124745469
 21
-0.2828427124745469
 40
0.999999999999828
 50
314.9999999999999
 51
494.9999999999997
 73
     1
 72
     1
 10
-5.200000000000271
 20
12.40000000000054
 11
-5.200000000000271
 21
12.50000000000045
 72
     1
 10
-5.200000000000271
 20
12.50000000000045
 11
-5.0
 21
12.15358983848682
 72
     1
 10
-5.0
 20
12.15358983848682
 11
-4.24199999999996
 21
6.500000000000452
 72
     3
 10
-4.24199999999996
 20
5.500000000000452
 11
0.7071067811865534
 21
-0.7071067811865534
 40
0.9999999999999838
 50
135.0
 51
225.0
 73
     1
 72
     1
 10
-5.24199999999996
 20
5.500000000000452
 11
-2.100000000000362
 21
5.500000000000452
 72
     3
 10
-2.100000000000362
 20
4.500000000000452
 11
-0.7071067811865534
 21
-0.7071067811865534
 40
0.9999999999999838
 50
135.0
 51
225.0
 73
     0
 72
     1
 10
-1.100000000000362
 20
4.500000000000452
 11
-1.100000000000362
 21
2.54142135623783
 72
     3
 10
-1.400000000000318
 20
2.541421356237888
 11
-0.2121320343559602
 21
-0.2121320343559602
 40
0.9999999999998323
 50
225.0000000000109
 51
360.000000000023
 73
     0
 72
     1
 10
-1.612132034356363
 20
2.329289321882013
 11
-2.434314575050845
 21
3.151471862576725
 72
     1
 10
-2.434314575050845
 20
3.151471862576725
 11
-3.0
 21
2.585786437627345
 72
     1
 10
-3.0
 20
2.585786437627345
 11
-1.707106781186894
 21
1.29289321881401
 72
     3
 10
-1.000000000000113
 20
2.000000000000563
 11
-0.707106781186667
 21
-0.707106781186667
 40
0.99999999999995
 50
0.0
 51
135.0
 73
     1
 72
     1
 10
0.0
 20
2.000000000000563
 11
0.0
 21
14.50000000000027
 72
     3
 10
-0.5000000000002274
 20
14.50000000000028
 11
0.3535533905934777
 21
-0.3535533905934777
 40
0.9999999999999491
 50
44.99999999999999
 51
169.9999999999893
 73
     1
 72
     1
 10
-0.7867882181758433
 20
14.90957602214507
 11
-3.0
 21
13.35986844885701
 72
     1
 10
-3.0
 20
13.35986844885701
 11
-5.213211781824611
 21
14.90957602214507
 97
        0
 92
       20
 93
       10
 72
     3
 10
-3.000000000000226
 20
12.99363607222835
 11
0.3535533905933945
 21
-0.3535533905933946
 40
0.9999999999999602
 50
-80.00000000000055
 51
-9.999999999985018
 73
     1
 72
     1
 10
-2.713211781824496
 20
12.58406005008379
 11
-1.100000000000362
 21
13.71364310044623
 72
     1
 10
-1.100000000000362
 20
13.71364310044623
 11
-1.100000000000362
 21
7.000000000000452
 72
     3
 10
-1.60000000000036
 20
7.000000000000452
 11
-0.353553390593285
 21
-0.3535533905932851
 40
0.9999999999999358
 50
225.0
 51
315.0
 73
     0
 72
     1
 10
-1.60000000000036
 20
6.500000000000452
 11
-3.442000000000231
 21
6.500000000000452
 72
     1
 10
-3.442000000000231
 20
6.500000000000452
 11
-4.118586108390442
 21
11.23205080756929
 72
     3
 10
-8.761922415472895
 20
10.17086779733375
 11
3.367987636698287
 21
-3.367987636698287
 40
0.9999999999996191
 50
57.87323078304551
 51
70.64182853094493
 73
     1
 72
     1
 10
-4.467949192431206
 20
12.23205080756929
 11
-5.200000000000271
 21
13.50000000000045
 72
     1
 10
-5.200000000000271
 20
13.50000000000045
 11
-5.200000000000271
 21
13.92370536190924
 72
     1
 10
-5.200000000000271
 20
13.92370536190924
 11
-3.286788218175843
 21
12.58406005008373
 97
        0
 92
       20
 93
        2
 72
     3
 10
-0.5779999999999747
 20
14.39100000000047
 11
0.1605323176186189
 21
-0.1605323176186188
 40
0.9999999999993606
 50
135.0
 51
315.0
 73
     0
 72
     3
 10
-0.5779999999999747
 20
14.39100000000047
 11
0.1605323176186244
 21
-0.1605323176186244
 40
0.9999999999995424
 50
314.9999999999999
 51
494.9999999999997
 73
     0
 97
        0
 75
     0
 76
     1
 52
0.0
 41
0.4
 77
     0
 78
     2
 53
45.0
 43
0.0
 44
-0.0000000000000018
 45
-0.8980256121069151
 46
0.898025612106915
 79
     0
 53
135.0
 43
0.0
 44
-0.0000000000000018
 45
-0.898025612106915
 46
-0.8980256121069151
 79
     0
 47
0.0737449119884942
 98
        5
 10
-950.7515759401572
 20
-394.0578210732006
 10
-950.7515759401572
 20
-394.0578210732006
 10
-950.7515759401572
 20
-394.0578210732006
 10
-947.6904334609178
 20
-397.4644045633183
 10
-947.6904334609178
 20
-397.4644045633183
1001
AcDbBlockRepETag
1070
     1
1071
        2
1005
305E
1001
ACAD
1010
0.0
1020
0.0
1030
0.0
  0
HATCH
  5
305F
330
1F40
100
AcDbEntity
  8
Dichtungen
100
AcDbHatch
 10
0.0
 20
0.0
 30
0.0
210
0.0
220
0.0
230
1.0
  2
SOLID
 70
     1
 71
     1
 91
        1
 92
        1
 93
        1
 72
     2
 10
-0.5779999999999747
 20
14.39100000000047
 40
0.2270269807753889
 50
0.0
 51
360.0
 73
     1
 97
        1
330
3060
 75
     0
 76
     1
 98
        1
 10
-1006.553094846241
 20
-407.7540035416286
1001
ACAD
1010
0.0
1020
0.0
1030
0.0
1001
AcDbBlockRepETag
1070
     1
1071
        3
1005
305F
  0
CIRCLE
  5
3060
102
{ACAD_REACTORS
330
305F
102
}
330
1F40
100
AcDbEntity
  8
Dichtungen
100
AcDbCircle
 10
-0.5779999999999747
 20
14.39100000000047
 30
0.0
 40
0.2270269807753889
1001
AcDbBlockRepETag
1070
     1
1071
        4
1005
3060
  0
ENDBLK
  5
1F46
330
1F40
100
AcDbEntity
  8
0
100
AcDbBlockEnd
  0
BLOCK
  5
22D6
330
22CC
100
AcDbEntity
  8
0
100
AcDbBlockBegin
  2
*D3
 70
     1
 10
0.0
 20
0.0
 30
0.0
  3
*D3
  1

  0
LINE
  5
2E00
330
22CC
100
AcDbEntity
  8
Bemaßung
 62
     0
370
    -2
100
AcDbLine
 10
148.6711294456066
 20
185.686802528423
 30
0.0
 11
148.0461294456065
 21
185.686802528423
 31
0.0
  0
LINE
  5
2E01
330
22CC
100
AcDbEntity
  8
Bemaßung
 62
     0
370
    -2
100
AcDbLine
 10
143.9836294456068
 20
215.6868051195222
 30
0.0
 11
150.5461294456066
 21
215.6868051195222
 31
0.0
  0
LINE
  5
2E02
330
22CC
100
AcDbEntity
  8
Bemaßung
 62
     0
370
    -2
100
AcDbLine
 10
149.2961294456065
 20
185.686802528423
 30
0.0
 11
149.2961294456066
 21
215.6868051195222
 31
0.0
  0
INSERT
  5
2E03
330
22CC
100
AcDbEntity
  8
Bemaßung
 62
     0
370
    -2
100
AcDbBlockReference
  2
_Oblique
 10
149.2961294456065
 20
185.686802528423
 30
0.0
 41
2.5
 42
2.5
 43
2.5
 50
270.0
  0
INSERT
  5
2E04
330
22CC
100
AcDbEntity
  8
Bemaßung
 62
     0
370
    -2
100
AcDbBlockReference
  2
_Oblique
 10
149.2961294456066
 20
215.6868051195222
 30
0.0
 41
2.5
 42
2.5
 43
2.5
 50
90.0
  0
MTEXT
  5
2E05
330
22CC
100
AcDbEntity
  8
Bemaßung
 62
     0
100
AcDbMText
 10
146.7663675408446
 20
200.6868038239726
 30
0.0
 40
2.5
 41
0.0
 71
     5
 72
     1
  1
30 (130)
  7
RomanS
 11
0.0000000000000001
 21
1.0
 31
0.0
 73
     1
 44
1.0
1001
ACAD
1000
MTEXTBEGIN
1070
    73
1070
     1
1070
    44
1040
1.0
1070
    74
1070
     0
1000
MTEXTEND
  0
POINT
  5
2E06
330
22CC
100
AcDbEntity
  8
Defpoints
 62
     0
100
AcDbPoint
 10
149.2961294456066
 20
185.686802528423
 30
0.0
  0
POINT
  5
2E07
330
22CC
100
AcDbEntity
  8
Defpoints
 62
     0
100
AcDbPoint
 10
143.3586294456068
 20
215.6868051195222
 30
0.0
  0
POINT
  5
2E08
330
22CC
100
AcDbEntity
  8
Defpoints
 62
     0
100
AcDbPoint
 10
149.2961294456066
 20
215.6868051195222
 30
0.0
  0
ENDBLK
  5
22D7
330
22CC
100
AcDbEntity
  8
0
100
AcDbBlockEnd
  0
BLOCK
  5
243E
330
2434
100
AcDbEntity
  8
0
100
AcDbBlockBegin
  2
*D4
 70
     1
 10
0.0
 20
0.0
 30
0.0
  3
*D4
  1

  0
LINE
  5
2E09
330
2434
100
AcDbEntity
  8
Bemaßung
 62
     0
370
    -2
100
AcDbLine
 10
148.6711294456066
 20
215.6868025284231
 30
0.0
 11
148.0461294456066
 21
215.6868025284231
 31
0.0
  0
LINE
  5
2E0A
330
2434
100
AcDbEntity
  8
Bemaßung
 62
     0
370
    -2
100
AcDbLine
 10
143.9836294456068
 20
245.6868051195223
 30
0.0
 11
150.5461294456066
 21
245.6868051195223
 31
0.0
  0
LINE
  5
2E0B
330
2434
100
AcDbEntity
  8
Bemaßung
 62
     0
370
    -2
100
AcDbLine
 10
149.2961294456066
 20
215.6868025284231
 30
0.0
 11
149.2961294456066
 21
245.6868051195223
 31
0.0
  0
INSERT
  5
2E0C
330
2434
100
AcDbEntity
  8
Bemaßung
 62
     0
370
    -2
100
AcDbBlockReference
  2
_Oblique
 10
149.2961294456066
 20
215.6868025284231
 30
0.0
 41
2.5
 42
2.5
 43
2.5
 50
270.0
  0
INSERT
  5
2E0D
330
2434
100
AcDbEntity
  8
Bemaßung
 62
     0
370
    -2
100
AcDbBlockReference
  2
_Oblique
 10
149.2961294456066
 20
245.6868051195223
 30
0.0
 41
2.5
 42
2.5
 43
2.5
 50
90.0
  0
MTEXT
  5
2E0E
330
2434
100
AcDbEntity
  8
Bemaßung
 62
     0
100
AcDbMText
 10
146.7663675408446
 20
230.6868038239727
 30
0.0
 40
2.5
 41
0.0
 71
     5
 72
     1
  1
30 (130)
  7
RomanS
 11
0.0000000000000001
 21
1.0
 31
0.0
 73
     1
 44
1.0
1001
ACAD
1000
MTEXTBEGIN
1070
    73
1070
     1
1070
    44
1040
1.0
1070
    74
1070
     0
1000
MTEXTEND
  0
POINT
  5
2E0F
330
2434
100
AcDbEntity
  8
Defpoints
 62
     0
100
AcDbPoint
 10
149.2961294456066
 20
215.6868025284231
 30
0.0
  0
POINT
  5
2E10
330
2434
100
AcDbEntity
  8
Defpoints
 62
     0
100
AcDbPoint
 10
143.3586294456068
 20
245.6868051195223
 30
0.0
  0
POINT
  5
2E11
330
2434
100
AcDbEntity
  8
Defpoints
 62
     0
100
AcDbPoint
 10
149.2961294456066
 20
245.6868051195223
 30
0.0
  0
ENDBLK
  5
243F
330
2434
100
AcDbEntity
  8
0
100
AcDbBlockEnd
  0
BLOCK
  5
246F
330
2465
100
AcDbEntity
  8
0
100
AcDbBlockBegin
  2
*D5
 70
     1
 10
0.0
 20
0.0
 30
0.0
  3
*D5
  1

  0
LINE
  5
30D6
330
2465
100
AcDbEntity
  8
Bemaßung
 62
     0
370
    -2
100
AcDbLine
 10
60.54612944560745
 20
237.4134900499232
 30
0.0
 11
60.54612944560745
 21
238.0384900499232
 31
0.0
  0
LINE
  5
30D7
330
2465
100
AcDbEntity
  8
Bemaßung
 62
     0
370
    -2
100
AcDbLine
 10
72.44612944560731
 20
237.4134900499232
 30
0.0
 11
72.44612944560731
 21
238.0384900499232
 31
0.0
  0
LINE
  5
30D8
330
2465
100
AcDbEntity
  8
Bemaßung
 62
     0
370
    -2
100
AcDbLine
 10
60.54612944560745
 20
236.7884900499232
 30
0.0
 11
72.44612944560731
 21
236.7884900499232
 31
0.0
  0
INSERT
  5
30D9
330
2465
100
AcDbEntity
  8
Bemaßung
 62
     0
370
    -2
100
AcDbBlockReference
  2
_Oblique
 10
60.54612944560745
 20
236.7884900499232
 30
0.0
 41
2.5
 42
2.5
 43
2.5
 50
180.0
  0
INSERT
  5
30DA
330
2465
100
AcDbEntity
  8
Bemaßung
 62
     0
370
    -2
100
AcDbBlockReference
  2
_Oblique
 10
72.44612944560731
 20
236.7884900499232
 30
0.0
 41
2.5
 42
2.5
 43
2.5
  0
MTEXT
  5
30DB
330
2465
100
AcDbEntity
  8
Bemaßung
 62
     0
100
AcDbMText
 10
66.49612944560738
 20
238.9015852880184
 30
0.0
 40
2.5
 41
0.0
 71
     5
 72
     1
  1
11,9
  7
RomanS
 73
     1
 44
1.0
1001
ACAD
1000
MTEXTBEGIN
1070
    73
1070
     1
1070
    44
1040
1.0
1070
    74
1070
     0
1000
MTEXTEND
  0
POINT
  5
30DC
330
2465
100
AcDbEntity
  8
Defpoints
 62
     0
100
AcDbPoint
 10
60.54612944560745
 20
236.7884900499232
 30
0.0
  0
POINT
  5
30DD
330
2465
100
AcDbEntity
  8
Defpoints
 62
     0
100
AcDbPoint
 10
72.44612944560731
 20
236.7884900499232
 30
0.0
  0
POINT
  5
30DE
330
2465
100
AcDbEntity
  8
Defpoints
 62
     0
100
AcDbPoint
 10
72.44612944560731
 20
236.7884900499232
 30
0.0
  0
ENDBLK
  5
2470
330
2465
100
AcDbEntity
  8
0
100
AcDbBlockEnd
  0
BLOCK
  5
24A2
330
2498
100
AcDbEntity
  8
0
100
AcDbBlockBegin
  2
*D6
 70
     1
 10
0.0
 20
0.0
 30
0.0
  3
*D6
  1

  0
LINE
  5
2E1B
330
2498
100
AcDbEntity
  8
Bemaßung
 62
     0
370
    -2
100
AcDbLine
 10
72.44612944560725
 20
239.4661304081668
 30
0.0
 11
72.44612944560725
 21
240.0911304081668
 31
0.0
  0
LINE
  5
2E1C
330
2498
100
AcDbEntity
  8
Bemaßung
 62
     0
370
    -2
100
AcDbLine
 10
82.14612944560736
 20
239.4661304081668
 30
0.0
 11
82.14612944560736
 21
240.0911304081668
 31
0.0
  0
LINE
  5
2E1D
330
2498
100
AcDbEntity
  8
Bemaßung
 62
     0
370
    -2
100
AcDbLine
 10
72.44612944560725
 20
238.8411304081668
 30
0.0
 11
82.14612944560736
 21
238.8411304081668
 31
0.0
  0
INSERT
  5
2E1E
330
2498
100
AcDbEntity
  8
Bemaßung
 62
     0
370
    -2
100
AcDbBlockReference
  2
_Oblique
 10
72.44612944560725
 20
238.8411304081668
 30
0.0
 41
2.5
 42
2.5
 43
2.5
 50
180.0
  0
INSERT
  5
2E1F
330
2498
100
AcDbEntity
  8
Bemaßung
 62
     0
370
    -2
100
AcDbBlockReference
  2
_Oblique
 10
82.14612944560736
 20
238.8411304081668
 30
0.0
 41
2.5
 42
2.5
 43
2.5
  0
MTEXT
  5
2E20
330
2498
100
AcDbEntity
  8
Bemaßung
 62
     0
100
AcDbMText
 10
77.29612944560731
 20
240.954225646262
 30
0.0
 40
2.5
 41
0.0
 71
     5
 72
     1
  1
9,7
  7
RomanS
 73
     1
 44
1.0
1001
ACAD
1000
MTEXTBEGIN
1070
    73
1070
     1
1070
    44
1040
1.0
1070
    74
1070
     0
1000
MTEXTEND
  0
POINT
  5
2E21
330
2498
100
AcDbEntity
  8
Defpoints
 62
     0
100
AcDbPoint
 10
72.44612944560725
 20
238.8411304081668
 30
0.0
  0
POINT
  5
2E22
330
2498
100
AcDbEntity
  8
Defpoints
 62
     0
100
AcDbPoint
 10
82.14612944560736
 20
238.8411304081668
 30
0.0
  0
POINT
  5
2E23
330
2498
100
AcDbEntity
  8
Defpoints
 62
     0
100
AcDbPoint
 10
82.14612944560736
 20
238.8411304081668
 30
0.0
  0
ENDBLK
  5
24A3
330
2498
100
AcDbEntity
  8
0
100
AcDbBlockEnd
  0
BLOCK
  5
24AF
330
24A5
100
AcDbEntity
  8
0
100
AcDbBlockBegin
  2
*D7
 70
     1
 10
0.0
 20
0.0
 30
0.0
  3
*D7
  1

  0
LINE
  5
30C4
330
24A5
100
AcDbEntity
  8
Bemaßung
 62
     0
370
    -2
100
AcDbLine
 10
82.14612944560736
 20
239.4661304081668
 30
0.0
 11
82.14612944560736
 21
240.0911304081668
 31
0.0
  0
LINE
  5
30C5
330
24A5
100
AcDbEntity
  8
Bemaßung
 62
     0
370
    -2
100
AcDbLine
 10
92.94612944560768
 20
239.4661304081668
 30
0.0
 11
92.94612944560768
 21
240.0911304081668
 31
0.0
  0
LINE
  5
30C6
330
24A5
100
AcDbEntity
  8
Bemaßung
 62
     0
370
    -2
100
AcDbLine
 10
82.14612944560736
 20
238.8411304081668
 30
0.0
 11
92.94612944560768
 21
238.8411304081668
 31
0.0
  0
INSERT
  5
30C7
330
24A5
100
AcDbEntity
  8
Bemaßung
 62
     0
370
    -2
100
AcDbBlockReference
  2
_Oblique
 10
82.14612944560736
 20
238.8411304081668
 30
0.0
 41
2.5
 42
2.5
 43
2.5
 50
180.0
  0
INSERT
  5
30C8
330
24A5
100
AcDbEntity
  8
Bemaßung
 62
     0
370
    -2
100
AcDbBlockReference
  2
_Oblique
 10
92.94612944560768
 20
238.8411304081668
 30
0.0
 41
2.5
 42
2.5
 43
2.5
  0
MTEXT
  5
30C9
330
24A5
100
AcDbEntity
  8
Bemaßung
 62
     0
100
AcDbMText
 10
87.54612944560753
 20
240.954225646262
 30
0.0
 40
2.5
 41
0.0
 71
     5
 72
     1
  1
10,8
  7
RomanS
 73
     1
 44
1.0
1001
ACAD
1000
MTEXTBEGIN
1070
    73
1070
     1
1070
    44
1040
1.0
1070
    74
1070
     0
1000
MTEXTEND
  0
POINT
  5
30CA
330
24A5
100
AcDbEntity
  8
Defpoints
 62
     0
100
AcDbPoint
 10
82.14612944560736
 20
238.8411304081668
 30
0.0
  0
POINT
  5
30CB
330
24A5
100
AcDbEntity
  8
Defpoints
 62
     0
100
AcDbPoint
 10
92.94612944560768
 20
238.8411304081668
 30
0.0
  0
POINT
  5
30CC
330
24A5
100
AcDbEntity
  8
Defpoints
 62
     0
100
AcDbPoint
 10
92.94612944560768
 20
238.8411304081668
 30
0.0
  0
ENDBLK
  5
24B0
330
24A5
100
AcDbEntity
  8
0
100
AcDbBlockEnd
  0
BLOCK
  5
24C7
330
24BD
100
AcDbEntity
  8
0
100
AcDbBlockBegin
  2
*D8
 70
     1
 10
0.0
 20
0.0
 30
0.0
  3
*D8
  1

  0
LINE
  5
30CD
330
24BD
100
AcDbEntity
  8
Bemaßung
 62
     0
370
    -2
100
AcDbLine
 10
92.94612944560768
 20
239.4661304081668
 30
0.0
 11
92.94612944560768
 21
240.0911304081668
 31
0.0
  0
LINE
  5
30CE
330
24BD
100
AcDbEntity
  8
Bemaßung
 62
     0
370
    -2
100
AcDbLine
 10
115.146129445607
 20
239.4661304081668
 30
0.0
 11
115.146129445607
 21
240.0911304081668
 31
0.0
  0
LINE
  5
30CF
330
24BD
100
AcDbEntity
  8
Bemaßung
 62
     0
370
    -2
100
AcDbLine
 10
92.94612944560768
 20
238.8411304081668
 30
0.0
 11
115.146129445607
 21
238.8411304081668
 31
0.0
  0
INSERT
  5
30D0
330
24BD
100
AcDbEntity
  8
Bemaßung
 62
     0
370
    -2
100
AcDbBlockReference
  2
_Oblique
 10
92.94612944560768
 20
238.8411304081668
 30
0.0
 41
2.5
 42
2.5
 43
2.5
 50
180.0
  0
INSERT
  5
30D1
330
24BD
100
AcDbEntity
  8
Bemaßung
 62
     0
370
    -2
100
AcDbBlockReference
  2
_Oblique
 10
115.146129445607
 20
238.8411304081668
 30
0.0
 41
2.5
 42
2.5
 43
2.5
  0
MTEXT
  5
30D2
330
24BD
100
AcDbEntity
  8
Bemaßung
 62
     0
100
AcDbMText
 10
104.0461294456073
 20
240.954225646262
 30
0.0
 40
2.5
 41
0.0
 71
     5
 72
     1
  1
22,2
  7
RomanS
 73
     1
 44
1.0
1001
ACAD
1000
MTEXTBEGIN
1070
    73
1070
     1
1070
    44
1040
1.0
1070
    74
1070
     0
1000
MTEXTEND
  0
POINT
  5
30D3
330
24BD
100
AcDbEntity
  8
Defpoints
 62
     0
100
AcDbPoint
 10
92.94612944560768
 20
238.8411304081668
 30
0.0
  0
POINT
  5
30D4
330
24BD
100
AcDbEntity
  8
Defpoints
 62
     0
100
AcDbPoint
 10
115.146129445607
 20
238.8411304081668
 30
0.0
  0
POINT
  5
30D5
330
24BD
100
AcDbEntity
  8
Defpoints
 62
     0
100
AcDbPoint
 10
115.146129445607
 20
238.8411304081668
 30
0.0
  0
ENDBLK
  5
24C8
330
24BD
100
AcDbEntity
  8
0
100
AcDbBlockEnd
  0
BLOCK
  5
24DF
330
24D5
100
AcDbEntity
  8
0
100
AcDbBlockBegin
  2
*D9
 70
     1
 10
0.0
 20
0.0
 30
0.0
  3
*D9
  1

  0
LINE
  5
2E36
330
24D5
100
AcDbEntity
  8
Bemaßung
 62
     0
370
    -2
100
AcDbLine
 10
120.7579061053695
 20
235.6868051195221
 30
0.0
 11
120.1329061053695
 21
235.6868051195221
 31
0.0
  0
LINE
  5
2E37
330
24D5
100
AcDbEntity
  8
Bemaßung
 62
     0
370
    -2
100
AcDbLine
 10
120.7579061053695
 20
245.6868051195223
 30
0.0
 11
120.1329061053695
 21
245.6868051195223
 31
0.0
  0
LINE
  5
2E38
330
24D5
100
AcDbEntity
  8
Bemaßung
 62
     0
370
    -2
100
AcDbLine
 10
121.3829061053695
 20
235.6868051195221
 30
0.0
 11
121.3829061053695
 21
245.6868051195223
 31
0.0
  0
INSERT
  5
2E39
330
24D5
100
AcDbEntity
  8
Bemaßung
 62
     0
370
    -2
100
AcDbBlockReference
  2
_Oblique
 10
121.3829061053695
 20
235.6868051195221
 30
0.0
 41
2.5
 42
2.5
 43
2.5
 50
270.0
  0
INSERT
  5
2E3A
330
24D5
100
AcDbEntity
  8
Bemaßung
 62
     0
370
    -2
100
AcDbBlockReference
  2
_Oblique
 10
121.3829061053695
 20
245.6868051195223
 30
0.0
 41
2.5
 42
2.5
 43
2.5
 50
90.0
  0
MTEXT
  5
2E3B
330
24D5
100
AcDbEntity
  8
Bemaßung
 62
     0
100
AcDbMText
 10
119.5079061053694
 20
240.6868051195222
 30
0.0
 40
2.5
 41
0.0
 71
     5
 72
     1
  1
10
  7
RomanS
 11
0.0000000000000001
 21
1.0
 31
0.0
 73
     1
 44
1.0
1001
ACAD
1000
MTEXTBEGIN
1070
    73
1070
     1
1070
    44
1040
1.0
1070
    74
1070
     0
1000
MTEXTEND
  0
POINT
  5
2E3C
330
24D5
100
AcDbEntity
  8
Defpoints
 62
     0
100
AcDbPoint
 10
121.3829061053695
 20
235.6868051195221
 30
0.0
  0
POINT
  5
2E3D
330
24D5
100
AcDbEntity
  8
Defpoints
 62
     0
100
AcDbPoint
 10
121.3829061053695
 20
245.6868051195223
 30
0.0
  0
POINT
  5
2E3E
330
24D5
100
AcDbEntity
  8
Defpoints
 62
     0
100
AcDbPoint
 10
121.3829061053695
 20
245.6868051195223
 30
0.0
  0
ENDBLK
  5
24E0
330
24D5
100
AcDbEntity
  8
0
100
AcDbBlockEnd
  0
BLOCK
  5
2511
330
2507
100
AcDbEntity
  8
0
100
AcDbBlockBegin
  2
*D10
 70
     1
 10
0.0
 20
0.0
 30
0.0
  3
*D10
  1

  0
LINE
  5
2E3F
330
2507
100
AcDbEntity
  8
Bemaßung
 62
     0
370
    -2
100
AcDbLine
 10
77.09614792003276
 20
206.6868051195221
 30
0.0
 11
76.47114792003276
 21
206.6868051195221
 31
0.0
  0
LINE
  5
2E40
330
2507
100
AcDbEntity
  8
Bemaßung
 62
     0
370
    -2
100
AcDbLine
 10
77.09614792003276
 20
215.6868051195222
 30
0.0
 11
76.47114792003276
 21
215.6868051195222
 31
0.0
  0
LINE
  5
2E41
330
2507
100
AcDbEntity
  8
Bemaßung
 62
     0
370
    -2
100
AcDbLine
 10
77.72114792003276
 20
206.6868051195221
 30
0.0
 11
77.72114792003276
 21
215.6868051195222
 31
0.0
  0
INSERT
  5
2E42
330
2507
100
AcDbEntity
  8
Bemaßung
 62
     0
370
    -2
100
AcDbBlockReference
  2
_Oblique
 10
77.72114792003276
 20
206.6868051195221
 30
0.0
 41
2.5
 42
2.5
 43
2.5
 50
270.0
  0
INSERT
  5
2E43
330
2507
100
AcDbEntity
  8
Bemaßung
 62
     0
370
    -2
100
AcDbBlockReference
  2
_Oblique
 10
77.72114792003276
 20
215.6868051195222
 30
0.0
 41
2.5
 42
2.5
 43
2.5
 50
90.0
  0
MTEXT
  5
2E44
330
2507
100
AcDbEntity
  8
Bemaßung
 62
     0
100
AcDbMText
 10
75.84614792003273
 20
211.1868051195222
 30
0.0
 40
2.5
 41
0.0
 71
     5
 72
     1
  1
9
  7
RomanS
 11
0.0000000000000001
 21
1.0
 31
0.0
 73
     1
 44
1.0
1001
ACAD
1000
MTEXTBEGIN
1070
    73
1070
     1
1070
    44
1040
1.0
1070
    74
1070
     0
1000
MTEXTEND
  0
POINT
  5
2E45
330
2507
100
AcDbEntity
  8
Defpoints
 62
     0
100
AcDbPoint
 10
77.72114792003276
 20
206.6868051195221
 30
0.0
  0
POINT
  5
2E46
330
2507
100
AcDbEntity
  8
Defpoints
 62
     0
100
AcDbPoint
 10
77.72114792003276
 20
215.6868051195222
 30
0.0
  0
POINT
  5
2E47
330
2507
100
AcDbEntity
  8
Defpoints
 62
     0
100
AcDbPoint
 10
77.72114792003276
 20
215.6868051195222
 30
0.0
  0
ENDBLK
  5
2512
330
2507
100
AcDbEntity
  8
0
100
AcDbBlockEnd
  0
BLOCK
  5
2620
330
261F
100
AcDbEntity
  8
0
100
AcDbBlockBegin
  2
I-Verbr30mm
 70
     0
 10
0.0
 20
0.0
 30
0.0
  3
I-Verbr30mm
  1

  0
LWPOLYLINE
  5
264C
330
261F
100
AcDbEntity
  8
0
100
AcDbPolyline
 90
        4
 70
     1
 43
0.0
 10
-25.2
 20
0.0
 10
-5.199999999999993
 20
0.0
 10
-5.199999999999993
 20
20.0
 10
-25.2
 20
20.0
1001
AcDbBlockRepETag
1070
     1
1071
        0
1005
264C
  0
LWPOLYLINE
  5
264D
330
261F
100
AcDbEntity
  8
0
100
AcDbPolyline
 90
        4
 70
     1
 43
0.0
 10
-24.45999999999999
 20
1.089999999999986
 10
-5.940000000000002
 20
1.089999999999986
 10
-5.940000000000002
 20
19.25999999999999
 10
-24.45999999999999
 20
19.25999999999999
1001
AcDbBlockRepETag
1070
     1
1071
        1
1005
264D
  0
LWPOLYLINE
  5
264E
330
261F
100
AcDbEntity
  8
0
100
AcDbPolyline
 90
        4
 70
     1
 43
0.0
 10
-23.30000000000001
 20
2.25
 10
-7.099999999999972
 20
2.25
 10
-7.099999999999972
 20
18.09999999999998
 10
-23.30000000000001
 20
18.09999999999998
1001
AcDbBlockRepETag
1070
     1
1071
        2
1005
264E
  0
LWPOLYLINE
  5
264F
330
261F
100
AcDbEntity
  8
0
100
AcDbPolyline
 90
        4
 70
     1
 43
0.0
 10
-22.90000000000005
 20
2.64999999999999
 10
-7.499999999999946
 20
2.64999999999999
 10
-7.499999999999946
 20
17.69999999999999
 10
-22.90000000000005
 20
17.69999999999999
1001
AcDbBlockRepETag
1070
     1
1071
        3
1005
264F
  0
LINE
  5
2650
330
261F
100
AcDbEntity
  8
0
100
AcDbLine
 10
-24.45999999999999
 20
1.209999999999987
 30
0.0
 11
-25.2
 21
1.209999999999987
 31
0.0
1001
AcDbBlockRepETag
1070
     1
1071
        4
1005
2650
  0
LINE
  5
2651
330
261F
100
AcDbEntity
  8
0
100
AcDbLine
 10
-5.940000000000002
 20
1.209999999999987
 30
0.0
 11
-5.199999999999993
 21
1.209999999999987
 31
0.0
1001
AcDbBlockRepETag
1070
     1
1071
        5
1005
2651
  0
LINE
  5
2652
330
261F
100
AcDbEntity
  8
0
100
AcDbLine
 10
-25.2
 20
19.13999999999998
 30
0.0
 11
-24.45999999999999
 21
19.13999999999998
 31
0.0
1001
AcDbBlockRepETag
1070
     1
1071
        6
1005
2652
  0
LINE
  5
2653
330
261F
100
AcDbEntity
  8
0
100
AcDbLine
 10
-5.940000000000002
 20
19.13999999999998
 30
0.0
 11
-5.199999999999993
 21
19.13999999999998
 31
0.0
1001
AcDbBlockRepETag
1070
     1
1071
        7
1005
2653
  0
LINE
  5
2654
330
261F
100
AcDbEntity
  8
0
100
AcDbLine
 10
-23.30000000000001
 20
18.09999999999998
 30
0.0
 11
-23.30000000000001
 21
19.25999999999999
 31
0.0
1001
AcDbBlockRepETag
1070
     1
1071
        8
1005
2654
  0
LINE
  5
2655
330
261F
100
AcDbEntity
  8
0
100
AcDbLine
 10
-23.30000000000001
 20
2.25
 30
0.0
 11
-23.30000000000001
 21
1.089999999999986
 31
0.0
1001
AcDbBlockRepETag
1070
     1
1071
        9
1005
2655
  0
LINE
  5
2656
330
261F
100
AcDbEntity
  8
0
100
AcDbLine
 10
-7.099999999999972
 20
2.25
 30
0.0
 11
-7.099999999999972
 21
1.089999999999986
 31
0.0
1001
AcDbBlockRepETag
1070
     1
1071
       10
1005
2656
  0
LINE
  5
2657
330
261F
100
AcDbEntity
  8
0
100
AcDbLine
 10
-7.099999999999972
 20
18.09999999999998
 30
0.0
 11
-7.099999999999972
 21
19.25999999999999
 31
0.0
1001
AcDbBlockRepETag
1070
     1
1071
       11
1005
2657
  0
LINE
  5
2658
330
261F
100
AcDbEntity
  8
0
100
AcDbLine
 10
-7.499999999999946
 20
17.69999999999999
 30
0.0
 11
-7.099999999999972
 21
18.09999999999998
 31
0.0
1001
AcDbBlockRepETag
1070
     1
1071
       12
1005
2658
  0
LINE
  5
2659
330
261F
100
AcDbEntity
  8
0
100
AcDbLine
 10
-22.90000000000005
 20
17.69999999999999
 30
0.0
 11
-23.30000000000001
 21
18.09999999999998
 31
0.0
1001
AcDbBlockRepETag
1070
     1
1071
       13
1005
2659
  0
LINE
  5
265A
330
261F
100
AcDbEntity
  8
0
100
AcDbLine
 10
-23.30000000000001
 20
2.25
 30
0.0
 11
-22.90000000000005
 21
2.64999999999999
 31
0.0
1001
AcDbBlockRepETag
1070
     1
1071
       14
1005
265A
  0
LINE
  5
265B
330
261F
100
AcDbEntity
  8
0
100
AcDbLine
 10
-7.099999999999972
 20
2.25
 30
0.0
 11
-7.499999999999946
 21
2.64999999999999
 31
0.0
1001
AcDbBlockRepETag
1070
     1
1071
       15
1005
265B
  0
LINE
  5
265C
330
261F
100
AcDbEntity
  8
Schraffur
100
AcDbLine
 10
-5.940000000000002
 20
19.25999999999999
 30
0.0
 11
-24.45999999999999
 21
10.17499999999998
 31
0.0
1001
AcDbBlockRepETag
1070
     1
1071
       16
1005
265C
  0
LINE
  5
265D
330
261F
100
AcDbEntity
  8
Schraffur
100
AcDbLine
 10
-24.45999999999999
 20
10.17499999999998
 30
0.0
 11
-5.940000000000002
 21
1.089999999999986
 31
0.0
1001
AcDbBlockRepETag
1070
     1
1071
       17
1005
265D
  0
LINE
  5
265E
330
261F
100
AcDbEntity
  8
Schraffur
100
AcDbLine
 10
-5.940000000000002
 20
1.089999999999986
 30
0.0
 11
-15.19999999999999
 21
19.25999999999999
 31
0.0
1001
AcDbBlockRepETag
1070
     1
1071
       18
1005
265E
  0
LINE
  5
265F
330
261F
100
AcDbEntity
  8
Schraffur
100
AcDbLine
 10
-15.19999999999999
 20
19.25999999999999
 30
0.0
 11
-24.45999999999999
 21
1.089999999999986
 31
0.0
1001
AcDbBlockRepETag
1070
     1
1071
       19
1005
265F
  0
MTEXT
  5
2660
330
261F
100
AcDbEntity
  8
0
100
AcDbMText
 10
-22.33758549649833
 20
4.428533288152491
 30
0.0
 40
1.5
 41
18.74045823417145
 71
     1
 72
     5
  1
M1:50
  7
RomanS
 73
     1
 44
1.0
1001
AcDbBlockRepETag
1070
     1
1071
       20
1005
2660
1001
ACAD
1000
MTEXTBEGIN
1070
    73
1070
     1
1070
    44
1040
1.0
1070
    74
1070
     0
1000
MTEXTEND
  0
LWPOLYLINE
  5
2661
330
261F
100
AcDbEntity
  8
0
100
AcDbPolyline
 90
        4
 70
     0
 43
0.0
 10
-25.2
 20
20.0
 10
-25.2
 20
20.6
 10
-5.199999999999993
 20
20.6
 10
-5.199999999999993
 20
20.0
1001
AcDbBlockRepETag
1070
     1
1071
       21
1005
2661
  0
LWPOLYLINE
  5
2662
330
261F
100
AcDbEntity
  8
0
100
AcDbPolyline
 90
        4
 70
     0
 43
0.0
 10
-25.2
 20
20.6
 10
-25.2
 20
21.2
 10
-5.199999999999993
 20
21.2
 10
-5.199999999999993
 20
20.6
1001
AcDbBlockRepETag
1070
     1
1071
       22
1005
2662
  0
LWPOLYLINE
  5
2663
330
261F
100
AcDbEntity
  8
0
100
AcDbPolyline
 90
        4
 70
     0
 43
0.0
 10
-5.199999999999993
 20
21.2
 10
-4.599999999999994
 20
21.2
 10
-4.599999999999996
 20
0.0
 10
-5.199999999999998
 20
0.0
1001
AcDbBlockRepETag
1070
     1
1071
       23
1005
2663
  0
LWPOLYLINE
  5
2664
330
261F
100
AcDbEntity
  8
0
100
AcDbPolyline
 90
        4
 70
     0
 43
0.0
 10
-4.599999999999994
 20
21.2
 10
-3.999999999999996
 20
21.2
 10
-4.0
 20
0.0
 10
-4.599999999999996
 20
0.0
1001
AcDbBlockRepETag
1070
     1
1071
       24
1005
2664
  0
ENDBLK
  5
2621
330
261F
100
AcDbEntity
  8
0
100
AcDbBlockEnd
  0
BLOCK
  5
2AC5
330
2ABB
100
AcDbEntity
  8
0
100
AcDbBlockBegin
  2
*D12
 70
     1
 10
0.0
 20
0.0
 30
0.0
  3
*D12
  1

  0
LINE
  5
2E48
330
2ABB
100
AcDbEntity
  8
Bemaßung
 62
     0
370
    -2
100
AcDbLine
 10
88.12113158711088
 20
118.6868051195214
 30
0.0
 11
87.49613158711063
 21
118.6868051195214
 31
0.0
  0
LINE
  5
2E49
330
2ABB
100
AcDbEntity
  8
Bemaßung
 62
     0
370
    -2
100
AcDbLine
 10
88.12113158711063
 20
122.6868051195214
 30
0.0
 11
87.49613158711063
 21
122.6868051195214
 31
0.0
  0
LINE
  5
2E4A
330
2ABB
100
AcDbEntity
  8
Bemaßung
 62
     0
370
    -2
100
AcDbLine
 10
88.74613158711063
 20
118.6868051195214
 30
0.0
 11
88.74613158711063
 21
122.6868051195214
 31
0.0
  0
INSERT
  5
2E4B
330
2ABB
100
AcDbEntity
  8
Bemaßung
 62
     0
370
    -2
100
AcDbBlockReference
  2
_Oblique
 10
88.74613158711063
 20
118.6868051195214
 30
0.0
 41
2.5
 42
2.5
 43
2.5
 50
270.0
  0
INSERT
  5
2E4C
330
2ABB
100
AcDbEntity
  8
Bemaßung
 62
     0
370
    -2
100
AcDbBlockReference
  2
_Oblique
 10
88.74613158711063
 20
122.6868051195214
 30
0.0
 41
2.5
 42
2.5
 43
2.5
 50
90.0
  0
MTEXT
  5
2E4D
330
2ABB
100
AcDbEntity
  8
Bemaßung
 62
     0
100
AcDbMText
 10
86.87113158711063
 20
120.6868051195214
 30
0.0
 40
2.5
 41
0.0
 71
     5
 72
     1
  1
4
  7
RomanS
 11
0.0000000000000001
 21
1.0
 31
0.0
 73
     1
 44
1.0
1001
ACAD
1000
MTEXTBEGIN
1070
    73
1070
     1
1070
    44
1040
1.0
1070
    74
1070
     0
1000
MTEXTEND
  0
POINT
  5
2E4E
330
2ABB
100
AcDbEntity
  8
Defpoints
 62
     0
100
AcDbPoint
 10
88.74613158711088
 20
118.6868051195214
 30
0.0
  0
POINT
  5
2E4F
330
2ABB
100
AcDbEntity
  8
Defpoints
 62
     0
100
AcDbPoint
 10
88.74613158711063
 20
122.6868051195214
 30
0.0
  0
POINT
  5
2E50
330
2ABB
100
AcDbEntity
  8
Defpoints
 62
     0
100
AcDbPoint
 10
88.74613158711063
 20
122.6868051195214
 30
0.0
  0
ENDBLK
  5
2AC6
330
2ABB
100
AcDbEntity
  8
0
100
AcDbBlockEnd
  0
BLOCK
  5
2AD1
330
2AC7
100
AcDbEntity
  8
0
100
AcDbBlockBegin
  2
*D13
 70
     1
 10
0.0
 20
0.0
 30
0.0
  3
*D13
  1

  0
LINE
  5
2E51
330
2AC7
100
AcDbEntity
  8
Bemaßung
 62
     0
370
    -2
100
AcDbLine
 10
124.2610541840449
 20
130.6868051195219
 30
0.0
 11
123.6360541840447
 21
130.6868051195219
 31
0.0
  0
LINE
  5
2E52
330
2AC7
100
AcDbEntity
  8
Bemaßung
 62
     0
370
    -2
100
AcDbLine
 10
124.2610541840448
 20
142.6868051195214
 30
0.0
 11
123.6360541840447
 21
142.6868051195214
 31
0.0
  0
LINE
  5
2E53
330
2AC7
100
AcDbEntity
  8
Bemaßung
 62
     0
370
    -2
100
AcDbLine
 10
124.8860541840448
 20
130.6868051195219
 30
0.0
 11
124.8860541840448
 21
142.6868051195214
 31
0.0
  0
INSERT
  5
2E54
330
2AC7
100
AcDbEntity
  8
Bemaßung
 62
     0
370
    -2
100
AcDbBlockReference
  2
_Oblique
 10
124.8860541840448
 20
130.6868051195219
 30
0.0
 41
2.5
 42
2.5
 43
2.5
 50
270.0
  0
INSERT
  5
2E55
330
2AC7
100
AcDbEntity
  8
Bemaßung
 62
     0
370
    -2
100
AcDbBlockReference
  2
_Oblique
 10
124.8860541840448
 20
142.6868051195214
 30
0.0
 41
2.5
 42
2.5
 43
2.5
 50
90.0
  0
MTEXT
  5
2E56
330
2AC7
100
AcDbEntity
  8
Bemaßung
 62
     0
100
AcDbMText
 10
123.0110541840447
 20
136.6868051195217
 30
0.0
 40
2.5
 41
0.0
 71
     5
 72
     1
  1
12
  7
RomanS
 11
0.0000000000000001
 21
1.0
 31
0.0
 73
     1
 44
1.0
1001
ACAD
1000
MTEXTBEGIN
1070
    73
1070
     1
1070
    44
1040
1.0
1070
    74
1070
     0
1000
MTEXTEND
  0
POINT
  5
2E57
330
2AC7
100
AcDbEntity
  8
Defpoints
 62
     0
100
AcDbPoint
 10
124.8860541840449
 20
130.6868051195219
 30
0.0
  0
POINT
  5
2E58
330
2AC7
100
AcDbEntity
  8
Defpoints
 62
     0
100
AcDbPoint
 10
124.8860541840448
 20
142.6868051195214
 30
0.0
  0
POINT
  5
2E59
330
2AC7
100
AcDbEntity
  8
Defpoints
 62
     0
100
AcDbPoint
 10
124.8860541840448
 20
142.6868051195214
 30
0.0
  0
ENDBLK
  5
2AD2
330
2AC7
100
AcDbEntity
  8
0
100
AcDbBlockEnd
  0
BLOCK
  5
2ADD
330
2AD3
100
AcDbEntity
  8
0
100
AcDbBlockBegin
  2
*D14
 70
     1
 10
0.0
 20
0.0
 30
0.0
  3
*D14
  1

  0
LINE
  5
2E99
330
2AD3
100
AcDbEntity
  8
Bemaßung
 62
     0
370
    -2
100
AcDbLine
 10
148.6711294456065
 20
185.6868051195221
 30
0.0
 11
148.0461294456065
 21
185.6868051195221
 31
0.0
  0
LINE
  5
2E9A
330
2AD3
100
AcDbEntity
  8
Bemaßung
 62
     0
370
    -2
100
AcDbLine
 10
148.6711294456065
 20
148.686805119522
 30
0.0
 11
148.0461294456065
 21
148.686805119522
 31
0.0
  0
LINE
  5
2E9B
330
2AD3
100
AcDbEntity
  8
Bemaßung
 62
     0
370
    -2
100
AcDbLine
 10
149.2961294456065
 20
185.6868051195221
 30
0.0
 11
149.2961294456065
 21
148.686805119522
 31
0.0
  0
INSERT
  5
2E9C
330
2AD3
100
AcDbEntity
  8
Bemaßung
 62
     0
370
    -2
100
AcDbBlockReference
  2
_Oblique
 10
149.2961294456065
 20
185.6868051195221
 30
0.0
 41
2.5
 42
2.5
 43
2.5
 50
90.0
  0
INSERT
  5
2E9D
330
2AD3
100
AcDbEntity
  8
Bemaßung
 62
     0
370
    -2
100
AcDbBlockReference
  2
_Oblique
 10
149.2961294456065
 20
148.686805119522
 30
0.0
 41
2.5
 42
2.5
 43
2.5
 50
270.0
  0
MTEXT
  5
2E9E
330
2AD3
100
AcDbEntity
  8
Bemaßung
 62
     0
100
AcDbMText
 10
147.4211294456065
 20
167.1868051195221
 30
0.0
 40
2.5
 41
0.0
 71
     5
 72
     1
  1
37
  7
RomanS
 11
0.0000000000000001
 21
1.0
 31
0.0
 73
     1
 44
1.0
1001
ACAD
1000
MTEXTBEGIN
1070
    73
1070
     1
1070
    44
1040
1.0
1070
    74
1070
     0
1000
MTEXTEND
  0
POINT
  5
2E9F
330
2AD3
100
AcDbEntity
  8
Defpoints
 62
     0
100
AcDbPoint
 10
149.2961294456065
 20
185.6868051195221
 30
0.0
  0
POINT
  5
2EA0
330
2AD3
100
AcDbEntity
  8
Defpoints
 62
     0
100
AcDbPoint
 10
149.2961294456065
 20
148.686805119522
 30
0.0
  0
POINT
  5
2EA1
330
2AD3
100
AcDbEntity
  8
Defpoints
 62
     0
100
AcDbPoint
 10
149.2961294456065
 20
148.686805119522
 30
0.0
  0
ENDBLK
  5
2ADE
330
2AD3
100
AcDbEntity
  8
0
100
AcDbBlockEnd
  0
BLOCK
  5
2AE9
330
2ADF
100
AcDbEntity
  8
0
100
AcDbBlockBegin
  2
*D15
 70
     1
 10
0.0
 20
0.0
 30
0.0
  3
*D15
  1

  0
LINE
  5
2E63
330
2ADF
100
AcDbEntity
  8
Bemaßung
 62
     0
370
    -2
100
AcDbLine
 10
155.046129445607
 20
128.0343013810541
 30
0.0
 11
155.046129445607
 21
128.6593013810541
 31
0.0
  0
LINE
  5
2E64
330
2ADF
100
AcDbEntity
  8
Bemaßung
 62
     0
370
    -2
100
AcDbLine
 10
138.5461294456069
 20
129.0659151630063
 30
0.0
 11
138.5461294456069
 21
126.1593013810541
 31
0.0
  0
LINE
  5
2E65
330
2ADF
100
AcDbEntity
  8
Bemaßung
 62
     0
370
    -2
100
AcDbLine
 10
155.046129445607
 20
127.4093013810541
 30
0.0
 11
138.5461294456069
 21
127.4093013810541
 31
0.0
  0
INSERT
  5
2E66
330
2ADF
100
AcDbEntity
  8
Bemaßung
 62
     0
370
    -2
100
AcDbBlockReference
  2
_Oblique
 10
155.046129445607
 20
127.4093013810541
 30
0.0
 41
2.5
 42
2.5
 43
2.5
  0
INSERT
  5
2E67
330
2ADF
100
AcDbEntity
  8
Bemaßung
 62
     0
370
    -2
100
AcDbBlockReference
  2
_Oblique
 10
138.5461294456069
 20
127.4093013810541
 30
0.0
 41
2.5
 42
2.5
 43
2.5
 50
180.0
  0
MTEXT
  5
2E68
330
2ADF
100
AcDbEntity
  8
Bemaßung
 62
     0
100
AcDbMText
 10
146.796129445607
 20
129.5223966191493
 30
0.0
 40
2.5
 41
0.0
 71
     5
 72
     1
  1
16,5
  7
RomanS
 73
     1
 44
1.0
1001
ACAD
1000
MTEXTBEGIN
1070
    73
1070
     1
1070
    44
1040
1.0
1070
    74
1070
     0
1000
MTEXTEND
  0
POINT
  5
2E69
330
2ADF
100
AcDbEntity
  8
Defpoints
 62
     0
100
AcDbPoint
 10
155.046129445607
 20
127.4093013810541
 30
0.0
  0
POINT
  5
2E6A
330
2ADF
100
AcDbEntity
  8
Defpoints
 62
     0
100
AcDbPoint
 10
138.5461294456069
 20
129.6909151630063
 30
0.0
  0
POINT
  5
2E6B
330
2ADF
100
AcDbEntity
  8
Defpoints
 62
     0
100
AcDbPoint
 10
138.5461294456069
 20
127.4093013810541
 30
0.0
  0
ENDBLK
  5
2AEA
330
2ADF
100
AcDbEntity
  8
0
100
AcDbBlockEnd
  0
BLOCK
  5
2AF5
330
2AEB
100
AcDbEntity
  8
0
100
AcDbBlockBegin
  2
*D16
 70
     1
 10
0.0
 20
0.0
 30
0.0
  3
*D16
  1

  0
LINE
  5
2E6C
330
2AEB
100
AcDbEntity
  8
Bemaßung
 62
     0
370
    -2
100
AcDbLine
 10
72.76873394201287
 20
88.68680511952231
 30
0.0
 11
66.41911465762973
 21
88.68680511952231
 31
0.0
  0
LINE
  5
2E6D
330
2AEB
100
AcDbEntity
  8
Bemaßung
 62
     0
370
    -2
100
AcDbLine
 10
73.85913384423131
 20
70.68680511952198
 30
0.0
 11
66.41911465762973
 21
70.68680511952198
 31
0.0
  0
LINE
  5
2E6E
330
2AEB
100
AcDbEntity
  8
Bemaßung
 62
     0
370
    -2
100
AcDbLine
 10
67.66911465762973
 20
88.68680511952231
 30
0.0
 11
67.66911465762973
 21
70.68680511952198
 31
0.0
  0
INSERT
  5
2E6F
330
2AEB
100
AcDbEntity
  8
Bemaßung
 62
     0
370
    -2
100
AcDbBlockReference
  2
_Oblique
 10
67.66911465762973
 20
88.68680511952231
 30
0.0
 41
2.5
 42
2.5
 43
2.5
 50
90.0
  0
INSERT
  5
2E70
330
2AEB
100
AcDbEntity
  8
Bemaßung
 62
     0
370
    -2
100
AcDbBlockReference
  2
_Oblique
 10
67.66911465762973
 20
70.68680511952198
 30
0.0
 41
2.5
 42
2.5
 43
2.5
 50
270.0
  0
MTEXT
  5
2E71
330
2AEB
100
AcDbEntity
  8
Bemaßung
 62
     0
100
AcDbMText
 10
65.79411465762972
 20
79.68680511952214
 30
0.0
 40
2.5
 41
0.0
 71
     5
 72
     1
  1
18
  7
RomanS
 11
0.0000000000000001
 21
1.0
 31
0.0
 73
     1
 44
1.0
1001
ACAD
1000
MTEXTBEGIN
1070
    73
1070
     1
1070
    44
1040
1.0
1070
    74
1070
     0
1000
MTEXTEND
  0
POINT
  5
2E72
330
2AEB
100
AcDbEntity
  8
Defpoints
 62
     0
100
AcDbPoint
 10
73.39373394201287
 20
88.68680511952231
 30
0.0
  0
POINT
  5
2E73
330
2AEB
100
AcDbEntity
  8
Defpoints
 62
     0
100
AcDbPoint
 10
74.48413384423131
 20
70.68680511952198
 30
0.0
  0
POINT
  5
2E74
330
2AEB
100
AcDbEntity
  8
Defpoints
 62
     0
100
AcDbPoint
 10
67.66911465762973
 20
70.68680511952198
 30
0.0
  0
ENDBLK
  5
2AF6
330
2AEB
100
AcDbEntity
  8
0
100
AcDbBlockEnd
  0
BLOCK
  5
2B01
330
2AF7
100
AcDbEntity
  8
0
100
AcDbBlockBegin
  2
*D17
 70
     1
 10
0.0
 20
0.0
 30
0.0
  3
*D17
  1

  0
LINE
  5
2E75
330
2AF7
100
AcDbEntity
  8
Bemaßung
 62
     0
370
    -2
100
AcDbLine
 10
76.54612944560743
 20
105.298470956312
 30
0.0
 11
76.54612944560743
 21
102.0829101584008
 31
0.0
  0
LINE
  5
2E76
330
2AF7
100
AcDbEntity
  8
Bemaßung
 62
     0
370
    -2
100
AcDbLine
 10
60.54612944560743
 20
107.0618051195218
 30
0.0
 11
60.54612944560743
 21
102.0829101584008
 31
0.0
  0
LINE
  5
2E77
330
2AF7
100
AcDbEntity
  8
Bemaßung
 62
     0
370
    -2
100
AcDbLine
 10
76.54612944560743
 20
103.3329101584008
 30
0.0
 11
60.54612944560743
 21
103.3329101584008
 31
0.0
  0
INSERT
  5
2E78
330
2AF7
100
AcDbEntity
  8
Bemaßung
 62
     0
370
    -2
100
AcDbBlockReference
  2
_Oblique
 10
76.54612944560743
 20
103.3329101584008
 30
0.0
 41
2.5
 42
2.5
 43
2.5
  0
INSERT
  5
2E79
330
2AF7
100
AcDbEntity
  8
Bemaßung
 62
     0
370
    -2
100
AcDbBlockReference
  2
_Oblique
 10
60.54612944560743
 20
103.3329101584008
 30
0.0
 41
2.5
 42
2.5
 43
2.5
 50
180.0
  0
MTEXT
  5
2E7A
330
2AF7
100
AcDbEntity
  8
Bemaßung
 62
     0
100
AcDbMText
 10
68.54612944560743
 20
105.2079101584008
 30
0.0
 40
2.5
 41
0.0
 71
     5
 72
     1
  1
16
  7
RomanS
 73
     1
 44
1.0
1001
ACAD
1000
MTEXTBEGIN
1070
    73
1070
     1
1070
    44
1040
1.0
1070
    74
1070
     0
1000
MTEXTEND
  0
POINT
  5
2E7B
330
2AF7
100
AcDbEntity
  8
Defpoints
 62
     0
100
AcDbPoint
 10
76.54612944560743
 20
105.923470956312
 30
0.0
  0
POINT
  5
2E7C
330
2AF7
100
AcDbEntity
  8
Defpoints
 62
     0
100
AcDbPoint
 10
60.54612944560743
 20
107.6868051195218
 30
0.0
  0
POINT
  5
2E7D
330
2AF7
100
AcDbEntity
  8
Defpoints
 62
     0
100
AcDbPoint
 10
60.54612944560743
 20
103.3329101584008
 30
0.0
  0
ENDBLK
  5
2B02
330
2AF7
100
AcDbEntity
  8
0
100
AcDbBlockEnd
  0
BLOCK
  5
2B0D
330
2B03
100
AcDbEntity
  8
0
100
AcDbBlockBegin
  2
*D18
 70
     1
 10
0.0
 20
0.0
 30
0.0
  3
*D18
  1

  0
LINE
  5
2E7E
330
2B03
100
AcDbEntity
  8
Bemaßung
 62
     0
370
    -2
100
AcDbLine
 10
59.92112944560743
 20
107.6868051195218
 30
0.0
 11
55.24029047189127
 21
107.6868051195218
 31
0.0
  0
LINE
  5
2E7F
330
2B03
100
AcDbEntity
  8
Bemaßung
 62
     0
370
    -2
100
AcDbLine
 10
55.86529047189127
 20
114.754655468926
 30
0.0
 11
55.24029047189127
 21
114.754655468926
 31
0.0
  0
LINE
  5
2E80
330
2B03
100
AcDbEntity
  8
Bemaßung
 62
     0
370
    -2
100
AcDbLine
 10
56.49029047189127
 20
107.6868051195218
 30
0.0
 11
56.49029047189127
 21
114.754655468926
 31
0.0
  0
INSERT
  5
2E81
330
2B03
100
AcDbEntity
  8
Bemaßung
 62
     0
370
    -2
100
AcDbBlockReference
  2
_Oblique
 10
56.49029047189127
 20
107.6868051195218
 30
0.0
 41
2.5
 42
2.5
 43
2.5
 50
270.0
  0
INSERT
  5
2E82
330
2B03
100
AcDbEntity
  8
Bemaßung
 62
     0
370
    -2
100
AcDbBlockReference
  2
_Oblique
 10
56.49029047189127
 20
114.754655468926
 30
0.0
 41
2.5
 42
2.5
 43
2.5
 50
90.0
  0
MTEXT
  5
2E83
330
2B03
100
AcDbEntity
  8
Bemaßung
 62
     0
100
AcDbMText
 10
54.37719523379602
 20
111.2207302942239
 30
0.0
 40
2.5
 41
0.0
 71
     5
 72
     1
  1
7,1
  7
RomanS
 11
0.0000000000000001
 21
1.0
 31
0.0
 73
     1
 44
1.0
1001
ACAD
1000
MTEXTBEGIN
1070
    73
1070
     1
1070
    44
1040
1.0
1070
    74
1070
     0
1000
MTEXTEND
  0
POINT
  5
2E84
330
2B03
100
AcDbEntity
  8
Defpoints
 62
     0
100
AcDbPoint
 10
60.54612944560743
 20
107.6868051195218
 30
0.0
  0
POINT
  5
2E85
330
2B03
100
AcDbEntity
  8
Defpoints
 62
     0
100
AcDbPoint
 10
56.49029047189127
 20
114.754655468926
 30
0.0
  0
POINT
  5
2E86
330
2B03
100
AcDbEntity
  8
Defpoints
 62
     0
100
AcDbPoint
 10
56.49029047189127
 20
114.754655468926
 30
0.0
  0
ENDBLK
  5
2B0E
330
2B03
100
AcDbEntity
  8
0
100
AcDbBlockEnd
  0
BLOCK
  5
2D6E
330
2D64
100
AcDbEntity
  8
0
100
AcDbBlockBegin
  2
*D19
 70
     1
 10
0.0
 20
0.0
 30
0.0
  3
*D19
  1

  0
LINE
  5
2E87
330
2D64
100
AcDbEntity
  8
Bemaßung
 62
     0
370
    -2
100
AcDbLine
 10
124.2610541840448
 20
130.6868051195219
 30
0.0
 11
123.6360541840447
 21
130.6868051195219
 31
0.0
  0
LINE
  5
2E88
330
2D64
100
AcDbEntity
  8
Bemaßung
 62
     0
370
    -2
100
AcDbLine
 10
124.2610541840448
 20
122.6868051195219
 30
0.0
 11
123.6360541840447
 21
122.6868051195219
 31
0.0
  0
LINE
  5
2E89
330
2D64
100
AcDbEntity
  8
Bemaßung
 62
     0
370
    -2
100
AcDbLine
 10
124.8860541840448
 20
130.6868051195219
 30
0.0
 11
124.8860541840448
 21
122.6868051195219
 31
0.0
  0
INSERT
  5
2E8A
330
2D64
100
AcDbEntity
  8
Bemaßung
 62
     0
370
    -2
100
AcDbBlockReference
  2
_Oblique
 10
124.8860541840448
 20
130.6868051195219
 30
0.0
 41
2.5
 42
2.5
 43
2.5
 50
90.0
  0
INSERT
  5
2E8B
330
2D64
100
AcDbEntity
  8
Bemaßung
 62
     0
370
    -2
100
AcDbBlockReference
  2
_Oblique
 10
124.8860541840448
 20
122.6868051195219
 30
0.0
 41
2.5
 42
2.5
 43
2.5
 50
270.0
  0
MTEXT
  5
2E8C
330
2D64
100
AcDbEntity
  8
Bemaßung
 62
     0
100
AcDbMText
 10
123.0110541840447
 20
126.6868051195219
 30
0.0
 40
2.5
 41
0.0
 71
     5
 72
     1
  1
8
  7
RomanS
 11
0.0000000000000001
 21
1.0
 31
0.0
 73
     1
 44
1.0
1001
ACAD
1000
MTEXTBEGIN
1070
    73
1070
     1
1070
    44
1040
1.0
1070
    74
1070
     0
1000
MTEXTEND
  0
POINT
  5
2E8D
330
2D64
100
AcDbEntity
  8
Defpoints
 62
     0
100
AcDbPoint
 10
124.8860541840448
 20
130.6868051195219
 30
0.0
  0
POINT
  5
2E8E
330
2D64
100
AcDbEntity
  8
Defpoints
 62
     0
100
AcDbPoint
 10
124.8860541840448
 20
122.6868051195219
 30
0.0
  0
POINT
  5
2E8F
330
2D64
100
AcDbEntity
  8
Defpoints
 62
     0
100
AcDbPoint
 10
124.8860541840448
 20
122.6868051195219
 30
0.0
  0
ENDBLK
  5
2D6F
330
2D64
100
AcDbEntity
  8
0
100
AcDbBlockEnd
  0
BLOCK
  5
2EAD
330
2EA3
100
AcDbEntity
  8
0
100
AcDbBlockBegin
  2
*D20
 70
     1
 10
0.0
 20
0.0
 30
0.0
  3
*D20
  1

  0
LINE
  5
2ECC
330
2EA3
100
AcDbEntity
  8
Bemaßung
 62
     0
370
    -2
100
AcDbLine
 10
160.743081436192
 20
148.6868051195214
 30
0.0
 11
160.118081436192
 21
148.6868051195214
 31
0.0
  0
LINE
  5
2ECD
330
2EA3
100
AcDbEntity
  8
Bemaßung
 62
     0
370
    -2
100
AcDbLine
 10
160.743081436192
 20
142.686805119522
 30
0.0
 11
160.118081436192
 21
142.686805119522
 31
0.0
  0
LINE
  5
2ECE
330
2EA3
100
AcDbEntity
  8
Bemaßung
 62
     0
370
    -2
100
AcDbLine
 10
161.368081436192
 20
148.6868051195214
 30
0.0
 11
161.368081436192
 21
142.686805119522
 31
0.0
  0
INSERT
  5
2ECF
330
2EA3
100
AcDbEntity
  8
Bemaßung
 62
     0
370
    -2
100
AcDbBlockReference
  2
_Oblique
 10
161.368081436192
 20
148.6868051195214
 30
0.0
 41
2.5
 42
2.5
 43
2.5
 50
90.0
  0
INSERT
  5
2ED0
330
2EA3
100
AcDbEntity
  8
Bemaßung
 62
     0
370
    -2
100
AcDbBlockReference
  2
_Oblique
 10
161.368081436192
 20
142.686805119522
 30
0.0
 41
2.5
 42
2.5
 43
2.5
 50
270.0
  0
MTEXT
  5
2ED1
330
2EA3
100
AcDbEntity
  8
Bemaßung
 62
     0
100
AcDbMText
 10
159.493081436192
 20
145.6868051195217
 30
0.0
 40
2.5
 41
0.0
 71
     5
 72
     1
  1
6
  7
RomanS
 11
0.0000000000000001
 21
1.0
 31
0.0
 73
     1
 44
1.0
1001
ACAD
1000
MTEXTBEGIN
1070
    73
1070
     1
1070
    44
1040
1.0
1070
    74
1070
     0
1000
MTEXTEND
  0
POINT
  5
2ED2
330
2EA3
100
AcDbEntity
  8
Defpoints
 62
     0
100
AcDbPoint
 10
161.368081436192
 20
148.6868051195214
 30
0.0
  0
POINT
  5
2ED3
330
2EA3
100
AcDbEntity
  8
Defpoints
 62
     0
100
AcDbPoint
 10
161.368081436192
 20
142.686805119522
 30
0.0
  0
POINT
  5
2ED4
330
2EA3
100
AcDbEntity
  8
Defpoints
 62
     0
100
AcDbPoint
 10
161.368081436192
 20
142.686805119522
 30
0.0
  0
ENDBLK
  5
2EAE
330
2EA3
100
AcDbEntity
  8
0
100
AcDbBlockEnd
  0
BLOCK
  5
2EE0
330
2ED6
100
AcDbEntity
  8
0
100
AcDbBlockBegin
  2
*D21
 70
     1
 10
0.0
 20
0.0
 30
0.0
  3
*D21
  1

  0
LINE
  5
2EE3
330
2ED6
100
AcDbEntity
  8
Bemaßung
 62
     0
370
    -2
100
AcDbLine
 10
97.0461294456073
 20
89.31180511952231
 30
0.0
 11
97.0461294456073
 21
89.93680511952231
 31
0.0
  0
LINE
  5
2EE4
330
2ED6
100
AcDbEntity
  8
Bemaßung
 62
     0
370
    -2
100
AcDbLine
 10
77.04612944560733
 20
89.31180511952231
 30
0.0
 11
77.04612944560733
 21
89.93680511952231
 31
0.0
  0
LINE
  5
2EE5
330
2ED6
100
AcDbEntity
  8
Bemaßung
 62
     0
370
    -2
100
AcDbLine
 10
97.0461294456073
 20
88.68680511952231
 30
0.0
 11
77.04612944560733
 21
88.68680511952231
 31
0.0
  0
INSERT
  5
2EE6
330
2ED6
100
AcDbEntity
  8
Bemaßung
 62
     0
370
    -2
100
AcDbBlockReference
  2
_Oblique
 10
97.0461294456073
 20
88.68680511952231
 30
0.0
 41
2.5
 42
2.5
 43
2.5
  0
INSERT
  5
2EE7
330
2ED6
100
AcDbEntity
  8
Bemaßung
 62
     0
370
    -2
100
AcDbBlockReference
  2
_Oblique
 10
77.04612944560733
 20
88.68680511952231
 30
0.0
 41
2.5
 42
2.5
 43
2.5
 50
180.0
  0
MTEXT
  5
2EE8
330
2ED6
100
AcDbEntity
  8
Bemaßung
 62
     0
100
AcDbMText
 10
87.04612944560732
 20
90.56180511952231
 30
0.0
 40
2.5
 41
0.0
 71
     5
 72
     1
  1
20
  7
RomanS
 73
     1
 44
1.0
1001
ACAD
1000
MTEXTBEGIN
1070
    73
1070
     1
1070
    44
1040
1.0
1070
    74
1070
     0
1000
MTEXTEND
  0
POINT
  5
2EE9
330
2ED6
100
AcDbEntity
  8
Defpoints
 62
     0
100
AcDbPoint
 10
97.0461294456073
 20
88.68680511952231
 30
0.0
  0
POINT
  5
2EEA
330
2ED6
100
AcDbEntity
  8
Defpoints
 62
     0
100
AcDbPoint
 10
77.04612944560733
 20
88.68680511952231
 30
0.0
  0
POINT
  5
2EEB
330
2ED6
100
AcDbEntity
  8
Defpoints
 62
     0
100
AcDbPoint
 10
77.04612944560733
 20
88.68680511952231
 30
0.0
  0
ENDBLK
  5
2EE1
330
2ED6
100
AcDbEntity
  8
0
100
AcDbBlockEnd
  0
BLOCK
  5
2F57
330
2F54
100
AcDbEntity
  8
0
100
AcDbBlockBegin
  2
Glas 28mm ob
 70
     0
 10
0.0
 20
0.0
 30
0.0
  3
Glas 28mm ob
  1

  0
LINE
  5
2F58
330
2F54
100
AcDbEntity
  8
Aluhalter
100
AcDbLine
 10
27.75000000000159
 20
-0.0000000000000002
 30
0.0
 11
1.250000000001817
 21
-4.999999999999771
 31
0.0
1001
AcDbBlockRepETag
1070
     1
1071
        7
1005
2F58
  0
LINE
  5
2F59
330
2F54
100
AcDbEntity
  8
Aluhalter
100
AcDbLine
 10
1.250000000001817
 20
-0.0000000000000002
 30
0.0
 11
27.75000000000159
 21
-4.999999999999999
 31
0.0
1001
AcDbBlockRepETag
1070
     1
1071
        8
1005
2F59
  0
LWPOLYLINE
  5
2F5A
330
2F54
100
AcDbEntity
  8
Aluhalter
100
AcDbPolyline
 90
        4
 70
     1
 43
0.0
 10
1.250000000001817
 20
-0.0000000000000002
 10
27.75000000000157
 20
0.0000000000000002
 10
27.75000000000157
 20
-4.999999999999993
 10
1.250000000001817
 20
-4.999999999999993
1001
AcDbBlockRepETag
1070
     1
1071
       36
1005
2F5A
  0
LWPOLYLINE
  5
2F5B
330
2F54
100
AcDbEntity
  8
Glas
 62
   150
100
AcDbPolyline
 90
        6
 70
     0
 43
0.0
 10
12.50000000000001
 20
-19.2700814218335
 10
12.50000000000001
 20
-5.500000000000158
 10
13.0
 20
-5.000000000000158
 10
15.99999999999955
 20
-5.000000000000158
 10
16.49999999999955
 20
-5.500000000000158
 10
16.49999999999955
 20
-19.2700814218335
1001
AcDbBlockRepETag
1070
     1
1071
       41
1005
2F5B
  0
LWPOLYLINE
  5
2F5C
102
{ACAD_REACTORS
330
2F60
102
}
330
2F54
100
AcDbEntity
  8
Glas
 62
   251
100
AcDbPolyline
 90
        6
 70
     1
 43
0.0
 10
4.499999999999785
 20
-17.00000000000023
 10
12.50000000000001
 20
-17.00000000000023
 10
12.50000000000001
 20
-7.000000000000121
 10
10.50000000000001
 20
-5.000000000000122
 10
6.499999999999786
 20
-5.000000000000118
 10
4.499999999999785
 20
-7.000000000000117
1001
AcDbBlockRepETag
1070
     1
1071
       42
1005
2F5C
  0
HATCH
  5
2F5D
330
2F54
100
AcDbEntity
  8
Glas
100
AcDbHatch
 10
0.0
 20
0.0
 30
0.0
210
0.0
220
0.0
230
1.0
  2
AR-CONC
 70
     0
 71
     0
 91
        2
 92
        1
 93
        4
 72
     1
 10
12.50000000000001
 20
-23.63005071385506
 11
16.49999999999955
 21
-23.63005071385506
 72
     1
 10
16.49999999999955
 20
-23.63005071385506
 11
16.49999999999955
 21
-26.00455082016965
 72
     1
 10
16.49999999999955
 20
-26.00455082016965
 11
12.50000000000001
 21
-26.00455082016965
 72
     1
 10
12.50000000000001
 20
-26.00455082016965
 11
12.50000000000001
 21
-23.63005071385506
 97
        0
 92
        1
 93
        6
 72
     1
 10
16.49999999999955
 20
-19.27008142183348
 11
12.50000000000001
 21
-19.27008142183348
 72
     1
 10
12.50000000000001
 20
-19.27008142183348
 11
12.50000000000001
 21
-5.500000000000156
 72
     1
 10
12.50000000000001
 20
-5.500000000000158
 11
13.0
 21
-5.000000000000158
 72
     1
 10
13.0
 20
-5.000000000000158
 11
15.99999999999955
 21
-5.000000000000158
 72
     1
 10
15.99999999999955
 20
-5.000000000000158
 11
16.49999999999955
 21
-5.500000000000153
 72
     1
 10
16.49999999999955
 20
-5.500000000000153
 11
16.49999999999955
 21
-19.27008142183349
 97
        0
 75
     0
 76
     1
 52
0.0
 41
0.02
 77
     0
 78
    13
 53
310.0
 43
34.49999999999997
 44
-0.0000000000001863
 45
3.64369337992008
 46
0.3187817107780617
 79
     2
 49
0.381
 49
-4.190999999999998
 53
5.000000000000006
 43
34.49999999999997
 44
-0.0000000000001863
 45
-0.7048565195133401
 46
-3.821132857643598
 79
     2
 49
0.3048
 49
-3.352799999999998
 53
259.549
 43
34.80363999999996
 44
0.0265649999998139
 45
2.938850033319181
 46
-3.502333756405836
 79
     2
 49
0.3237999999999999
 49
-3.561799999999997
 53
313.8158
 43
34.49999999999997
 44
-1.016000000000184
 45
5.421580817842596
 46
0.8408465586545428
 79
     2
 49
0.5714999999999997
 49
-6.286499999999997
 53
263.3644
 43
34.95179799999995
 44
-0.945930000000186
 45
4.748084689324741
 46
-4.948511117800983
 79
     2
 49
0.4857000000000001
 49
-5.342699999999998
 53
8.815999999999979
 43
34.49999999999997
 44
-1.016000000000184
 45
4.748092116278677
 46
-4.948502357211953
 79
     2
 49
0.4572
 49
-5.0292
 53
339.0
 43
35.00799999999995
 44
-0.7620000000001863
 45
3.032297596707665
 46
2.045310370335247
 79
     2
 49
0.3809999999999999
 49
-4.190999999999995
 53
34.00000000000004
 43
35.00799999999995
 44
-0.7620000000001863
 45
1.236040566952941
 46
-3.683759322446384
 79
     2
 49
0.3048
 49
-3.352799999999998
 53
288.5486
 43
35.26068999999996
 44
-0.5915580000001866
 45
4.268329815402489
 46
-1.638457154321149
 79
     2
 49
0.3237999999999996
 49
-3.561799999999995
 53
322.5
 43
34.49999999999997
 44
-0.0000000000001863
 45
0.0617720650118363
 46
-1.691100777463059
 79
     6
 49
0.0
 49
-3.312159999999998
 49
0.0
 49
-3.403599999999998
 49
0.0
 49
-3.365499999999998
 53
352.5
 43
34.49999999999997
 44
-0.0000000000001863
 45
1.336393250206113
 46
-2.00361149636239
 79
     6
 49
0.0
 49
-1.940559999999999
 49
0.0
 49
-3.235959999999998
 49
0.0
 49
-1.282699999999999
 53
32.50000000000003
 43
33.36715999999996
 44
-0.0000000000001863
 45
2.711811903337423
 46
0.1145748798534692
 79
     6
 49
0.0
 49
-1.27
 49
0.0
 49
-3.9624
 49
0.0
 49
-5.257799999999996
 53
42.5
 43
32.85915999999996
 44
-0.0000000000001863
 45
2.962583627720361
 46
-0.5085298206666603
 79
     6
 49
0.0
 49
-1.650999999999999
 49
0.0
 49
-2.63144
 49
0.0
 49
-3.7338
 98
        1
 10
15.29914082108964
 20
-22.24482153884816
1001
ACAD
1010
0.0
1020
0.0
1030
0.0
1001
AcDbBlockRepETag
1070
     1
1071
       43
1005
2F5D
  0
HATCH
  5
2F5E
330
2F54
100
AcDbEntity
  8
Glas
100
AcDbHatch
 10
0.0
 20
0.0
 30
0.0
210
0.0
220
0.0
230
1.0
  2
AR-CONC
 70
     0
 71
     0
 91
        1
 92
        7
 72
     0
 73
     1
 93
        6
 10
0.5000000000002382
 20
-5.500000000000159
 10
1.00000000000024
 20
-5.000000000000158
 10
3.999999999999785
 20
-5.000000000000158
 10
4.499999999999785
 20
-5.500000000000158
 10
4.499999999999776
 20
-26.00455082016965
 10
0.5000000000002524
 20
-26.00455082016965
 97
        0
 75
     0
 76
     1
 52
0.0
 41
0.02
 77
     0
 78
    13
 53
310.0
 43
36.49999999999997
 44
-0.0000000000001863
 45
3.64369337992008
 46
0.3187817107780617
 79
     2
 49
0.381
 49
-4.190999999999998
 53
5.000000000000006
 43
36.49999999999997
 44
-0.0000000000001863
 45
-0.7048565195133401
 46
-3.821132857643598
 79
     2
 49
0.3048
 49
-3.352799999999998
 53
259.549
 43
36.80363999999996
 44
0.0265649999998139
 45
2.938850033319181
 46
-3.502333756405836
 79
     2
 49
0.3237999999999999
 49
-3.561799999999997
 53
313.8158
 43
36.49999999999997
 44
-1.016000000000184
 45
5.421580817842596
 46
0.8408465586545428
 79
     2
 49
0.5714999999999997
 49
-6.286499999999997
 53
263.3644
 43
36.95179799999996
 44
-0.945930000000186
 45
4.748084689324741
 46
-4.948511117800983
 79
     2
 49
0.4857000000000001
 49
-5.342699999999998
 53
8.815999999999981
 43
36.49999999999997
 44
-1.016000000000184
 45
4.748092116278677
 46
-4.948502357211953
 79
     2
 49
0.4572
 49
-5.0292
 53
339.0
 43
37.00799999999996
 44
-0.7620000000001863
 45
3.032297596707665
 46
2.045310370335247
 79
     2
 49
0.381
 49
-4.190999999999997
 53
34.00000000000004
 43
37.00799999999996
 44
-0.7620000000001863
 45
1.236040566952941
 46
-3.683759322446384
 79
     2
 49
0.3048
 49
-3.352799999999998
 53
288.5486
 43
37.26068999999995
 44
-0.5915580000001866
 45
4.268329815402489
 46
-1.638457154321149
 79
     2
 49
0.3237999999999996
 49
-3.561799999999995
 53
322.5
 43
36.49999999999997
 44
-0.0000000000001863
 45
0.0617720650118363
 46
-1.691100777463059
 79
     6
 49
0.0
 49
-3.312159999999998
 49
0.0
 49
-3.403599999999998
 49
0.0
 49
-3.365499999999998
 53
352.5
 43
36.49999999999997
 44
-0.0000000000001863
 45
1.336393250206113
 46
-2.00361149636239
 79
     6
 49
0.0
 49
-1.940559999999999
 49
0.0
 49
-3.235959999999998
 49
0.0
 49
-1.282699999999999
 53
32.50000000000003
 43
35.36715999999997
 44
-0.0000000000001863
 45
2.711811903337423
 46
0.1145748798534692
 79
     6
 49
0.0
 49
-1.27
 49
0.0
 49
-3.9624
 49
0.0
 49
-5.257799999999996
 53
42.5
 43
34.85915999999996
 44
-0.0000000000001863
 45
2.962583627720361
 46
-0.5085298206666603
 79
     6
 49
0.0
 49
-1.650999999999999
 49
0.0
 49
-2.63144
 49
0.0
 49
-3.7338
 47
0.1050631940408828
 98
        1
 10
1.700859178910157
 20
-22.24482153884816
1001
ACAD
1010
0.0
1020
0.0
1030
0.0
1001
AcDbBlockRepETag
1070
     1
1071
       44
1005
2F5E
  0
LWPOLYLINE
  5
2F5F
330
2F54
100
AcDbEntity
  8
Glas
100
AcDbPolyline
 90
        6
 70
     0
 43
0.0
 10
4.499999999999785
 20
-26.00455082016965
 10
4.499999999999785
 20
-5.500000000000158
 10
3.999999999999785
 20
-5.000000000000158
 10
1.00000000000024
 20
-5.000000000000158
 10
0.5000000000002382
 20
-5.500000000000158
 10
0.5000000000002382
 20
-26.00455082016965
1001
AcDbBlockRepETag
1070
     1
1071
       45
1005
2F5F
  0
HATCH
  5
2F60
330
2F54
100
AcDbEntity
  8
Glas
 62
   251
100
AcDbHatch
 10
0.0
 20
0.0
 30
0.0
210
0.0
220
0.0
230
1.0
  2
GRAVEL
 70
     0
 71
     1
 91
        1
 92
        1
 93
        6
 72
     1
 10
4.499999999999785
 20
-17.00000000000023
 11
12.50000000000001
 21
-17.00000000000023
 72
     1
 10
12.50000000000001
 20
-17.00000000000023
 11
12.50000000000001
 21
-7.000000000000124
 72
     1
 10
12.50000000000001
 20
-7.000000000000121
 11
10.50000000000001
 21
-5.000000000000122
 72
     1
 10
10.50000000000001
 20
-5.000000000000122
 11
6.499999999999786
 21
-5.000000000000118
 72
     1
 10
6.499999999999786
 20
-5.000000000000118
 11
4.499999999999785
 21
-7.000000000000117
 72
     1
 10
4.499999999999785
 20
-7.000000000000117
 11
4.499999999999785
 21
-17.00000000000023
 97
        1
330
2F5C
 75
     0
 76
     1
 52
0.0
 41
0.1
 77
     0
 78
    42
 53
131.9872
 43
13.07880000000001
 44
-4.540000000000292
 45
-20.32001726589601
 46
22.86002808951258
 79
     2
 49
0.341721
 49
-33.8305
 53
175.0303
 43
12.85020000000002
 44
-4.286000000000293
 45
30.48004930617913
 46
-2.539982075387456
 79
     2
 49
0.5864050000000001
 49
-58.05399999999998
 53
227.4896
 43
12.26600000000001
 44
-4.235200000000287
 45
25.3999815183317
 46
27.94002729246042
 79
     2
 49
0.413482
 49
-40.93469999999999
 53
92.72629999999994
 43
11.27540000000001
 44
-3.600200000000292
 45
2.539988970828169
 46
-50.79998365336643
 79
     2
 49
0.5340050000000001
 49
-52.86639999999999
 53
67.16629999999998
 43
11.25000000000001
 44
-3.066800000000291
 45
-12.7000360555019
 46
-30.48001733005111
 79
     2
 49
0.5236340000000002
 49
-51.8398
 53
2.72629999999997
 43
11.45320000000001
 44
-2.584200000000289
 45
-50.79998365336643
 46
-2.539988970828173
 79
     2
 49
0.5340050000000001
 49
-52.8664
 53
322.3058
 43
11.98660000000001
 44
-2.55880000000029
 45
-33.02002086123994
 46
25.39997735698489
 79
     2
 49
0.706194
 49
-69.91310000000002
 53
287.7447
 43
12.54540000000002
 44
-2.990600000000291
 45
17.78003556546719
 46
-55.88001620603638
 79
     2
 49
0.6667200000000002
 49
-66.0053
 53
238.5704
 43
12.7486
 44
-3.625600000000287
 45
-20.32000523526448
 46
-33.01996115997269
 79
     2
 49
0.535813
 49
-53.04549999999998
 53
184.7636
 43
12.46920000000002
 44
-4.082800000000287
 45
27.93997805305446
 46
2.539976162721154
 79
     2
 49
0.6117129999999992
 49
-29.97389999999998
 53
137.6026
 43
11.85960000000001
 44
-4.133600000000293
 45
-30.48000091723971
 46
27.93996365063697
 79
     2
 49
0.7910780000000001
 49
-78.3168
 53
221.1859
 43
13.79000000000002
 44
-3.574800000000291
 45
-17.77998867422473
 46
-15.239976557124
 79
     2
 49
0.270005
 49
-26.7306
 53
188.5308
 43
13.58680000000002
 44
-3.752600000000291
 45
33.01994959559142
 46
5.080012800045698
 79
     2
 49
0.5136819999999989
 49
-50.85459999999994
 53
135.0
 43
13.07880000000001
 44
-3.828800000000292
 45
-0.0000000000000005
 46
2.539998268700193
 79
     2
 49
0.3592090000000001
 49
-3.232889999999998
 53
156.8014
 43
12.901
 44
-4.133600000000293
 45
12.70004282559083
 46
-5.080022274306261
 79
     2
 49
0.1934409999999999
 49
-19.15059999999998
 53
68.1986
 43
12.72320000000001
 44
-4.057400000000293
 45
-2.540001781894509
 46
-7.620004908731861
 79
     2
 49
0.273566
 49
-13.4048
 53
329.0362
 43
12.8248
 44
-3.803400000000292
 45
7.619991954808226
 46
-5.080003958660552
 79
     2
 49
0.44432
 49
-14.36629999999998
 53
198.4349
 43
13.2058
 44
-4.032000000000293
 45
5.080002318180981
 46
2.539996222465076
 79
     2
 49
0.3212869999999999
 49
-7.710899999999995
 53
343.6105
 43
11.25000000000001
 44
-4.057400000000293
 45
25.40001401396935
 46
-7.619984149967804
 79
     2
 49
0.4500880000000003
 49
-44.55879999999996
 53
289.6538
 43
11.68180000000001
 44
-4.184400000000293
 45
-10.15997168867651
 46
27.939960488545
 79
     2
 49
0.377599
 49
-37.3822
 53
66.80140000000001
 43
13.2058
 44
-4.540000000000292
 45
-5.080022274306261
 46
-12.70004282559083
 79
     2
 49
0.38688
 49
-18.9572
 53
16.38950000000002
 43
13.35820000000001
 44
-4.184400000000293
 45
-25.40001401396935
 46
-7.619984149967812
 79
     2
 49
0.4500879999999996
 49
-44.55879999999992
 53
20.55599999999986
 43
11.25000000000001
 44
-2.482600000000291
 45
-12.70001576425591
 46
-5.079993836050136
 79
     2
 49
0.4340350000000001
 49
-21.2677
 53
65.22490000000002
 43
11.65640000000001
 44
-2.330200000000293
 45
-12.69997040362684
 46
-27.93998702615667
 79
     2
 49
0.3636719999999994
 49
-36.00359999999993
 53
293.1986
 43
13.23120000000001
 44
-2.000000000000292
 45
5.080022274306266
 46
-12.70004282559083
 79
     2
 49
0.38688
 49
-18.9572
 53
342.646
 43
13.38360000000001
 44
-2.355600000000288
 45
-33.02000178185996
 46
10.15998467560563
 79
     2
 49
0.425783
 49
-42.15239999999993
 53
290.556
 43
11.98660000000001
 44
-2.000000000000292
 45
-5.079993836050143
 46
12.70001576425591
 79
     2
 49
0.217018
 49
-21.4848
 53
258.6901000000001
 43
13.07880000000001
 44
-2.000000000000292
 45
-2.539987462887348
 46
-10.15996746090262
 79
     2
 49
0.1295149999999999
 49
-12.82199999999999
 53
194.0362
 43
13.05340000000001
 44
-2.127000000000287
 45
7.620005354697172
 46
2.539995604123641
 79
     2
 49
0.5236340000000002
 49
-9.949049999999996
 53
173.991
 43
12.54540000000002
 44
-2.254000000000293
 45
25.39996254442795
 46
-2.539994068547858
 79
     2
 49
0.485267
 49
-48.0414
 53
56.30990000000004
 43
12.8248
 44
-3.574800000000291
 45
-2.540000871307233
 46
-5.079995099231839
 79
     2
 49
0.366324
 49
-8.791780000000001
 53
6.842800000000021
 43
13.02800000000001
 44
-3.270000000000292
 45
43.18001785664342
 46
5.08002275165484
 79
     2
 49
0.639557
 49
-63.316
 53
299.0546
 43
13.663
 44
-3.193800000000292
 45
-10.15997636582909
 46
17.77995761083413
 79
     2
 49
0.261508
 49
-25.8894
 53
270.0
 43
13.79000000000002
 44
-3.42240000000029
 45
-2.54
 46
-2.54
 79
     2
 49
0.1524
 49
-2.387599999999999
 53
239.7436
 43
12.49460000000002
 44
-2.330200000000293
 45
10.15997846683611
 46
17.77999103247756
 79
     2
 49
0.352867
 49
-34.9339
 53
311.9872
 43
12.31680000000002
 44
-2.635000000000288
 45
20.32001726589601
 46
-22.86002808951258
 79
     2
 49
0.6834430000000003
 49
-33.48880000000001
 53
0.0
 43
12.77400000000002
 44
-3.143000000000292
 45
2.54
 46
-2.54
 79
     2
 49
0.6604000000000001
 49
-1.879599999999999
 53
34.69519999999999
 43
13.43440000000001
 44
-3.143000000000292
 45
-25.39995599095369
 46
-17.78000169048476
 79
     2
 49
0.40161
 49
-39.7593
 53
105.9454
 43
13.76460000000001
 44
-2.91440000000029
 45
-2.540006479701474
 46
10.16002420320363
 79
     2
 49
0.369829
 49
-18.1217
 53
152.3540000000001
 43
13.663
 44
-2.55880000000029
 45
-48.25998304902272
 46
25.40001597472339
 79
     2
 49
0.6021450000000002
 49
-59.61249999999999
 53
184.5739
 43
13.12960000000001
 44
-2.279400000000288
 45
-33.02000760474751
 46
-2.539987711219461
 79
     2
 49
0.6370289999999999
 49
-63.06579999999993
 53
184.5739
 43
13.12960000000001
 44
-2.279400000000288
 45
-33.02000760474751
 46
-2.539987711219461
 79
     2
 49
0.6370289999999999
 49
-63.06579999999993
 98
        1
 10
11.25000000000001
 20
-2.000000000000292
1001
ACAD
1010
0.0
1020
0.0
1030
0.0
1001
AcDbBlockRepETag
1070
     1
1071
       46
1005
2F60
  0
LWPOLYLINE
  5
2F61
330
2F54
100
AcDbEntity
  8
Glas
100
AcDbPolyline
 90
        6
 70
     0
 43
0.0
 10
24.50000000000071
 20
-26.00455082016965
 10
24.50000000000071
 20
-5.500000000000158
 10
25.00000000000071
 20
-5.000000000000158
 10
28.00000000000025
 20
-5.000000000000158
 10
28.50000000000025
 20
-5.500000000000158
 10
28.50000000000025
 20
-26.00455082016965
1001
AcDbBlockRepETag
1070
     1
1071
       37
1005
2F61
  0
LWPOLYLINE
  5
2F62
102
{ACAD_REACTORS
330
2F64
102
}
330
2F54
100
AcDbEntity
  8
Glas
 62
   251
100
AcDbPolyline
 90
        6
 70
     1
 43
0.0
 10
16.49999999999955
 20
-17.00000000000023
 10
24.50000000000071
 20
-17.00000000000023
 10
24.50000000000071
 20
-7.000000000000121
 10
22.50000000000071
 20
-5.000000000000122
 10
18.49999999999955
 20
-5.000000000000118
 10
16.49999999999955
 20
-7.000000000000117
1001
AcDbBlockRepETag
1070
     1
1071
       38
1005
2F62
  0
HATCH
  5
2F63
330
2F54
100
AcDbEntity
  8
Glas
100
AcDbHatch
 10
0.0
 20
0.0
 30
0.0
210
0.0
220
0.0
230
1.0
  2
AR-CONC
 70
     0
 71
     0
 91
        1
 92
        7
 72
     0
 73
     1
 93
        6
 10
28.50000000000025
 20
-26.00455082016965
 10
24.50000000000072
 20
-26.00455082016965
 10
24.50000000000071
 20
-5.500000000000158
 10
25.00000000000071
 20
-5.000000000000158
 10
28.00000000000025
 20
-5.000000000000158
 10
28.50000000000025
 20
-5.500000000000153
 97
        0
 75
     0
 76
     1
 52
0.0
 41
0.02
 77
     0
 78
    13
 53
310.0
 43
30.49999999999995
 44
-0.0000000000001863
 45
3.64369337992008
 46
0.3187817107780617
 79
     2
 49
0.381
 49
-4.190999999999998
 53
5.000000000000004
 43
30.49999999999995
 44
-0.0000000000001863
 45
-0.7048565195133401
 46
-3.821132857643598
 79
     2
 49
0.3048
 49
-3.352799999999998
 53
259.549
 43
30.80363999999996
 44
0.0265649999998139
 45
2.938850033319181
 46
-3.502333756405836
 79
     2
 49
0.3237999999999999
 49
-3.561799999999997
 53
313.8158
 43
30.49999999999995
 44
-1.016000000000184
 45
5.421580817842596
 46
0.8408465586545428
 79
     2
 49
0.5714999999999998
 49
-6.286499999999997
 53
263.3644
 43
30.95179799999996
 44
-0.945930000000186
 45
4.748084689324741
 46
-4.948511117800983
 79
     2
 49
0.4857000000000001
 49
-5.342699999999998
 53
8.815999999999979
 43
30.49999999999995
 44
-1.016000000000184
 45
4.748092116278677
 46
-4.948502357211953
 79
     2
 49
0.4572
 49
-5.0292
 53
339.0
 43
31.00799999999996
 44
-0.7620000000001863
 45
3.032297596707665
 46
2.045310370335247
 79
     2
 49
0.3809999999999998
 49
-4.190999999999995
 53
34.00000000000004
 43
31.00799999999996
 44
-0.7620000000001863
 45
1.236040566952941
 46
-3.683759322446384
 79
     2
 49
0.3048
 49
-3.352799999999998
 53
288.5486
 43
31.26068999999996
 44
-0.5915580000001866
 45
4.268329815402489
 46
-1.638457154321149
 79
     2
 49
0.3237999999999996
 49
-3.561799999999995
 53
322.5
 43
30.49999999999995
 44
-0.0000000000001863
 45
0.0617720650118363
 46
-1.691100777463059
 79
     6
 49
0.0
 49
-3.312159999999998
 49
0.0
 49
-3.403599999999998
 49
0.0
 49
-3.365499999999998
 53
352.5
 43
30.49999999999995
 44
-0.0000000000001863
 45
1.336393250206113
 46
-2.00361149636239
 79
     6
 49
0.0
 49
-1.940559999999999
 49
0.0
 49
-3.235959999999998
 49
0.0
 49
-1.282699999999999
 53
32.50000000000003
 43
29.36715999999996
 44
-0.0000000000001863
 45
2.711811903337423
 46
0.1145748798534692
 79
     6
 49
0.0
 49
-1.27
 49
0.0
 49
-3.9624
 49
0.0
 49
-5.257799999999996
 53
42.5
 43
28.85915999999996
 44
-0.0000000000001863
 45
2.962583627720361
 46
-0.5085298206666603
 79
     6
 49
0.0
 49
-1.650999999999999
 49
0.0
 49
-2.63144
 49
0.0
 49
-3.7338
 47
0.1050631940408828
 98
        1
 10
27.29914082109033
 20
-22.24482153884816
1001
ACAD
1010
0.0
1020
0.0
1030
0.0
1001
AcDbBlockRepETag
1070
     1
1071
       39
1005
2F63
  0
HATCH
  5
2F64
330
2F54
100
AcDbEntity
  8
Glas
 62
   251
100
AcDbHatch
 10
0.0
 20
0.0
 30
0.0
210
0.0
220
0.0
230
1.0
  2
GRAVEL
 70
     0
 71
     1
 91
        1
 92
        1
 93
        6
 72
     1
 10
16.49999999999955
 20
-17.00000000000023
 11
24.50000000000071
 21
-17.00000000000023
 72
     1
 10
24.50000000000071
 20
-17.00000000000023
 11
24.50000000000071
 21
-7.000000000000124
 72
     1
 10
24.50000000000071
 20
-7.000000000000121
 11
22.50000000000071
 21
-5.000000000000122
 72
     1
 10
22.50000000000071
 20
-5.000000000000122
 11
18.49999999999955
 21
-5.000000000000118
 72
     1
 10
18.49999999999955
 20
-5.000000000000118
 11
16.49999999999955
 21
-7.000000000000117
 72
     1
 10
16.49999999999955
 20
-7.000000000000117
 11
16.49999999999955
 21
-17.00000000000023
 97
        1
330
2F62
 75
     0
 76
     1
 52
0.0
 41
0.1
 77
     0
 78
    42
 53
131.9872
 43
26.07880000000071
 44
-4.540000000000292
 45
-20.32001726589601
 46
22.86002808951258
 79
     2
 49
0.341721
 49
-33.8305
 53
175.0303
 43
25.85020000000072
 44
-4.286000000000293
 45
30.48004930617913
 46
-2.539982075387456
 79
     2
 49
0.5864050000000001
 49
-58.05399999999998
 53
227.4896
 43
25.26600000000071
 44
-4.235200000000287
 45
25.3999815183317
 46
27.94002729246042
 79
     2
 49
0.413482
 49
-40.93469999999999
 53
92.72629999999994
 43
24.27540000000071
 44
-3.600200000000292
 45
2.539988970828169
 46
-50.79998365336643
 79
     2
 49
0.5340050000000001
 49
-52.86639999999999
 53
67.16629999999998
 43
24.25000000000071
 44
-3.066800000000291
 45
-12.7000360555019
 46
-30.48001733005111
 79
     2
 49
0.5236340000000002
 49
-51.8398
 53
2.72629999999997
 43
24.45320000000072
 44
-2.584200000000289
 45
-50.79998365336643
 46
-2.539988970828173
 79
     2
 49
0.5340050000000001
 49
-52.8664
 53
322.3058
 43
24.98660000000071
 44
-2.55880000000029
 45
-33.02002086123994
 46
25.39997735698489
 79
     2
 49
0.706194
 49
-69.91310000000002
 53
287.7447
 43
25.54540000000071
 44
-2.990600000000291
 45
17.78003556546719
 46
-55.88001620603638
 79
     2
 49
0.6667200000000002
 49
-66.0053
 53
238.5704
 43
25.74860000000071
 44
-3.625600000000287
 45
-20.32000523526448
 46
-33.01996115997269
 79
     2
 49
0.535813
 49
-53.04549999999998
 53
184.7636
 43
25.46920000000071
 44
-4.082800000000287
 45
27.93997805305446
 46
2.539976162721154
 79
     2
 49
0.6117129999999991
 49
-29.97389999999997
 53
137.6026
 43
24.85960000000071
 44
-4.133600000000293
 45
-30.48000091723971
 46
27.93996365063697
 79
     2
 49
0.7910780000000001
 49
-78.3168
 53
221.1859
 43
26.79000000000071
 44
-3.574800000000291
 45
-17.77998867422473
 46
-15.239976557124
 79
     2
 49
0.270005
 49
-26.7306
 53
188.5308
 43
26.58680000000071
 44
-3.752600000000291
 45
33.01994959559142
 46
5.080012800045698
 79
     2
 49
0.5136819999999988
 49
-50.85459999999994
 53
135.0
 43
26.07880000000071
 44
-3.828800000000292
 45
-0.0000000000000005
 46
2.539998268700193
 79
     2
 49
0.3592090000000001
 49
-3.232889999999998
 53
156.8014
 43
25.90100000000071
 44
-4.133600000000293
 45
12.70004282559083
 46
-5.080022274306261
 79
     2
 49
0.1934409999999999
 49
-19.15059999999998
 53
68.1986
 43
25.72320000000071
 44
-4.057400000000293
 45
-2.540001781894509
 46
-7.620004908731861
 79
     2
 49
0.273566
 49
-13.4048
 53
329.0362
 43
25.82480000000071
 44
-3.803400000000292
 45
7.619991954808226
 46
-5.080003958660552
 79
     2
 49
0.44432
 49
-14.36629999999998
 53
198.4349
 43
26.20580000000071
 44
-4.032000000000293
 45
5.080002318180981
 46
2.539996222465076
 79
     2
 49
0.3212869999999999
 49
-7.710899999999994
 53
343.6105
 43
24.25000000000071
 44
-4.057400000000293
 45
25.40001401396935
 46
-7.619984149967804
 79
     2
 49
0.4500880000000003
 49
-44.55879999999996
 53
289.6538
 43
24.68180000000071
 44
-4.184400000000293
 45
-10.15997168867651
 46
27.939960488545
 79
     2
 49
0.377599
 49
-37.3822
 53
66.80140000000001
 43
26.20580000000071
 44
-4.540000000000292
 45
-5.080022274306261
 46
-12.70004282559083
 79
     2
 49
0.38688
 49
-18.9572
 53
16.38950000000002
 43
26.35820000000071
 44
-4.184400000000293
 45
-25.40001401396935
 46
-7.619984149967812
 79
     2
 49
0.4500879999999995
 49
-44.55879999999992
 53
20.55599999999986
 43
24.25000000000071
 44
-2.482600000000291
 45
-12.70001576425591
 46
-5.079993836050136
 79
     2
 49
0.4340350000000001
 49
-21.2677
 53
65.22490000000002
 43
24.65640000000071
 44
-2.330200000000293
 45
-12.69997040362684
 46
-27.93998702615667
 79
     2
 49
0.3636719999999994
 49
-36.00359999999992
 53
293.1986
 43
26.23120000000071
 44
-2.000000000000292
 45
5.080022274306266
 46
-12.70004282559083
 79
     2
 49
0.38688
 49
-18.9572
 53
342.646
 43
26.38360000000071
 44
-2.355600000000288
 45
-33.02000178185996
 46
10.15998467560563
 79
     2
 49
0.425783
 49
-42.15239999999996
 53
290.556
 43
24.98660000000071
 44
-2.000000000000292
 45
-5.079993836050143
 46
12.70001576425591
 79
     2
 49
0.217018
 49
-21.4848
 53
258.6901000000001
 43
26.07880000000071
 44
-2.000000000000292
 45
-2.539987462887348
 46
-10.15996746090262
 79
     2
 49
0.1295149999999999
 49
-12.82199999999999
 53
194.0362
 43
26.05340000000071
 44
-2.127000000000287
 45
7.620005354697172
 46
2.539995604123641
 79
     2
 49
0.5236340000000002
 49
-9.949049999999996
 53
173.991
 43
25.54540000000071
 44
-2.254000000000293
 45
25.39996254442795
 46
-2.539994068547858
 79
     2
 49
0.485267
 49
-48.0414
 53
56.30990000000004
 43
25.82480000000071
 44
-3.574800000000291
 45
-2.540000871307233
 46
-5.079995099231839
 79
     2
 49
0.366324
 49
-8.791780000000001
 53
6.842800000000021
 43
26.02800000000071
 44
-3.270000000000292
 45
43.18001785664342
 46
5.08002275165484
 79
     2
 49
0.639557
 49
-63.316
 53
299.0546
 43
26.66300000000071
 44
-3.193800000000292
 45
-10.15997636582909
 46
17.77995761083413
 79
     2
 49
0.261508
 49
-25.8894
 53
270.0
 43
26.79000000000071
 44
-3.42240000000029
 45
-2.54
 46
-2.54
 79
     2
 49
0.1524
 49
-2.387599999999999
 53
239.7436
 43
25.49460000000071
 44
-2.330200000000293
 45
10.15997846683611
 46
17.77999103247756
 79
     2
 49
0.352867
 49
-34.9339
 53
311.9872
 43
25.31680000000071
 44
-2.635000000000288
 45
20.32001726589601
 46
-22.86002808951258
 79
     2
 49
0.6834430000000003
 49
-33.48880000000001
 53
0.0
 43
25.77400000000071
 44
-3.143000000000292
 45
2.54
 46
-2.54
 79
     2
 49
0.6604000000000001
 49
-1.879599999999999
 53
34.69519999999999
 43
26.43440000000071
 44
-3.143000000000292
 45
-25.39995599095369
 46
-17.78000169048476
 79
     2
 49
0.40161
 49
-39.7593
 53
105.9454
 43
26.76460000000072
 44
-2.91440000000029
 45
-2.540006479701474
 46
10.16002420320363
 79
     2
 49
0.369829
 49
-18.1217
 53
152.3540000000001
 43
26.66300000000071
 44
-2.55880000000029
 45
-48.25998304902272
 46
25.40001597472339
 79
     2
 49
0.6021450000000002
 49
-59.61249999999999
 53
184.5739
 43
26.12960000000071
 44
-2.279400000000288
 45
-33.02000760474751
 46
-2.539987711219461
 79
     2
 49
0.6370289999999994
 49
-63.06579999999993
 53
184.5739
 43
26.12960000000071
 44
-2.279400000000288
 45
-33.02000760474751
 46
-2.539987711219461
 79
     2
 49
0.6370289999999994
 49
-63.06579999999993
 98
        1
 10
24.25000000000071
 20
-2.000000000000292
1001
ACAD
1010
0.0
1020
0.0
1030
0.0
1001
AcDbBlockRepETag
1070
     1
1071
       40
1005
2F64
  0
TEXT
  5
2F65
330
2F54
100
AcDbEntity
  8
Glas
100
AcDbText
 10
9.220994231972227
 20
-22.54542718602494
 30
0.0
 40
2.5
  1
Glas 28
 41
0.7
  7
RomanS
100
AcDbText
1001
AcDbBlockRepETag
1070
     1
1071
       47
1005
2F65
  0
LINE
  5
2F66
330
2F54
100
AcDbEntity
  8
Glas
100
AcDbLine
 10
9.107637354260424
 20
-23.07959734288461
 30
0.0
 11
19.93219505427545
 21
-23.07959734288461
 31
0.0
1001
AcDbBlockRepETag
1070
     1
1071
       48
1005
2F66
  0
LWPOLYLINE
  5
2F67
330
2F54
100
AcDbEntity
  8
Glas
100
AcDbPolyline
 90
        2
 70
     0
 43
0.0
 10
16.49999999999955
 20
-23.63005071385506
 10
16.49999999999955
 20
-26.00455082016965
1001
AcDbBlockRepETag
1070
     1
1071
       49
1005
2F67
  0
LWPOLYLINE
  5
2F68
330
2F54
100
AcDbEntity
  8
Glas
100
AcDbPolyline
 90
        2
 70
     0
 43
0.0
 10
12.50000000000001
 20
-26.00455082016965
 10
12.50000000000001
 20
-23.63005071385506
1001
AcDbBlockRepETag
1070
     1
1071
       50
1005
2F68
  0
ENDBLK
  5
2F69
330
2F54
100
AcDbEntity
  8
0
100
AcDbBlockEnd
  0
BLOCK
  5
2FE4
330
2FD8
100
AcDbEntity
  8
0
100
AcDbBlockBegin
  2
*D23
 70
     1
 10
0.0
 20
0.0
 30
0.0
  3
*D23
  1

  0
LINE
  5
2FF1
330
2FD8
100
AcDbEntity
  8
Bemaßung
 62
     0
370
    -2
100
AcDbLine
 10
155.0461294456072
 20
72.36262829140883
 30
0.0
 11
155.0461294456072
 21
72.98762829140883
 31
0.0
  0
LINE
  5
2FF2
330
2FD8
100
AcDbEntity
  8
Bemaßung
 62
     0
370
    -2
100
AcDbLine
 10
154.046129445607
 20
72.36262829140883
 30
0.0
 11
154.046129445607
 21
72.98762829140883
 31
0.0
  0
LINE
  5
2FF3
330
2FD8
100
AcDbEntity
  8
Bemaßung
 62
     0
370
    -2
100
AcDbLine
 10
155.0461294456072
 20
71.73762829140883
 30
0.0
 11
157.5461294456072
 21
71.73762829140883
 31
0.0
  0
LINE
  5
2FF4
330
2FD8
100
AcDbEntity
  8
Bemaßung
 62
     0
370
    -2
100
AcDbLine
 10
154.046129445607
 20
71.73762829140883
 30
0.0
 11
147.3794627789403
 21
71.73762829140883
 31
0.0
  0
LINE
  5
2FF5
330
2FD8
100
AcDbEntity
  8
Bemaßung
 62
     0
370
    -2
100
AcDbLine
 10
155.0461294456072
 20
71.73762829140883
 30
0.0
 11
154.046129445607
 21
71.73762829140883
 31
0.0
  0
INSERT
  5
2FF6
330
2FD8
100
AcDbEntity
  8
Bemaßung
 62
     0
370
    -2
100
AcDbBlockReference
  2
_Oblique
 10
155.0461294456072
 20
71.73762829140883
 30
0.0
 41
2.5
 42
2.5
 43
2.5
 50
180.0
  0
INSERT
  5
2FF7
330
2FD8
100
AcDbEntity
  8
Bemaßung
 62
     0
370
    -2
100
AcDbBlockReference
  2
_Oblique
 10
154.046129445607
 20
71.73762829140883
 30
0.0
 41
2.5
 42
2.5
 43
2.5
  0
MTEXT
  5
2FF8
330
2FD8
100
AcDbEntity
  8
Bemaßung
 62
     0
100
AcDbMText
 10
148.2127961122736
 20
73.61262829140883
 30
0.0
 40
2.5
 41
0.0
 71
     5
 72
     1
  1
1
  7
RomanS
 73
     1
 44
1.0
1001
ACAD
1000
MTEXTBEGIN
1070
    73
1070
     1
1070
    44
1040
1.0
1070
    74
1070
     0
1000
MTEXTEND
  0
POINT
  5
2FF9
330
2FD8
100
AcDbEntity
  8
Defpoints
 62
     0
100
AcDbPoint
 10
155.0461294456072
 20
71.73762829140883
 30
0.0
  0
POINT
  5
2FFA
330
2FD8
100
AcDbEntity
  8
Defpoints
 62
     0
100
AcDbPoint
 10
154.046129445607
 20
71.73762829140883
 30
0.0
  0
POINT
  5
2FFB
330
2FD8
100
AcDbEntity
  8
Defpoints
 62
     0
100
AcDbPoint
 10
154.046129445607
 20
71.73762829140883
 30
0.0
  0
ENDBLK
  5
2FE5
330
2FD8
100
AcDbEntity
  8
0
100
AcDbBlockEnd
  0
ENDSEC
  0
SECTION
  2
ENTITIES
  0
LINE
  5
2045
330
1F
100
AcDbEntity
  8
0
100
AcDbLine
 10
6.0
 20
5.999999879463302
 30
0.0
 11
204.0
 21
5.999999879463302
 31
0.0
  0
LWPOLYLINE
  5
2046
330
1F
100
AcDbEntity
  8
0
100
AcDbPolyline
 90
        4
 70
     1
 43
0.0
 10
0.0
 20
0.0
 10
210.0
 20
0.0
 10
210.0
 20
297.0000000000001
 10
0.0
 20
297.0000000000001
  0
LWPOLYLINE
  5
2047
330
1F
100
AcDbEntity
  8
0
100
AcDbPolyline
 90
        4
 70
     1
 43
0.0
 10
6.0
 20
6.0
 10
204.0
 20
6.0
 10
204.0
 20
291.0000000000001
 10
5.999999999999971
 20
291.0000000000001
  0
HATCH
  5
2048
330
1F
100
AcDbEntity
  8
Schraffur
 62
     5
100
AcDbHatch
 10
0.0
 20
0.0
 30
0.0
210
0.0
220
0.0
230
1.0
  2
STEEL
 70
     0
 71
     0
 91
        1
 92
        1
 93
        9
 72
     1
 10
38.02126886595728
 20
194.2721299407964
 11
38.02126886595728
 21
204.9808031500402
 72
     2
 10
27.00000000000063
 20
192.0374020288389
 40
17.00000000000057
 50
49.58570104606248
 51
130.2262621168522
 73
     1
 72
     1
 10
16.02126886595724
 20
205.0169036635861
 11
16.02126886595724
 21
193.342055672298
 72
     2
 10
29.02126886595718
 20
193.3420556722983
 40
12.99999999999992
 50
180.000000000001
 51
250.0000000000002
 73
     1
 72
     1
 10
24.57500700272357
 20
181.1260516020815
 11
29.33722857930584
 21
179.392744699225
 72
     2
 10
30.02126886595711
 20
181.272129940797
 40
2.000000000000149
 50
250.0000000000035
 51
360.0000000000036
 73
     1
 72
     1
 10
32.02126886595727
 20
181.272129940797
 11
32.02126886595727
 21
193.2721299407964
 72
     2
 10
33.02126886595727
 20
193.2721299407964
 40
0.9999999999999998
 50
180.0
 51
270.0
 73
     0
 72
     1
 10
33.02126886595727
 20
194.2721299407964
 11
38.02126886595728
 21
194.2721299407964
 97
        0
 75
     0
 76
     1
 52
0.0
 41
2.0
 77
     0
 78
     2
 53
45.0
 43
-156.5233377122803
 44
70.70514104903387
 45
-4.490128060534575
 46
4.490128060534575
 79
     0
 53
45.0
 43
-156.5233377122803
 44
73.88014104903383
 45
-4.490128060534575
 46
4.490128060534575
 79
     0
 98
        3
 10
-129.4359267050477
 20
274.7954684773584
 10
23.52895461291928
 20
195.3844049173075
 10
13.64782898275243
 20
314.2899169605374
1001
ACAD
1010
0.0
1020
0.0
1030
0.0
1001
AcDbBlockRepETag
1070
     1
1071
        0
1005
2048
  0
HATCH
  5
2049
330
1F
100
AcDbEntity
  8
Schraffur
 62
    84
100
AcDbHatch
 10
0.0
 20
0.0
 30
0.0
210
0.0
220
0.0
230
1.0
  2
STEEL
 70
     0
 71
     0
 91
        2
 92
        1
 93
       13
 72
     1
 10
38.02126886595728
 20
169.039965497467
 11
38.02126886595728
 21
171.0921929174393
 72
     2
 10
27.00000000000065
 20
158.1487917962381
 40
17.0000000000005
 50
49.58570104606248
 51
130.4583214417464
 73
     1
 72
     1
 10
15.96878948957246
 20
171.0837210451609
 11
15.96878948957246
 21
165.1098912289686
 72
     2
 10
28.96878948957257
 20
165.1098912289691
 40
13.00000000000012
 50
180.000000000002
 51
249.9999999999973
 73
     1
 72
     1
 10
24.52252762633828
 20
152.8938871587524
 11
29.28474920293368
 21
151.1605802558915
 72
     1
 10
29.28474920293366
 20
151.1605802558915
 11
29.32712743336066
 21
151.1456926011776
 72
     2
 10
29.96878948957283
 20
153.039965497467
 40
1.999999999999771
 50
251.2868106197551
 51
345.0000000000021
 73
     1
 72
     1
 10
31.90064114215076
 20
152.5223274072621
 11
31.97944372032468
 21
152.8164226327749
 72
     2
 10
34.87722119919169
 20
152.0399654974674
 40
2.999999999999761
 50
194.9999999999955
 51
270.0000000000107
 73
     0
 72
     1
 10
34.87722119919226
 20
155.0399654974673
 11
35.46878948957257
 21
155.039965497467
 72
     1
 10
35.46878948957257
 20
155.039965497467
 11
35.96878948957257
 21
155.5399654974673
 72
     1
 10
35.96878948957257
 20
155.5399654974673
 11
35.96878948957257
 21
169.039965497467
 72
     1
 10
35.96878948957257
 20
169.039965497467
 11
38.02126886595728
 21
169.039965497467
 97
        0
 92
       24
 93
        4
 72
     1
 10
19.94298793616417
 20
159.8160323685611
 11
25.69298793616417
 21
159.8160323685611
 72
     1
 10
25.69298793616417
 20
159.8160323685611
 11
25.69298793616417
 21
156.0660323685612
 72
     1
 10
25.69298793616417
 20
156.0660323685612
 11
19.94298793616417
 21
156.0660323685612
 72
     1
 10
19.94298793616417
 20
156.0660323685612
 11
19.94298793616417
 21
159.8160323685611
 97
        0
 75
     0
 76
     1
 52
90.0
 41
2.0
 77
     0
 78
     2
 53
135.0
 43
0.0
 44
-24.19166140739604
 45
-4.490128060534575
 46
-4.490128060534575
 79
     0
 53
135.0
 43
-3.175000000000011
 44
-24.19166140739604
 45
-4.490128060534575
 46
-4.490128060534575
 79
     0
 98
        4
 10
0.0
 20
-24.19166140739604
 10
-135.1061717337025
 20
241.6589360995485
 10
28.84769791181966
 20
164.1231244258226
 10
28.84769791181966
 20
296.2616202501981
1001
AcDbBlockRepETag
1070
     1
1071
        1
1005
2049
1001
ACAD
1010
0.0
1020
0.0
1030
0.0
  0
LWPOLYLINE
  5
204A
102
{ACAD_REACTORS
330
205C
102
}
330
1F
100
AcDbEntity
  8
Flügelrahmen
100
AcDbPolyline
 90
        4
 70
     0
 43
0.0
 10
32.52126886595676
 20
175.9589820938994
 10
32.52126886595676
 20
188.2721299407964
 42
-0.4142135623730951
 10
34.52126886595676
 20
190.2721299407964
 10
43.90809878410908
 20
190.2721299407964
1001
AcDbBlockRepETag
1070
     1
1071
        2
1005
204A
  0
LWPOLYLINE
  5
204B
102
{ACAD_REACTORS
330
205C
330
205F
102
}
330
1F
100
AcDbEntity
  8
0
100
AcDbPolyline
 90
        2
 70
     1
 43
0.0
 10
25.62503668204056
 20
175.0930969125384
 42
24.68742596468933
 10
28.37496331796058
 20
175.0930969125384
 42
24.68742596468933
1001
AcDbBlockRepETag
1070
     1
1071
        3
1005
204B
  0
HATCH
  5
2057
330
1F
100
AcDbEntity
  8
Silikon
 62
     1
100
AcDbHatch
 10
0.0
 20
0.0
 30
0.0
210
0.0
220
0.0
230
1.0
  2
ANGLE
 70
     0
 71
     1
 91
        1
 92
        1
 93
        6
 72
     2
 10
29.9687894895789
 20
153.039965497465
 40
1.999999999999973
 50
250.0000000000087
 51
345.0000000000037
 73
     1
 72
     1
 10
31.90064114215704
 20
152.5223274072601
 11
31.97944372033106
 21
152.8164226327726
 72
     2
 10
34.877221199198
 20
152.0399654974652
 40
2.999999999999698
 50
194.9999999999981
 51
269.999999999997
 73
     0
 72
     1
 10
34.87722119919784
 20
155.0399654974649
 11
36.46878948957937
 21
155.0399654974653
 72
     1
 10
36.46878948957937
 20
155.0399654974653
 11
36.46878948957937
 21
148.6367959883495
 72
     1
 10
36.46878948957937
 20
148.6367959883495
 11
29.28474920292785
 21
151.1605802558931
 97
        1
330
2058
 75
     0
 76
     1
 52
0.0
 41
0.1
 77
     0
 78
     2
 53
0.0
 43
450.862749283392
 44
-186.5537829190565
 45
0.0
 46
0.6985000000000002
 79
     2
 49
0.508
 49
-0.1905
 53
90.0
 43
450.862749283392
 44
-186.5537829190565
 45
-0.6985000000000002
 46
0.0
 79
     2
 49
0.508
 49
-0.1905
 98
        1
 10
450.862749283392
 20
-186.5537829190565
1001
ACAD
1010
0.0
1020
0.0
1030
0.0
1001
AcDbBlockRepETag
1070
     1
1071
       15
1005
2057
  0
LWPOLYLINE
  5
2058
102
{ACAD_REACTORS
330
2057
102
}
330
1F
100
AcDbEntity
  8
Silikon
 62
     1
100
AcDbPolyline
 90
        6
 70
     1
 43
0.0
 10
29.28474920292785
 20
151.1605802558931
 42
0.4400105308918068
 10
31.90064114215704
 20
152.5223274072601
 10
31.97944372033106
 20
152.8164226327726
 42
-0.3394542588633679
 10
34.87722119919784
 20
155.0399654974649
 10
36.46878948957937
 20
155.0399654974653
 10
36.46878948957937
 20
148.6367959883495
1001
AcDbBlockRepETag
1070
     1
1071
       16
1005
2058
  0
LWPOLYLINE
  5
2059
330
1F
100
AcDbEntity
  8
Flügelrahmen
100
AcDbPolyline
 90
       13
 70
     0
 43
0.0
 10
15.96878948957246
 20
171.0837210451613
 10
15.96878948957246
 20
169.0399654974674
 10
15.96878948957246
 20
165.1098912289686
 42
0.3152987888789831
 10
24.52252762633927
 20
152.893887158752
 10
29.28474920292155
 20
151.1605802558955
 42
0.4400105308918346
 10
31.90064114215068
 20
152.522327407262
 10
31.97944372032468
 20
152.8164226327748
 42
-0.3394542588633779
 10
34.87722119919198
 20
155.0399654974673
 10
35.46878948957257
 20
155.039965497467
 10
35.96878948957257
 20
155.5399654974673
 10
35.96878948957257
 20
169.039965497467
 10
35.96878948957257
 20
169.039965497467
 10
40.05305846955764
 20
169.039965497467
1001
AcDbBlockRepETag
1070
     1
1071
       17
1005
2059
  0
LWPOLYLINE
  5
205A
102
{ACAD_REACTORS
330
205F
102
}
330
1F
100
AcDbEntity
  8
Blendrahmen
100
AcDbPolyline
 90
        9
 70
     0
 43
0.0
 10
43.85247730037113
 20
194.2721299407964
 10
33.02126886595727
 20
194.2721299407964
 42
0.4142135623730951
 10
32.02126886595727
 20
193.2721299407964
 10
32.02126886595727
 20
181.272129940797
 42
-0.5205670505517467
 10
29.33722857930582
 20
179.392744699225
 10
24.57500700272357
 20
181.1260516020815
 42
-0.3152987888789794
 10
16.02126886595724
 20
193.342055672298
 10
16.02126886595724
 20
194.2721299407964
 10
16.02126886595724
 20
205.0169036635855
1001
AcDbBlockRepETag
1070
     1
1071
       18
1005
205A
  0
TEXT
  5
205B
330
1F
100
AcDbEntity
  8
0
100
AcDbText
 10
12.46141872127066
 20
211.87116675367
 30
0.0
 40
3.5
  1
Variante Softline
 41
0.7
  7
RomanS
100
AcDbText
1001
AcDbBlockRepETag
1070
     1
1071
       19
1005
205B
  0
HATCH
  5
205C
330
1F
100
AcDbEntity
  8
Schraffur
 62
    84
100
AcDbHatch
 10
0.0
 20
0.0
 30
0.0
210
0.0
220
0.0
230
1.0
  2
STEEL
 70
     0
 71
     1
 91
        1
 92
        7
 72
     1
 73
     1
 93
        4
 10
43.90809907870256
 20
190.2721299407964
 42
0.0
 10
34.52126886595676
 20
190.2721299407964
 42
0.4142135623730951
 10
32.52126886595676
 20
188.2721299407964
 42
0.0
 10
32.52126886595676
 20
175.9589820159818
 42
0.2918872669977687
 97
        2
330
204A
330
204B
 75
     0
 76
     1
 52
90.0
 41
2.0
 77
     0
 78
     2
 53
135.0
 43
47.47665845009135
 44
175.1487917962387
 45
-4.490128060534575
 46
-4.490128060534575
 79
     0
 53
135.0
 43
44.30165845009134
 44
175.1487917962387
 45
-4.490128060534575
 46
-4.490128060534575
 79
     0
 47
0.1645939949470616
 98
        1
 10
37.30977643545623
 20
183.8572321117713
1001
ACAD
1010
0.0
1020
0.0
1030
0.0
1001
AcDbBlockRepETag
1070
     1
1071
       21
1005
205C
  0
LINE
  5
205D
330
1F
100
AcDbEntity
  8
Schraffur
 62
    84
100
AcDbLine
 10
38.02126886595728
 20
171.0921929174393
 30
0.0
 11
38.02126886595728
 21
169.039965497467
 31
0.0
1001
AcDbBlockRepETag
1070
     1
1071
       22
1005
205D
  0
LINE
  5
205E
102
{ACAD_REACTORS
330
205F
102
}
330
1F
100
AcDbEntity
  8
Schraffur
 62
     5
100
AcDbLine
 10
38.02126886595728
 20
194.2721299407964
 30
0.0
 11
38.02126886595728
 21
204.9808031500401
 31
0.0
1001
AcDbBlockRepETag
1070
     1
1071
       23
1005
205E
  0
HATCH
  5
205F
330
1F
100
AcDbEntity
  8
Schraffur
 62
     5
100
AcDbHatch
 10
0.0
 20
0.0
 30
0.0
210
0.0
220
0.0
230
1.0
  2
STEEL
 70
     0
 71
     1
 91
        1
 92
        7
 72
     1
 73
     1
 93
        3
 10
38.02126886595728
 20
204.9808031500405
 42
0.0
 10
38.02126886595726
 20
194.2721299407964
 42
0.0
 10
43.85247730037228
 20
194.2721299407964
 42
0.1854836782163176
 97
        3
330
205E
330
205A
330
204B
 75
     0
 76
     1
 52
90.0
 41
2.0
 77
     0
 78
     2
 53
135.0
 43
48.00000000000114
 44
175.0930969125384
 45
-4.490128060534575
 46
-4.490128060534575
 79
     0
 53
135.0
 43
44.82500000000114
 44
175.0930969125384
 45
-4.490128060534575
 46
-4.490128060534575
 79
     0
 47
0.0808233019568123
 98
        1
 10
40.5860306006
 20
197.4963747114566
1001
ACAD
1010
0.0
1020
0.0
1030
0.0
1001
AcDbBlockRepETag
1070
     1
1071
       24
1005
205F
  0
HATCH
  5
2061
330
1F
100
AcDbEntity
  8
Schraffur
 62
     5
100
AcDbHatch
 10
0.0
 20
0.0
 30
0.0
210
0.0
220
0.0
230
1.0
  2
STEEL
 70
     0
 71
     0
 91
        1
 92
        1
 93
       13
 72
     1
 10
38.02126916306742
 20
113.9189695869635
 11
38.02126916306742
 21
124.6276425191099
 72
     2
 10
27.00000000000063
 20
111.6842416508968
 40
17.00000000000074
 50
49.58569973086323
 51
130.2262608053101
 73
     1
 72
     1
 10
16.02126916306739
 20
124.6637435369554
 11
16.02126916306739
 21
109.165486788634
 72
     2
 10
20.02126916306742
 20
109.1654867886337
 40
4.000000000000015
 50
179.9999999999962
 51
249.9999999999962
 73
     1
 72
     1
 10
18.65318858976448
 20
105.4067163054901
 11
19.14489743229903
 21
105.2277489228822
 72
     2
 10
18.46085714564748
 20
103.3483636813107
 40
1.999999999999667
 50
290.0000000000099
 51
340.0000000000103
 73
     0
 72
     1
 10
20.34024238721912
 20
104.0324039679616
 11
20.58264647499589
 21
103.3664042104132
 72
     2
 10
23.40172433735393
 20
104.3924646403898
 40
3.000000000000149
 50
199.9999999999895
 51
249.999999999991
 73
     1
 72
     1
 10
22.37566390737644
 20
101.573386778032
 11
29.33722887641594
 21
99.03958434539148
 72
     2
 10
30.02126916306727
 20
100.9189695869633
 40
2.000000000000095
 50
250.0000000000015
 51
360.0000000000016
 73
     1
 72
     1
 10
32.02126916306736
 20
100.9189695869634
 11
32.02126916306736
 21
112.9189695869635
 72
     2
 10
33.02126916306736
 20
112.9189695869635
 40
0.9999999999999998
 50
180.0
 51
270.0
 73
     0
 72
     1
 10
33.02126916306736
 20
113.9189695869635
 11
38.0212691630674
 21
113.9189695869635
 97
        0
 75
     0
 76
     1
 52
0.0
 41
2.0
 77
     0
 78
     2
 53
45.0
 43
-0.0980216702267285
 44
-89.32996990593037
 45
-4.490128060534575
 46
4.490128060534575
 79
     0
 53
45.0
 43
-0.0980216702267285
 44
-86.15496990593033
 45
-4.490128060534575
 46
4.490128060534575
 79
     0
 98
        3
 10
26.98938933700578
 20
114.7603575223941
 10
179.9542706549726
 20
35.34929396234326
 10
170.0731450248059
 20
154.2548060055733
1001
ACAD
1010
0.0
1020
0.0
1030
0.0
1001
AcDbBlockRepETag
1070
     1
1071
        0
1005
2061
  0
HATCH
  5
2062
330
1F
100
AcDbEntity
  8
Schraffur
 62
    84
100
AcDbHatch
 10
0.0
 20
0.0
 30
0.0
210
0.0
220
0.0
230
1.0
  2
STEEL
 70
     0
 71
     0
 91
        1
 92
        7
 72
     1
 73
     1
 93
       16
 10
35.96878948957936
 20
88.68680511952247
 42
0.0
 10
40.05305846955979
 20
88.68680511952247
 42
0.4173735883527943
 10
15.96878948957933
 20
90.73056066722458
 42
0.0
 10
15.96878948957933
 20
80.93332232119278
 42
0.3152987888789831
 10
18.60070891627646
 20
77.17455183804927
 42
0.0
 10
19.09241775881097
 20
76.99558445544126
 42
-0.2216946626429416
 10
20.28776271373107
 20
75.80023950052083
 42
0.0
 10
20.53016680150739
 20
75.1342397429719
 42
0.2216946626429467
 10
22.32318423388841
 20
73.3412223105914
 42
0.0
 10
29.2847492029301
 20
70.80741987794991
 42
0.0
 10
29.32712743335665
 20
70.79253222323619
 42
0.4333251351469773
 10
31.90064114215751
 20
72.16916702931744
 42
0.0
 10
31.97944372033103
 20
72.46326225482997
 42
-0.3394542588635136
 10
34.8772211991988
 20
74.68680511952246
 42
0.0
 10
35.46878948957937
 20
74.68680511952212
 42
0.0
 10
35.96878948957936
 20
75.18680511952246
 42
0.0
 97
        0
 75
     0
 76
     1
 52
90.0
 41
2.0
 77
     0
 78
     2
 53
135.0
 43
-0.0980216702267285
 44
-89.32996990593037
 45
-4.490128060534575
 46
-4.490128060534575
 79
     0
 53
135.0
 43
-3.273021670226738
 44
-89.32996990593037
 45
-4.490128060534575
 46
-4.490128060534575
 79
     0
 47
0.5460268397635694
 98
        3
 10
21.31914430835096
 20
81.62382514458405
 10
185.2730139538731
 20
4.088013470858378
 10
185.2730139538731
 20
136.2265092952338
1001
ACAD
1010
0.0
1020
0.0
1030
0.0
1001
AcDbBlockRepETag
1070
     1
1071
        1
1005
2062
  0
LWPOLYLINE
  5
2063
102
{ACAD_REACTORS
330
2077
102
}
330
1F
100
AcDbEntity
  8
Blendrahmen
100
AcDbPolyline
 90
       12
 70
     0
 43
0.0
 10
43.85247729717469
 20
113.9189695869635
 10
33.02126916306736
 20
113.9189695869635
 42
0.4142135623730951
 10
32.02126916306736
 20
112.9189695869635
 10
32.02126916306736
 20
100.9189695869634
 42
-0.5205670505517467
 10
29.33722887641597
 20
99.03958434539148
 10
22.37566390737644
 20
101.573386778032
 42
-0.2216946626429468
 10
20.5826464749959
 20
103.3664042104132
 10
20.34024238721912
 20
104.0324039679616
 42
0.2216946626429416
 10
19.14489743229905
 20
105.2277489228822
 10
18.65318858976448
 20
105.4067163054901
 42
-0.3152987888789831
 10
16.02126916306739
 20
109.165486788634
 10
16.02126916306739
 20
124.6637435369536
1001
AcDbBlockRepETag
1070
     1
1071
        2
1005
2063
  0
TEXT
  5
2064
330
1F
100
AcDbEntity
  8
0
100
AcDbText
 10
12.46141872127072
 20
131.5180063757275
 30
0.0
 40
3.5
  1
Variante Rustikal
 41
0.7
  7
RomanS
100
AcDbText
1001
AcDbBlockRepETag
1070
     1
1071
        3
1005
2064
  0
LWPOLYLINE
  5
2065
102
{ACAD_REACTORS
330
2075
102
}
330
1F
100
AcDbEntity
  8
Flügelrahmen
100
AcDbPolyline
 90
        4
 70
     0
 43
0.0
 10
32.52126916306739
 20
95.60582174006615
 10
32.52126916306739
 20
107.9189695869634
 42
-0.4142135623730951
 10
34.52126916306736
 20
109.9189695869634
 10
43.90809908121918
 20
109.9189695869634
1001
AcDbBlockRepETag
1070
     1
1071
        4
1005
2065
  0
LWPOLYLINE
  5
2066
102
{ACAD_REACTORS
330
2075
330
2077
102
}
330
1F
100
AcDbEntity
  8
0
100
AcDbPolyline
 90
        2
 70
     1
 43
0.0
 10
25.62503668204062
 20
94.7399365345962
 42
24.68742596468933
 10
28.37496331796064
 20
94.7399365345962
 42
24.68742596468933
1001
AcDbBlockRepETag
1070
     1
1071
        5
1005
2066
  0
HATCH
  5
2072
330
1F
100
AcDbEntity
  8
Silikon
 62
     1
100
AcDbHatch
 10
0.0
 20
0.0
 30
0.0
210
0.0
220
0.0
230
1.0
  2
ANGLE
 70
     0
 71
     1
 91
        1
 92
        1
 93
        6
 72
     2
 10
29.96878948957919
 20
72.68680511952259
 40
2.000000000000195
 50
250.0000000000031
 51
344.9999999999982
 73
     1
 72
     1
 10
31.90064114215751
 20
72.16916702931744
 11
31.97944372033152
 21
72.46326225483028
 72
     2
 10
34.87722119919818
 20
71.6868051195231
 40
2.99999999999938
 50
194.999999999996
 51
269.9999999999944
 73
     0
 72
     1
 10
34.87722119919789
 20
74.68680511952246
 11
36.46878948957937
 21
74.68680511952292
 72
     1
 10
36.46878948957937
 20
74.68680511952292
 11
36.46878948957937
 21
68.283635610407
 72
     1
 10
36.46878948957937
 20
68.283635610407
 11
29.28474920292789
 21
70.80741987795055
 97
        1
330
2073
 75
     0
 76
     1
 52
0.0
 41
0.1
 77
     0
 78
     2
 53
0.0
 43
450.8627492833928
 44
-266.9069432969989
 45
0.0
 46
0.6985000000000002
 79
     2
 49
0.508
 49
-0.1905
 53
90.0
 43
450.8627492833928
 44
-266.9069432969989
 45
-0.6985000000000002
 46
0.0
 79
     2
 49
0.508
 49
-0.1905
 98
        1
 10
450.8627492833928
 20
-266.9069432969989
1001
ACAD
1010
0.0
1020
0.0
1030
0.0
1001
AcDbBlockRepETag
1070
     1
1071
       17
1005
2072
  0
LWPOLYLINE
  5
2073
102
{ACAD_REACTORS
330
2072
102
}
330
1F
100
AcDbEntity
  8
Silikon
 62
     1
100
AcDbPolyline
 90
        6
 70
     1
 43
0.0
 10
29.28474920292789
 20
70.80741987795055
 42
0.4400105308918068
 10
31.90064114215751
 20
72.16916702931744
 10
31.97944372033152
 20
72.46326225483028
 42
-0.3394542588633679
 10
34.87722119919789
 20
74.68680511952246
 10
36.46878948957937
 20
74.68680511952292
 10
36.46878948957937
 20
68.283635610407
1001
AcDbBlockRepETag
1070
     1
1071
       18
1005
2073
  0
LWPOLYLINE
  5
2074
330
1F
100
AcDbEntity
  8
Flügelrahmen
100
AcDbPolyline
 90
       15
 70
     0
 43
0.0
 10
40.05305846955951
 20
88.68680511952247
 10
35.96878948957936
 20
88.68680511952247
 10
35.96878948957936
 20
75.18680511952246
 10
35.46878948957937
 20
74.68680511952212
 10
34.8772211991988
 20
74.68680511952246
 42
0.3394542588633798
 10
31.97944372033103
 20
72.46326225482997
 10
31.90064114215751
 20
72.16916702931744
 42
-0.4400105308918374
 10
29.28474920292789
 20
70.80741987795055
 10
22.32318423388841
 20
73.3412223105914
 42
-0.2216946626429468
 10
20.53016680150739
 20
75.1342397429719
 10
20.28776271373107
 20
75.80023950052083
 42
0.2216946626429416
 10
19.09241775881097
 20
76.99558445544126
 10
18.60070891627646
 20
77.17455183804927
 42
-0.3152987888789831
 10
15.96878948957933
 20
80.93332232119278
 10
15.96878948957933
 20
90.73056066722418
1001
AcDbBlockRepETag
1070
     1
1071
       19
1005
2074
  0
HATCH
  5
2075
330
1F
100
AcDbEntity
  8
Schraffur
 62
    84
100
AcDbHatch
 10
0.0
 20
0.0
 30
0.0
210
0.0
220
0.0
230
1.0
  2
STEEL
 70
     0
 71
     1
 91
        1
 92
        7
 72
     1
 73
     1
 93
        4
 10
32.52126916306739
 20
95.60582174006615
 42
0.291887262371315
 10
43.90809908121974
 20
109.9189695869634
 42
0.0
 10
34.52126916306736
 20
109.9189695869634
 42
0.4142135623730951
 10
32.52126916306739
 20
107.9189695869634
 42
0.0
 97
        2
330
2065
330
2066
 75
     0
 76
     1
 52
90.0
 41
2.0
 77
     0
 78
     2
 53
135.0
 43
48.00000000000136
 44
111.6842416508967
 45
-4.490128060534575
 46
-4.490128060534575
 79
     0
 53
135.0
 43
44.82500000000135
 44
111.6842416508967
 45
-4.490128060534575
 46
-4.490128060534575
 79
     0
 47
0.1645810927600751
 98
        1
 10
35.98863930304333
 20
103.6604835366815
1001
ACAD
1010
0.0
1020
0.0
1030
0.0
1001
AcDbBlockRepETag
1070
     1
1071
       20
1005
2075
  0
LINE
  5
2076
102
{ACAD_REACTORS
330
2077
102
}
330
1F
100
AcDbEntity
  8
Schraffur
 62
     5
100
AcDbLine
 10
38.02126916306742
 20
124.6276425191098
 30
0.0
 11
38.02126916306742
 21
113.9189695869635
 31
0.0
1001
AcDbBlockRepETag
1070
     1
1071
       21
1005
2076
  0
HATCH
  5
2077
330
1F
100
AcDbEntity
  8
Schraffur
 62
     5
100
AcDbHatch
 10
0.0
 20
0.0
 30
0.0
210
0.0
220
0.0
230
1.0
  2
STEEL
 70
     0
 71
     1
 91
        1
 92
        7
 72
     1
 73
     1
 93
        3
 10
38.02126916306742
 20
124.6276425191098
 42
0.0
 10
38.02126916306741
 20
113.9189695869634
 42
0.0
 10
43.85247729717531
 20
113.9189695869635
 42
0.1854836719102866
 97
        3
330
2076
330
2063
330
2066
 75
     0
 76
     1
 52
90.0
 41
2.0
 77
     0
 78
     2
 53
135.0
 43
48.00000000000136
 44
94.7399365345962
 45
-4.490128060534575
 46
-4.490128060534575
 79
     0
 53
135.0
 43
44.82500000000135
 44
94.7399365345962
 45
-4.490128060534575
 46
-4.490128060534575
 79
     0
 47
0.138199607233765
 98
        1
 10
40.82308411199437
 20
118.5596980766215
1001
ACAD
1010
0.0
1020
0.0
1030
0.0
1001
AcDbBlockRepETag
1070
     1
1071
       22
1005
2077
  0
LINE
  5
2078
330
1F
100
AcDbEntity
  8
Schraffur
 62
    84
100
AcDbLine
 10
37.96878948957937
 20
90.78353568085205
 30
0.0
 11
37.96878948957937
 21
88.68680511952247
 31
0.0
1001
AcDbBlockRepETag
1070
     1
1071
       23
1005
2078
  0
CIRCLE
  5
207A
330
1F
100
AcDbEntity
  8
0
100
AcDbCircle
 10
183.0
 20
141.8868621400974
 30
0.0
 40
17.0
1001
AcDbBlockRepETag
1070
     1
1071
        2
1005
207A
  0
MTEXT
  5
207B
102
{ACAD_XDICTIONARY
360
3019
102
}
330
1F
100
AcDbEntity
  8
0
100
AcDbMText
 10
8.989289813916457
 20
288.6378241102486
 30
0.0
 40
5.0
 41
167.3443249562397
 71
     1
 72
     5
  1
{\fArial|b1|i0|c0|p34;Holzfenster IDEAL IV78xxxx - ClassicLine\PVerbreiterung\P\fArial|b0|i0|c0|p34;\H0.6x;Getriebenutmitte 13.15mm\PGlasst\U+00E4rken 28mm bis 46mm\P\PVertikalschnitt - Horizontalschnitt}
 73
     1
 44
1.0
1001
ACAD
1000
MTEXTBEGIN
1070
    73
1070
     1
1070
    44
1040
1.0
1070
    74
1070
     0
1000
MTEXTEND
1000
ACAD_MTEXT_DEFINED_HEIGHT_BEGIN
1070
    46
1040
11.02238646360934
1000
ACAD_MTEXT_DEFINED_HEIGHT_END
  0
MTEXT
  5
207C
102
{ACAD_XDICTIONARY
360
301B
102
}
330
1F
100
AcDbEntity
  8
0
100
AcDbMText
 10
6.903493688490241
 20
10.76514264524075
 30
0.0
 40
3.0
 41
98.32817594333187
 71
     1
 72
     5
  1
{\fArial|b0|i0|c0|p34;Zeichnung ohne Gew\U+00E4hr; \U+00C4nderungen vorbehalten}
 73
     1
 44
1.0
1001
ACAD
1000
MTEXTBEGIN
1070
    73
1070
     1
1070
    44
1040
1.0
1070
    74
1070
     0
1000
MTEXTEND
1000
ACAD_MTEXT_DEFINED_HEIGHT_BEGIN
1070
    46
1040
3.967088642823908
1000
ACAD_MTEXT_DEFINED_HEIGHT_END
  0
MTEXT
  5
207D
330
1F
100
AcDbEntity
  8
0
100
AcDbMText
 10
156.3084045242623
 20
13.6008602382999
 30
0.0
 40
5.0
 41
44.56825787201046
 71
     1
 72
     5
  1
{\fArial|b0|i0|c0|p34;01-IV78-xC/20}
 73
     1
 44
1.0
1001
ACAD
1000
MTEXTBEGIN
1070
    73
1070
     1
1070
    44
1040
1.0
1070
    74
1070
     0
1000
MTEXTEND
1000
ACAD_MTEXT_DEFINED_HEIGHT_BEGIN
1070
    46
1040
9.819575724238347
1000
ACAD_MTEXT_DEFINED_HEIGHT_END
  0
MTEXT
  5
2096
330
1F
100
AcDbEntity
  8
0
100
AcDbMText
 10
7.309832270316745
 20
19.77472087046257
 30
0.0
 40
2.5
 41
120.1274149904258
 71
     1
 72
     5
  1
{\fArial|b0|i0|c0|p34;2) SoftLine mit Rundungsradius R5\P6) Maximale Breite}
 73
     1
 44
1.0
1001
ACAD
1000
MTEXTBEGIN
1070
    73
1070
     1
1070
    44
1040
1.0
1070
    74
1070
     0
1000
MTEXTEND
1000
ACAD_MTEXT_DEFINED_HEIGHT_BEGIN
1070
    46
1040
10.93144067208069
1000
ACAD_MTEXT_DEFINED_HEIGHT_END
  0
LINE
  5
20AB
330
1F
100
AcDbEntity
  8
0
  6
STRICHPUNKT
 48
0.1804
100
AcDbLine
 10
194.8543848370552
 20
44.83075971873649
 30
0.0
 11
194.8543848370552
 21
36.49523870256128
 31
0.0
1001
AcDbBlockRepETag
1070
     1
1071
        0
1005
0
  0
LINE
  5
20AD
330
1F
100
AcDbEntity
  8
0
  6
STRICHPUNKT
 48
0.1804
100
AcDbLine
 10
194.9545105072665
 20
31.54465256767676
 30
0.0
 11
203.6213809739047
 21
31.54465256767676
 31
0.0
1001
AcDbBlockRepETag
1070
     1
1071
       32
1005
0
  0
MTEXT
  5
20AE
330
1F
100
AcDbEntity
  8
Schraffur
100
AcDbMText
 10
193.0123072101678
 20
44.3998706615932
 30
0.0
 40
2.5
 41
1.84181877992887
 71
     1
 72
     5
  1
A
  7
RomanS
 73
     1
 44
1.0
1001
ACAD
1000
MTEXTBEGIN
1070
    73
1070
     1
1070
    44
1040
1.0
1070
    74
1070
     0
1000
MTEXTEND
  0
MTEXT
  5
20B0
330
1F
100
AcDbEntity
  8
Schraffur
100
AcDbMText
 10
201.497858864378
 20
34.77734658121746
 30
0.0
 40
2.5
 41
1.84181877992887
 71
     1
 72
     5
  1
B
  7
RomanS
 73
     1
 44
1.0
1001
ACAD
1000
MTEXTBEGIN
1070
    73
1070
     1
1070
    44
1040
1.0
1070
    74
1070
     0
1000
MTEXTEND
  0
MTEXT
  5
20BE
330
1F
100
AcDbEntity
  8
Bemaßung
100
AcDbMText
 10
22.81798793616417
 20
159.1910323685612
 30
0.0
 40
2.5
 41
4.582772900059353
 71
     2
 72
     5
  1
R13
  7
RomanS
 73
     1
 44
1.0
1001
ACAD
1000
MTEXTBEGIN
1070
    73
1070
     1
1070
    44
1040
1.0
1070
    74
1070
     0
1000
MTEXTEND
1000
ACAD_MTEXT_DEFINED_HEIGHT_BEGIN
1070
    46
1040
1.971624324197813
1000
ACAD_MTEXT_DEFINED_HEIGHT_END
  0
HATCH
  5
20C4
330
1F
100
AcDbEntity
  8
Schraffur
 62
     5
100
AcDbHatch
 10
0.0
 20
0.0
 30
0.0
210
0.0
220
0.0
230
1.0
  2
STEEL
 70
     0
 71
     0
 91
        1
 92
        7
 72
     1
 73
     1
 93
        4
 10
172.6603539866116
 20
155.3809986562969
 42
0.2201914815091852
 10
166.0212926211903
 20
142.7374476706353
 42
0.0
 10
170.6603539866113
 20
142.7374476706366
 42
0.4142135623730951
 10
172.6603539866116
 20
144.7374476706367
 42
0.0
 97
        0
 75
     0
 76
     1
 52
0.0
 41
2.0
 77
     0
 78
     2
 53
45.0
 43
0.0
 44
0.0
 45
-4.490128060534575
 46
4.490128060534575
 79
     0
 53
45.0
 43
0.0
 44
3.174999999999998
 45
-4.490128060534575
 46
4.490128060534575
 79
     0
 47
0.1946356827982703
 98
        3
 10
26.48916744304609
 20
108.3133417175068
 10
179.454048761013
 20
28.90227815745589
 10
169.5729231308462
 20
147.8077902006857
1001
AcDbBlockRepETag
1070
     1
1071
        0
1005
0
1001
ACAD
1010
0.0
1020
0.0
1030
0.0
  0
TEXT
  5
20C5
330
1F
100
AcDbEntity
  8
0
100
AcDbText
 10
166.4839521426016
 20
161.0097687201681
 30
0.0
 40
2.5
  1
Dichtung am Überschlag
 41
0.7
  7
RomanS
100
AcDbText
1001
AcDbBlockRepETag
1070
     1
1071
        3
1005
0
  0
TEXT
  5
20C6
330
1F
100
AcDbEntity
  8
0
100
AcDbText
 10
169.2107403093221
 20
166.2609364460553
 30
0.0
 40
3.5
  1
optional ohne
 41
0.7
  7
RomanS
100
AcDbText
1001
AcDbBlockRepETag
1070
     1
1071
        4
1005
0
  0
LWPOLYLINE
  5
20C7
330
1F
100
AcDbEntity
  8
Blendrahmen
100
AcDbPolyline
 90
        4
 70
     0
 43
0.0
 10
166.0212926211903
 20
142.7374476706353
 10
170.6603539866113
 20
142.7374476706366
 42
0.4142135623730951
 10
172.6603539866116
 20
144.7374476706367
 10
172.6603539866116
 20
155.3809986562965
1001
AcDbBlockRepETag
1070
     1
1071
        5
1005
0
  0
MTEXT
  5
20C8
330
1F
100
AcDbEntity
  8
0
100
AcDbMText
 10
199.840685988822
 20
165.2570243725283
 30
0.0
 40
1.5
 41
7.649234826219069
 71
     1
 72
     5
  1
{\fArial|b1|i0|c0|p34;2)}
 73
     1
 44
1.0
1001
AcDbBlockRepETag
1070
     1
1071
        9
1005
0
1001
ACAD
1000
MTEXTBEGIN
1070
    73
1070
     1
1070
    44
1040
1.0
1070
    74
1070
     0
1000
MTEXTEND
  0
HATCH
  5
20C9
330
1F
100
AcDbEntity
  8
Schraffur
 62
    84
100
AcDbHatch
 10
0.0
 20
0.0
 30
0.0
210
0.0
220
0.0
230
1.0
  2
STEEL
 70
     0
 71
     0
 91
        2
 92
        7
 72
     1
 73
     1
 93
       10
 10
189.1603539866116
 20
126.0423034917904
 42
-0.3154694933720204
 10
170.210992112917
 20
130.6868051195225
 42
0.0
 10
171.6603539866114
 20
130.6868051195222
 42
0.4142135623730951
 10
172.6603539866116
 20
131.6868051195222
 42
0.0
 10
172.6603539866116
 20
137.6868051195227
 42
0.0
 10
172.6603539866116
 20
146.686805119522
 42
-0.4142135623730951
 10
174.6603539866116
 20
148.6868051195218
 42
0.0
 10
180.6603539866114
 20
148.6868051195218
 42
0.0
 10
186.1603539866114
 20
148.6868051195218
 42
-0.4142135623730951
 10
189.1603539866116
 20
145.6868051195218
 42
0.0
 97
        0
 92
       24
 93
        4
 72
     1
 10
182.6115480482395
 20
138.8726560980844
 11
188.9448813815729
 21
138.8726560980844
 72
     1
 10
188.9448813815729
 20
138.8726560980844
 11
188.9448813815729
 21
148.098846574275
 72
     1
 10
188.9448813815729
 20
148.098846574275
 11
182.6115480482395
 21
148.098846574275
 72
     1
 10
182.6115480482395
 20
148.098846574275
 11
182.6115480482395
 21
138.8726560980845
 97
        0
 75
     0
 76
     1
 52
90.0
 41
2.0
 77
     0
 78
     2
 53
135.0
 43
0.0
 44
0.0
 45
-4.490128060534575
 46
-4.490128060534575
 79
     0
 53
135.0
 43
-3.174999999999998
 44
0.0000000000000002
 45
-4.490128060534575
 46
-4.490128060534575
 79
     0
 47
0.4247652808687849
 98
        1
 10
183.3425491652373
 20
134.0083397355737
1001
ACAD
1010
0.0
1020
0.0
1030
0.0
  0
MTEXT
  5
20CA
330
1F
100
AcDbEntity
  8
Bemaßung
100
AcDbMText
 10
185.7782147149062
 20
147.3289706634818
 30
0.0
 40
2.5
 41
4.543296159483361
 71
     2
 72
     5
  1
R3\P(R5)
  7
RomanS
 73
     1
 44
1.0
1001
ACAD
1000
MTEXTBEGIN
1070
    73
1070
     1
1070
    44
1040
1.0
1070
    74
1070
     0
1000
MTEXTEND
1000
ACAD_MTEXT_DEFINED_HEIGHT_BEGIN
1070
    46
1040
7.831314565397414
1000
ACAD_MTEXT_DEFINED_HEIGHT_END
  0
LWPOLYLINE
  5
20CB
330
1F
100
AcDbEntity
  8
Flügelrahmen
100
AcDbPolyline
 90
       11
 70
     0
 43
0.0
 10
189.1603539866116
 20
126.0423034917905
 10
189.1603539866116
 20
145.6868051195218
 42
0.4142135623730951
 10
186.1603539866114
 20
148.6868051195218
 10
180.6603539866114
 20
148.6868051195218
 10
174.6603539866116
 20
148.6868051195218
 42
0.4142135623730951
 10
172.6603539866116
 20
146.686805119522
 10
172.6603539866116
 20
137.6868051195227
 10
172.6603539866116
 20
137.6868051195227
 10
172.6603539866116
 20
131.6868051195222
 42
-0.4142135623730951
 10
171.6603539866114
 20
130.6868051195222
 10
170.210992112917
 20
130.6868051195225
  0
LWPOLYLINE
  5
21B4
102
{ACAD_REACTORS
330
2CE7
102
}
330
1F
100
AcDbEntity
  8
Zusatzprofile
100
AcDbPolyline
 90
       52
 70
     1
 43
0.0
 10
60.5461294456074
 20
212.6868051195222
 10
60.5461294456074
 20
205.6868051195222
 10
60.5461294456074
 20
188.6868051195222
 42
0.4142135623730951
 10
63.5461294456074
 20
185.6868051195221
 10
70.94612944560726
 20
185.6868051195221
 42
-0.4142135623730951
 10
72.44612944560725
 20
184.1868051195222
 10
72.44612944560718
 20
177.6868051195221
 42
0.4142135623730875
 10
73.4461294456072
 20
176.6868051195221
 10
81.1461294456074
 20
176.686805119522
 42
0.4142135623730984
 10
82.14612944560739
 20
177.686805119522
 10
82.14612944560752
 20
184.9868051195216
 42
-0.4142135623731804
 10
83.64612944560752
 20
186.4868051195216
 10
91.44612944560853
 20
186.4868051195206
 42
-0.4142135623730728
 10
92.94612944560768
 20
184.9868051195213
 10
92.94612944560768
 20
177.6868051195221
 42
0.4142135623730959
 10
93.94612944560767
 20
176.6868051195221
 10
114.146129445607
 20
176.6868051195221
 42
0.4142135623730951
 10
115.146129445607
 20
177.6868051195221
 10
115.146129445607
 20
184.1868051195222
 42
-0.4142135623730951
 10
116.6461294456071
 20
185.6868051195221
 10
135.5461294456068
 20
185.6868051195221
 42
0.4142135623730951
 10
138.5461294456068
 20
188.6868051195222
 10
138.5461294456069
 20
205.6868051195223
 10
138.5461294456069
 20
209.6868051193852
 10
138.5461294456069
 20
212.6868051195223
 42
0.4142135623730951
 10
135.546129445607
 20
215.6868051195222
 10
116.6461294456071
 20
215.6868051195222
 42
0.4142135623730951
 10
115.146129445607
 20
214.1868051195223
 10
115.146129445607
 20
206.1868051195223
 42
-0.4142135623730992
 10
114.6461294456071
 20
205.6868051195223
 10
114.146129445607
 20
205.686805119522
 10
93.4461294456072
 20
205.6868051195223
 42
-0.4142135623730911
 10
92.94612944560768
 20
206.1868051195223
 10
92.94612944560768
 20
213.9868051195213
 42
0.4142135623730911
 10
91.4461294456081
 20
215.4868051195206
 10
83.64612944560709
 20
215.4868051195218
 42
0.4142135623730992
 10
82.14612944560752
 20
213.9868051195218
 10
82.1461294456073
 20
206.1868051195223
 42
-0.4142135623730992
 10
81.64612944560706
 20
205.686805119522
 10
72.94612944560725
 20
205.6868051195223
 42
-0.4142135623730951
 10
72.44612944560725
 20
206.1868051195223
 10
72.44612944560803
 20
214.1868051195236
 42
0.4142135623730951
 10
70.94612944560804
 20
215.6868051195236
 10
69.37979293959704
 20
215.6868051195236
 42
0.3394542588633798
 10
68.89683002645284
 20
215.3162146420757
 10
68.02363209503818
 20
212.0573955969728
 42
-0.3394542588633914
 10
67.54066918189386
 20
211.6868051195236
 10
65.45158970932203
 20
211.6868051195236
 42
-0.339454258863376
 10
64.96862679617646
 20
212.0573955969728
 10
64.09542886476201
 20
215.3162146420757
 42
0.3394542588633913
 10
63.61246595161849
 20
215.6868051195236
 10
63.54612944560749
 20
215.6868051195223
 42
0.4142135623731062
  0
LWPOLYLINE
  5
21B7
330
1F
100
AcDbEntity
  8
Glasleiste
100
AcDbPolyline
 90
       23
 70
     1
 43
0.0
 10
173.313429340307
 20
88.68680511952234
 10
171.2763559120463
 20
87.9453710266207
 10
171.2763559120466
 20
82.67331149515319
 42
-0.3178372451957874
 10
170.60968924538
 20
81.73050245357115
 42
0.3178372451957952
 10
170.2763559120466
 20
81.25909793278006
 10
170.2763559120467
 20
75.18680511952232
 10
170.7763559120467
 20
74.68680511952229
 10
171.3679242024273
 20
74.68680511952229
 42
-0.3394542588633623
 10
174.2657016812944
 20
72.46326225482994
 10
174.3445042594684
 20
72.16916702931726
 42
0.4400105308918321
 10
176.9603961986979
 20
70.80741987795049
 10
183.3456093454042
 20
73.13144740279691
 42
0.2216946626429391
 10
185.1386267777848
 20
74.92446483517759
 10
185.4573826878943
 20
75.8002395005208
 42
-0.2216946626429391
 10
186.6527276428147
 20
76.99558445544119
 10
190.1444364853489
 20
78.26646254084781
 42
0.3152987888789831
 10
192.7763559120462
 20
82.02523302399137
 10
192.7763559120462
 20
88.68680511952247
 42
0.4142135623730951
 10
190.7763559120462
 20
90.6868051195225
 10
189.343251766218
 20
90.68680511952235
 42
0.3639702342662163
 10
188.8508478897119
 20
90.27362920835576
 10
188.6439020501301
 20
89.09998103068899
 42
-0.3639702342662049
 10
188.1514981736238
 20
88.68680511952247
1001
AcDbBlockRepETag
1070
     1
1071
       17
1005
21B7
  0
HATCH
  5
21B9
330
1F
100
AcDbEntity
  8
Schraffur
 62
    84
100
AcDbHatch
 10
0.0
 20
0.0
 30
0.0
210
0.0
220
0.0
230
1.0
  2
STEEL
 70
     0
 71
     0
 91
        1
 92
        7
 72
     1
 73
     1
 93
       24
 10
188.1514981736239
 20
88.68680511952247
 42
0.3639702342665228
 10
188.6439020501299
 20
89.09998103068909
 42
0.0
 10
188.8508478897117
 20
90.27362920835583
 42
-0.3639702342662163
 10
189.3432517662181
 20
90.68680511952242
 42
0.0
 10
190.7763559120463
 20
90.6868051195225
 42
-0.4142135623730951
 10
192.7763559120464
 20
88.68680511952247
 42
0.0
 10
192.7763559120464
 20
82.02523302399145
 42
-0.3152987888789831
 10
190.1444364853491
 20
78.26646254084778
 42
0.0
 10
186.6527276428148
 20
76.99558445544131
 42
0.2216946626429392
 10
185.4573826878946
 20
75.80023950052076
 42
0.0
 10
185.1386267777848
 20
74.92446483517795
 42
-0.2216946626429391
 10
183.3456093454043
 20
73.13144740279693
 42
0.0
 10
176.9603961986897
 20
70.80741987794643
 42
0.0
 10
176.9180179683948
 20
70.79253222327884
 42
-0.4333251351666421
 10
174.3445042594684
 20
72.16916702931745
 42
0.0
 10
174.2657016812943
 20
72.46326225483016
 42
0.3394542588634565
 10
171.3679242024273
 20
74.68680511952243
 42
0.0
 10
170.7763559120467
 20
74.68680511952243
 42
0.0
 10
170.2763559120467
 20
75.18680511952243
 42
0.0
 10
170.2763559120467
 20
81.25909793278017
 42
-0.3178372451958395
 10
170.6096892453803
 20
81.73050245357121
 42
0.3178372451957652
 10
171.2763559120463
 20
82.67331149515319
 42
0.0
 10
171.2763559120463
 20
87.9453710266207
 42
0.0
 10
173.313429340307
 20
88.68680511952247
 42
0.0
 97
        0
 75
     0
 76
     1
 52
0.0
 41
1.0
 77
     0
 78
     2
 53
45.0
 43
0.0
 44
0.0
 45
-2.245064030267287
 46
2.245064030267287
 79
     0
 53
45.0
 43
0.0
 44
1.587499999999999
 45
-2.245064030267287
 46
2.245064030267287
 79
     0
 47
0.1061632553570742
 98
        1
 10
183.4302013291951
 20
86.14792444028154
1001
AcDbBlockRepETag
1070
     1
1071
       15
1005
21B9
1001
ACAD
1010
0.0
1020
0.0
1030
0.0
  0
MTEXT
  5
21BA
330
1F
100
AcDbEntity
  8
0
100
AcDbMText
 10
182.791917570025
 20
106.9141682212908
 30
0.0
 40
2.5
 41
32.45222712164236
 71
     5
 72
     1
  1
Glasleiste profiliert\Pfür Glasstärken 24mm bis 34mm
  7
RomanS
 73
     1
 44
1.0
1001
AcDbBlockRepETag
1070
     1
1071
       16
1005
21BA
1001
ACAD
1000
MTEXTBEGIN
1070
    73
1070
     1
1070
    44
1040
1.0
1070
    74
1070
     0
1000
MTEXTEND
1000
ACAD_MTEXT_DEFINED_HEIGHT_BEGIN
1070
    46
1040
12.21528446946036
1000
ACAD_MTEXT_DEFINED_HEIGHT_END
  0
LINE
  5
21BB
330
1F
100
AcDbEntity
  8
Silikon
 62
     1
100
AcDbLine
 10
176.9180179682819
 20
70.7925322232406
 30
0.0
 11
172.582200884975
 21
69.2693410236966
 31
0.0
1001
AcDbBlockRepETag
1070
     1
1071
        0
1005
21BB
  0
HATCH
  5
21BC
330
1F
100
AcDbEntity
  8
Silikon
 62
     1
100
AcDbHatch
 10
0.0
 20
0.0
 30
0.0
210
0.0
220
0.0
230
1.0
  2
ANGLE
 70
     0
 71
     1
 91
        1
 92
        1
 93
        7
 72
     1
 10
172.582200884975
 20
69.2693410236966
 11
176.9603961986977
 21
70.80741987795069
 72
     2
 10
176.2763559120465
 20
72.68680511952251
 40
1.999999999999958
 50
70.00000000000389
 51
164.999999999999
 73
     0
 72
     1
 10
174.3445042594684
 20
72.16916702931745
 11
174.2657016812943
 21
72.46326225483016
 72
     2
 10
171.3679242024279
 20
71.68680511952313
 40
2.999999999999086
 50
14.99999999999408
 51
89.99999999999241
 73
     1
 72
     1
 10
171.3679242024283
 20
74.68680511952221
 11
169.7763559120464
 21
74.68680511952221
 72
     1
 10
169.7763559120464
 20
74.68680511952221
 11
169.7763559120464
 21
72.01982386721289
 72
     2
 10
183.0000000000005
 20
82.70323329656372
 40
17.00000000000074
 50
218.9348163439018
 51
232.2069130505847
 73
     1
 97
        1
330
21BD
 75
     0
 76
     1
 52
0.0
 41
0.1
 77
     0
 78
     2
 53
180.0
 43
-244.6176038817667
 44
-266.9069432969987
 45
0.0
 46
0.6985000000000002
 79
     2
 49
0.508
 49
-0.1905
 53
90.0
 43
-244.6176038817667
 44
-266.9069432969987
 45
0.6985000000000002
 46
0.0
 79
     2
 49
0.508
 49
-0.1905
 98
        1
 10
-244.6176038817667
 20
-266.9069432969987
1001
ACAD
1010
0.0
1020
0.0
1030
0.0
1001
AcDbBlockRepETag
1070
     1
1071
        1
1005
21BC
  0
LWPOLYLINE
  5
21BD
102
{ACAD_REACTORS
330
21BC
102
}
330
1F
100
AcDbEntity
  8
Silikon
 62
     1
100
AcDbPolyline
 90
        7
 70
     1
 43
0.0
 10
172.582200884975
 20
69.2693410236966
 10
176.9603961986977
 20
70.80741987795069
 42
-0.4400105308918084
 10
174.3445042594684
 20
72.16916702931745
 10
174.2657016812943
 20
72.46326225483016
 42
0.3394542588633679
 10
171.3679242024283
 20
74.68680511952221
 10
169.7763559120464
 20
74.68680511952221
 10
169.7763559120464
 20
72.01982386721289
 42
0.0579752700428324
1001
AcDbBlockRepETag
1070
     1
1071
        2
1005
21BD
  0
HATCH
  5
21BE
330
1F
100
AcDbEntity
  8
Schraffur
 62
    84
100
AcDbHatch
 10
0.0
 20
0.0
 30
0.0
210
0.0
220
0.0
230
1.0
  2
STEEL
 70
     0
 71
     0
 91
        1
 92
        7
 72
     1
 73
     1
 93
       14
 10
193.7763559120464
 20
94.6868051195223
 42
0.0
 10
193.7763559120464
 20
95.85124277545055
 42
0.5135471230855161
 10
167.0878389827309
 20
88.68680511952247
 42
0.0
 10
169.2763559120463
 20
88.68680511952247
 42
0.0
 10
181.7763559120467
 20
88.68680511952247
 42
0.0
 10
181.7763559120467
 20
92.68680511952274
 42
0.0
 10
185.7763559120463
 20
92.68680511952274
 42
0.0
 10
185.7763559120463
 20
88.68680511952247
 42
0.0
 10
188.1514981736239
 20
88.68680511952247
 42
0.3639702342664933
 10
188.6439020501299
 20
89.09998103068909
 42
0.0
 10
188.8508478897117
 20
90.27362920835583
 42
0.0
 10
189.1306477902114
 20
91.86045329718941
 42
-0.3639702342662052
 10
190.115455543224
 20
92.68680511952274
 42
0.0
 10
191.7763559120464
 20
92.68680511952274
 42
0.4142135623731038
 97
        0
 75
     0
 76
     1
 52
90.0
 41
2.0
 77
     0
 78
     2
 53
135.0
 43
0.0
 44
0.0
 45
-4.490128060534575
 46
-4.490128060534575
 79
     0
 53
135.0
 43
-3.174999999999998
 44
0.0000000000000002
 45
-4.490128060534575
 46
-4.490128060534575
 79
     0
 47
0.5460268397635694
 98
        1
 10
178.2895431259985
 20
93.74240685508812
1001
AcDbBlockRepETag
1070
     1
1071
        3
1005
21BE
1001
ACAD
1010
0.0
1020
0.0
1030
0.0
  0
LWPOLYLINE
  5
21BF
330
1F
100
AcDbEntity
  8
Flügelrahmen
100
AcDbPolyline
 90
       12
 70
     0
 43
0.0
 10
193.7763559120464
 20
95.85124277545055
 10
193.7763559120464
 20
94.6868051195223
 42
-0.4142135623731038
 10
191.7763559120464
 20
92.68680511952274
 10
190.115455543224
 20
92.68680511952274
 42
0.3639702342662053
 10
189.1306477902114
 20
91.86045329718941
 10
188.6439020501299
 20
89.09998103068891
 42
-0.3639702342662052
 10
188.1514981736239
 20
88.68680511952275
 10
185.7763559120463
 20
88.68680511952275
 10
185.7763559120463
 20
92.68680511952274
 10
181.7763559120467
 20
92.68680511952274
 10
181.7763559120467
 20
88.68680511952247
 10
167.0878389827309
 20
88.68680511952247
1001
AcDbBlockRepETag
1070
     1
1071
        4
1005
21BF
  0
CIRCLE
  5
21C3
330
1F
100
AcDbEntity
  8
0
100
AcDbCircle
 10
182.9999999999999
 20
82.70323329656372
 30
0.0
 40
17.0
1001
AcDbBlockRepETag
1070
     1
1071
        8
1005
21C3
  0
DIMENSION
  5
22CB
330
1F
100
AcDbEntity
  8
Bemaßung
100
AcDbDimension
  2
*D3
 10
149.2961294456066
 20
215.6868051195222
 30
0.0
 11
146.7663675408446
 21
200.6868038239726
 31
0.0
 70
    32
  1
<> (130)
 71
     5
 42
30.00000259109916
  3
IDEAL Holz
100
AcDbAlignedDimension
 13
149.2961294456066
 23
185.686802528423
 33
0.0
 14
143.3586294456068
 24
215.6868051195222
 34
0.0
 50
90.0
100
AcDbRotatedDimension
  0
MTEXT
  5
2347
330
1F
100
AcDbEntity
  8
Bemaßung
100
AcDbMText
 10
99.85105352271153
 20
202.8213122411439
 30
0.0
 40
4.0
 41
25.20500240567618
 71
     2
 72
     5
  1
\A1;39/78\P(139/78)
  7
RomanS
 73
     1
 44
1.0
1001
ACAD
1000
MTEXTBEGIN
1070
    73
1070
     1
1070
    44
1040
1.0
1070
    74
1070
     0
1000
MTEXTEND
  0
MTEXT
  5
2349
330
1F
100
AcDbEntity
  8
Bemaßung
100
AcDbMText
 10
143.8275625191109
 20
206.8256603554095
 30
0.0
 40
1.5
 41
1.829115634265456
 71
     1
 72
     5
  1
{\fArial|b1|i0|c0|p34;6)}
 11
0.0000000000000001
 21
1.0
 31
0.0
 73
     1
 44
1.0
1001
AcDbBlockRepETag
1070
     1
1071
        9
1005
0
1001
ACAD
1000
MTEXTBEGIN
1070
    73
1070
     1
1070
    44
1040
1.0
1070
    74
1070
     0
1000
MTEXTEND
1000
ACAD_MTEXT_DEFINED_HEIGHT_BEGIN
1070
    46
1040
2.124910892103068
1000
ACAD_MTEXT_DEFINED_HEIGHT_END
  0
MTEXT
  5
234A
330
1F
100
AcDbEntity
  8
Bemaßung
100
AcDbMText
 10
109.2108967469306
 20
197.6147275286286
 30
0.0
 40
1.5
 41
7.649234826219069
 71
     1
 72
     5
  1
{\fArial|b1|i0|c0|p34;6)}
 73
     1
 44
1.0
1001
AcDbBlockRepETag
1070
     1
1071
        9
1005
0
1001
ACAD
1000
MTEXTBEGIN
1070
    73
1070
     1
1070
    44
1040
1.0
1070
    74
1070
     0
1000
MTEXTEND
  0
LWPOLYLINE
  5
242D
102
{ACAD_REACTORS
330
2C70
330
2CBF
330
24EB
102
}
330
1F
100
AcDbEntity
  8
Zusatzprofile
100
AcDbPolyline
 90
       52
 70
     1
 43
0.0
 10
60.5461294456074
 20
242.6868051195222
 10
60.5461294456074
 20
235.6868051195223
 10
60.5461294456074
 20
218.6868051195223
 42
0.4142135623730951
 10
63.5461294456074
 20
215.6868051195222
 10
70.94612944560726
 20
215.6868051195222
 42
-0.4142135623730951
 10
72.44612944560725
 20
214.1868051195223
 10
72.44612944560718
 20
207.6868051195222
 42
0.4142135623730875
 10
73.4461294456072
 20
206.6868051195222
 10
81.1461294456074
 20
206.6868051195221
 42
0.4142135623730984
 10
82.14612944560739
 20
207.6868051195221
 10
82.14612944560752
 20
214.9868051195217
 42
-0.4142135623731804
 10
83.64612944560752
 20
216.4868051195217
 10
91.44612944560853
 20
216.4868051195207
 42
-0.4142135623730728
 10
92.94612944560768
 20
214.9868051195214
 10
92.94612944560768
 20
207.6868051195222
 42
0.4142135623730959
 10
93.94612944560767
 20
206.6868051195222
 10
114.146129445607
 20
206.6868051195222
 42
0.4142135623730951
 10
115.146129445607
 20
207.6868051195222
 10
115.146129445607
 20
214.1868051195223
 42
-0.4142135623730951
 10
116.6461294456071
 20
215.6868051195222
 10
135.5461294456068
 20
215.6868051195222
 42
0.4142135623730951
 10
138.5461294456068
 20
218.6868051195223
 10
138.5461294456069
 20
235.6868051195224
 10
138.5461294456069
 20
239.6868051193853
 10
138.5461294456069
 20
242.6868051195224
 42
0.4142135623730951
 10
135.546129445607
 20
245.6868051195223
 10
116.6461294456071
 20
245.6868051195223
 42
0.4142135623730951
 10
115.146129445607
 20
244.1868051195224
 10
115.146129445607
 20
236.1868051195224
 42
-0.4142135623730992
 10
114.6461294456071
 20
235.6868051195224
 10
114.146129445607
 20
235.6868051195221
 10
93.4461294456072
 20
235.6868051195224
 42
-0.4142135623730911
 10
92.94612944560768
 20
236.1868051195224
 10
92.94612944560768
 20
243.9868051195214
 42
0.4142135623730911
 10
91.4461294456081
 20
245.4868051195207
 10
83.64612944560709
 20
245.4868051195219
 42
0.4142135623730992
 10
82.14612944560752
 20
243.9868051195219
 10
82.1461294456073
 20
236.1868051195224
 42
-0.4142135623730992
 10
81.64612944560706
 20
235.6868051195221
 10
72.94612944560725
 20
235.6868051195224
 42
-0.4142135623730951
 10
72.44612944560725
 20
236.1868051195224
 10
72.44612944560803
 20
244.1868051195235
 42
0.4142135623730951
 10
70.94612944560804
 20
245.6868051195236
 10
69.37979293959704
 20
245.6868051195236
 42
0.3394542588633798
 10
68.89683002645284
 20
245.3162146420757
 10
68.02363209503818
 20
242.0573955969728
 42
-0.3394542588633914
 10
67.54066918189386
 20
241.6868051195236
 10
65.45158970932203
 20
241.6868051195236
 42
-0.339454258863376
 10
64.96862679617646
 20
242.0573955969728
 10
64.09542886476201
 20
245.3162146420757
 42
0.3394542588633913
 10
63.61246595161849
 20
245.6868051195236
 10
63.54612944560749
 20
245.6868051195223
 42
0.4142135623731062
  0
DIMENSION
  5
2430
330
1F
100
AcDbEntity
  8
Bemaßung
100
AcDbDimension
  2
*D4
 10
149.2961294456066
 20
245.6868051195223
 30
0.0
 11
146.7663675408446
 21
230.6868038239727
 31
0.0
 70
    32
  1
<> (130)
 71
     5
 42
30.00000259109925
  3
IDEAL Holz
100
AcDbAlignedDimension
 13
149.2961294456066
 23
215.6868025284231
 33
0.0
 14
143.3586294456068
 24
245.6868051195223
 34
0.0
 50
90.0
100
AcDbRotatedDimension
  0
MTEXT
  5
2431
102
{ACAD_REACTORS
330
2C70
330
2CBF
102
}
330
1F
100
AcDbEntity
  8
Bemaßung
100
AcDbMText
 10
99.85105352271153
 20
232.821312241144
 30
0.0
 40
4.0
 41
25.20500240567618
 71
     2
 72
     5
  1
\A1;39/78\P(139/78)
  7
RomanS
 73
     1
 44
1.0
1001
ACAD
1000
MTEXTBEGIN
1070
    73
1070
     1
1070
    44
1040
1.0
1070
    74
1070
     0
1000
MTEXTEND
  0
MTEXT
  5
2432
330
1F
100
AcDbEntity
  8
Bemaßung
100
AcDbMText
 10
143.8275625191109
 20
236.8256603554096
 30
0.0
 40
1.5
 41
1.829115634265456
 71
     1
 72
     5
  1
{\fArial|b1|i0|c0|p34;6)}
 11
0.0000000000000001
 21
1.0
 31
0.0
 73
     1
 44
1.0
1001
AcDbBlockRepETag
1070
     1
1071
        9
1005
0
1001
ACAD
1000
MTEXTBEGIN
1070
    73
1070
     1
1070
    44
1040
1.0
1070
    74
1070
     0
1000
MTEXTEND
1000
ACAD_MTEXT_DEFINED_HEIGHT_BEGIN
1070
    46
1040
2.124910892103068
1000
ACAD_MTEXT_DEFINED_HEIGHT_END
  0
MTEXT
  5
2433
102
{ACAD_REACTORS
330
2C70
102
}
330
1F
100
AcDbEntity
  8
Bemaßung
100
AcDbMText
 10
109.6541840816681
 20
227.2812968683695
 30
0.0
 40
1.5
 41
7.649234826219069
 71
     1
 72
     5
  1
{\fArial|b1|i0|c0|p34;6)}
 73
     1
 44
1.0
1001
AcDbBlockRepETag
1070
     1
1071
        9
1005
0
1001
ACAD
1000
MTEXTBEGIN
1070
    73
1070
     1
1070
    44
1040
1.0
1070
    74
1070
     0
1000
MTEXTEND
  0
DIMENSION
  5
2464
102
{ACAD_REACTORS
330
2C70
102
}
330
1F
100
AcDbEntity
  8
Bemaßung
100
AcDbDimension
  2
*D5
 10
72.44612944560731
 20
236.7884900499232
 30
0.0
 11
66.49612944560738
 21
238.9015852880184
 31
0.0
 70
    32
 71
     5
 42
11.89999999999985
  3
IDEAL Holz
100
AcDbAlignedDimension
 13
60.54612944560745
 23
236.7884900499232
 33
0.0
 14
72.44612944560731
 24
236.7884900499232
 34
0.0
100
AcDbRotatedDimension
  0
DIMENSION
  5
2497
330
1F
100
AcDbEntity
  8
Bemaßung
100
AcDbDimension
  2
*D6
 10
82.14612944560736
 20
238.8411304081668
 30
0.0
 11
77.29612944560731
 21
240.954225646262
 31
0.0
 70
    32
 71
     5
 42
9.7000000000001
  3
IDEAL Holz
100
AcDbAlignedDimension
 13
72.44612944560725
 23
238.8411304081668
 33
0.0
 14
82.14612944560736
 24
238.8411304081668
 34
0.0
100
AcDbRotatedDimension
  0
DIMENSION
  5
24A4
102
{ACAD_REACTORS
330
2CBF
102
}
330
1F
100
AcDbEntity
  8
Bemaßung
100
AcDbDimension
  2
*D7
 10
92.94612944560768
 20
238.8411304081668
 30
0.0
 11
87.54612944560753
 21
240.954225646262
 31
0.0
 70
    32
 71
     5
 42
10.80000000000032
  3
IDEAL Holz
100
AcDbAlignedDimension
 13
82.14612944560736
 23
238.8411304081668
 33
0.0
 14
92.94612944560768
 24
238.8411304081668
 34
0.0
100
AcDbRotatedDimension
  0
DIMENSION
  5
24BC
330
1F
100
AcDbEntity
  8
Bemaßung
100
AcDbDimension
  2
*D8
 10
115.146129445607
 20
238.8411304081668
 30
0.0
 11
104.0461294456073
 21
240.954225646262
 31
0.0
 70
    32
 71
     5
 42
22.19999999999931
  3
IDEAL Holz
100
AcDbAlignedDimension
 13
92.94612944560768
 23
238.8411304081668
 33
0.0
 14
115.146129445607
 24
238.8411304081668
 34
0.0
100
AcDbRotatedDimension
  0
DIMENSION
  5
24D4
102
{ACAD_XDICTIONARY
360
24E1
102
}
102
{ACAD_REACTORS
330
24EB
330
2C70
330
2CBF
102
}
330
1F
100
AcDbEntity
  8
Bemaßung
100
AcDbDimension
  2
*D9
 10
121.3829061053695
 20
245.6868051195223
 30
0.0
 11
119.5079061053694
 21
240.6868051195222
 31
0.0
 70
    32
 71
     5
 42
10.00000000000023
  3
IDEAL Holz
100
AcDbAlignedDimension
 13
121.3829061053695
 23
235.6868051195221
 33
0.0
 14
121.3829061053695
 24
245.6868051195223
 34
0.0
 50
90.0
100
AcDbRotatedDimension
  0
DIMENSION
  5
2506
102
{ACAD_REACTORS
330
2C70
102
}
330
1F
100
AcDbEntity
  8
Bemaßung
100
AcDbDimension
  2
*D10
 10
77.72114792003276
 20
215.6868051195222
 30
0.0
 11
75.84614792003273
 21
211.1868051195222
 31
0.0
 70
    32
 71
     5
 42
9.000000000000085
  3
IDEAL Holz
100
AcDbAlignedDimension
 13
77.72114792003276
 23
206.6868051195221
 33
0.0
 14
77.72114792003276
 24
215.6868051195222
 34
0.0
 50
90.0
100
AcDbRotatedDimension
  0
INSERT
  5
2648
330
1F
100
AcDbEntity
  8
0
100
AcDbBlockReference
  2
I-Verbr30mm
 10
204.0
 20
19.97310388852429
 30
0.0
  0
LWPOLYLINE
  5
2A8A
330
1F
100
AcDbEntity
  8
Belüftung
100
AcDbPolyline
 90
       10
 70
     0
 43
0.0
 10
91.04612944560733
 20
118.6868051195219
 10
91.04612944560733
 20
78.99620619628048
 10
95.04612944560731
 20
76.68680511952207
 10
97.0461294456073
 20
77.84150565790139
 10
97.0461294456073
 20
88.68680511952231
 10
99.04612944560721
 20
88.68680511952231
 10
99.04612944560721
 20
110.1868051195219
 10
98.4461294456072
 20
110.1868051195219
 10
98.4461294456072
 20
118.6868051195218
 10
91.04612944560733
 20
118.6868051195219
  0
HATCH
  5
2A8B
330
1F
100
AcDbEntity
  8
Schraffur
 62
     5
100
AcDbHatch
 10
0.0
 20
0.0
 30
0.0
210
0.0
220
0.0
230
1.0
  2
STEEL
 70
     0
 71
     0
 91
        3
 92
        7
 72
     1
 73
     1
 93
        7
 10
119.5461294456074
 20
142.686805119522
 42
0.0
 10
136.5461294456071
 20
142.686805119522
 42
0.4142135623731014
 10
138.5461294456067
 20
144.6868051195217
 42
0.0
 10
138.5461294456067
 20
179.686805119385
 42
0.0
 10
138.5461294456067
 20
182.6868051195221
 42
0.4142135623731173
 10
135.546129445607
 20
185.6868051195221
 42
0.0
 10
119.5461294456074
 20
185.6868051195221
 42
0.0
 97
        0
 92
        7
 72
     1
 73
     1
 93
       13
 10
79.54612944560733
 20
122.6868051195217
 42
0.0
 10
96.54612944560721
 20
122.686805119522
 42
0.4142135623730951
 10
98.5461294456072
 20
124.686805119522
 42
0.0
 10
98.5461294456072
 20
141.6868051195219
 42
-0.4142135623731596
 10
99.5461294456073
 20
142.6868051195218
 42
0.0
 10
99.5461294456073
 20
175.6868051195221
 42
0.0
 10
92.94612944560801
 20
175.6868051195221
 42
0.0
 10
92.94612944560801
 20
183.9868051195212
 42
0.4142135623730246
 10
91.4461294456086
 20
185.4868051195205
 42
0.0
 10
83.64612944560736
 20
185.4868051195216
 42
0.414213562373086
 10
82.14612944560746
 20
183.9868051195217
 42
0.0
 10
82.14612944560746
 20
175.6868051195219
 42
0.0
 10
79.54612944560745
 20
175.6868051195219
 42
0.0
 97
        0
 92
        9
 93
        4
 72
     1
 10
92.0457267064167
 20
163.5651147760244
 11
106.8457267064166
 21
163.5651147760244
 72
     1
 10
106.8457267064166
 20
163.5651147760244
 11
106.8457267064166
 21
155.4698766807864
 72
     1
 10
106.8457267064166
 20
155.4698766807864
 11
92.04572670641679
 21
155.4698766807864
 72
     1
 10
92.0457267064167
 20
155.4698766807864
 11
92.0457267064167
 21
163.5651147760244
 97
        0
 75
     0
 76
     1
 52
90.0
 41
2.0
 77
     0
 78
     2
 53
135.0
 43
-252.004738741667
 44
-114.6473717657846
 45
-4.490128060534575
 46
-4.490128060534575
 79
     0
 53
135.0
 43
-255.179738741667
 44
-114.6473717657846
 45
-4.490128060534575
 46
-4.490128060534575
 79
     0
 47
0.3256203418556292
 98
        5
 10
-252.004738741667
 20
-114.6473717657846
 10
-5.00000105153174
 20
-96.77698530797799
 10
-5.00000105153174
 20
-96.77698530797799
 10
128.7946433983522
 20
161.2567968008811
 10
87.86842377806463
 20
148.0524155514081
1001
ACAD
1010
0.0
1020
0.0
1030
0.0
  0
HATCH
  5
2A8C
330
1F
100
AcDbEntity
  8
Schraffur
 62
     5
100
AcDbHatch
 10
0.0
 20
0.0
 30
0.0
210
0.0
220
0.0
230
1.0
  2
STEEL
 70
     0
 71
     0
 91
        3
 92
        7
 72
     1
 73
     1
 93
        8
 10
119.5461294456074
 20
185.6868051195221
 42
0.0
 10
116.6461294456071
 20
185.6868051195221
 42
0.4142135623730951
 10
115.1461294456071
 20
184.1868051195221
 42
0.0
 10
115.1461294456071
 20
175.6868051195223
 42
0.0
 10
114.1461294456068
 20
175.6868051195219
 42
0.0
 10
99.5461294456073
 20
175.6868051195221
 42
0.0
 10
99.54612944560707
 20
142.6868051195218
 42
0.0
 10
119.5461294456074
 20
142.686805119522
 42
0.0
 97
        0
 92
        9
 93
        4
 72
     1
 10
92.0457267064167
 20
163.5651147760244
 11
106.8457267064166
 21
163.5651147760244
 72
     1
 10
106.8457267064166
 20
163.5651147760244
 11
106.8457267064166
 21
155.4698766807864
 72
     1
 10
106.8457267064166
 20
155.4698766807864
 11
92.04572670641679
 21
155.4698766807864
 72
     1
 10
92.0457267064167
 20
155.4698766807864
 11
92.0457267064167
 21
163.5651147760244
 97
        0
 92
        1
 93
       21
 72
     2
 10
69.37979293959621
 20
185.1868051195227
 40
0.4999999999993502
 50
89.99999999995603
 51
164.9999999997866
 73
     1
 72
     1
 10
68.89683002645279
 20
185.3162146420755
 11
68.02363209503814
 21
182.0573955969727
 72
     2
 10
67.54066918189342
 20
182.1868051195235
 40
0.5000000000000643
 50
14.99999999995204
 51
89.99999999995603
 73
     0
 72
     1
 10
67.54066918189379
 20
181.6868051195235
 11
65.45158970932198
 21
181.6868051195235
 72
     2
 10
65.45158970932175
 20
182.1868051195244
 40
0.5000000000008973
 50
89.99999999997395
 51
164.9999999999725
 73
     0
 72
     1
 10
64.96862679617641
 20
182.0573955969727
 11
64.09542886476197
 21
185.3162146420755
 72
     2
 10
63.6124659516189
 20
185.1868051195232
 40
0.4999999999988923
 50
15.00000000017355
 51
90.00000000004394
 73
     1
 72
     1
 10
63.61246595161851
 20
185.6868051195221
 11
63.54612944560734
 21
185.6868051195221
 72
     2
 10
63.54612944560734
 20
182.6868051195221
 40
2.999999999999998
 50
90.0
 51
180.0
 73
     1
 72
     1
 10
60.54612944560735
 20
182.6868051195221
 11
60.54612944560735
 21
114.754655468926
 72
     2
 10
63.54612944560745
 20
114.7546554689258
 40
3.000000000000103
 50
179.999999999997
 51
250.0000000000011
 73
     1
 72
     1
 10
62.52006901563046
 20
111.935577606568
 11
73.86208915895635
 21
107.8074198779499
 72
     2
 10
74.54612944560736
 20
109.6868051195218
 40
1.999999999999944
 50
250.0000000000092
 51
360.0000000000004
 73
     1
 72
     1
 10
76.54612944560731
 20
109.6868051195218
 11
76.54612944560731
 21
121.6868051195217
 72
     2
 10
77.5461294456073
 20
121.6868051195217
 40
0.9999999999999998
 50
180.0
 51
270.0
 73
     0
 72
     1
 10
77.5461294456073
 20
122.6868051195217
 11
79.54612944560733
 21
122.6868051195217
 72
     1
 10
79.54612944560733
 20
122.6868051195217
 11
79.54612944560745
 21
175.6868051195219
 72
     1
 10
79.54612944560745
 20
175.6868051195219
 11
72.44612944560718
 21
175.6868051195221
 72
     1
 10
72.44612944560718
 20
175.6868051195221
 11
72.44612944560718
 21
184.1868051195221
 72
     2
 10
70.94612944560726
 20
184.1868051195221
 40
1.499999999999934
 50
359.9999999999978
 51
450.0000000000021
 73
     1
 72
     1
 10
70.9461294456072
 20
185.6868051195221
 11
69.37979293959661
 21
185.6868051195221
 97
        0
 75
     0
 76
     1
 52
0.0
 41
2.0
 77
     0
 78
     2
 53
45.0
 43
-252.004738741667
 44
-114.6473717657846
 45
-4.490128060534575
 46
4.490128060534575
 79
     0
 53
45.0
 43
-252.004738741667
 44
-111.4723717657846
 45
-4.490128060534575
 46
4.490128060534575
 79
     0
 47
0.3256203418556292
 98
        4
 10
-252.004738741667
 20
-114.6473717657846
 10
-5.00000105153174
 20
-96.77698530797799
 10
67.83162688764753
 20
161.2567968008811
 10
112.1683633152379
 20
165.0903273360323
1001
ACAD
1010
0.0
1020
0.0
1030
0.0
  0
HATCH
  5
2A8F
330
1F
100
AcDbEntity
  8
Schraffur
 62
    84
100
AcDbHatch
 10
0.0
 20
0.0
 30
0.0
210
0.0
220
0.0
230
1.0
  2
STEEL
 70
     0
 71
     0
 91
        5
 92
        7
 72
     1
 73
     1
 93
       10
 10
96.04612944560733
 20
118.6868051195219
 42
0.0
 10
79.04612944560731
 20
118.6868051195219
 42
0.4142135623730951
 10
77.04612944560733
 20
116.6868051195219
 42
0.0
 10
77.04612944560733
 20
77.7546554689263
 42
0.3152987888789836
 10
79.02006901563081
 20
74.9355776065685
 42
0.0
 10
90.36208915895628
 20
70.80741987795041
 42
0.4400105308919788
 10
92.97798109818581
 20
72.16916702931792
 42
0.0
 10
93.05678367635927
 20
72.4632622548296
 42
-0.3394542588633591
 10
95.95456115522647
 20
74.68680511952189
 42
0.0
 10
96.04612944560733
 20
74.68680511952189
 42
0.0
 97
        0
 92
        7
 72
     0
 73
     1
 93
       15
 10
136.0461294456074
 20
130.6868051195219
 10
133.5461294456071
 20
130.6868051195224
 10
133.5461294456071
 20
128.1868051195219
 10
131.5461294456071
 20
128.1868051195219
 10
131.5461294456071
 20
118.6868051195219
 10
126.8961294456072
 20
118.6868051195219
 10
125.3961294456071
 20
117.3868051195222
 10
123.8961294456072
 20
118.6868051195219
 10
119.2461294456068
 20
118.6868051195219
 10
119.2461294456068
 20
128.1868051195219
 10
117.2461294456071
 20
128.1868051195219
 10
117.2461294456071
 20
130.6868051195224
 10
116.0461294456074
 20
130.6868051195224
 10
116.0461294456074
 20
88.68680511952231
 10
136.0461294456074
 20
88.68680511952218
 97
        0
 92
        9
 93
        4
 72
     1
 10
108.2642848485727
 20
108.2865261352738
 11
123.0642848485724
 21
108.2865261352738
 72
     1
 10
123.0642848485724
 20
108.2865261352738
 11
123.0642848485724
 21
100.1912880400358
 72
     1
 10
123.0642848485724
 20
100.1912880400358
 11
108.2642848485727
 21
100.1912880400358
 72
     1
 10
108.2642848485727
 20
100.1912880400358
 11
108.2642848485727
 21
108.2865261352738
 97
        0
 92
       24
 93
        4
 72
     1
 10
78.70677095901854
 20
79.5572872012348
 11
82.7901042923519
 21
79.5572872012348
 72
     1
 10
82.79010429235187
 20
79.5572872012348
 11
82.79010429235187
 21
75.80728720123468
 72
     1
 10
82.79010429235187
 20
75.80728720123468
 11
78.70677095901851
 21
75.80728720123468
 72
     1
 10
78.70677095901854
 20
75.80728720123468
 11
78.70677095901854
 21
79.5572872012348
 97
        0
 92
       24
 93
        4
 72
     1
 10
85.00446277894061
 20
92.43680511952231
 11
89.08779611227396
 21
92.43680511952231
 72
     1
 10
89.08779611227396
 20
92.43680511952231
 11
89.08779611227396
 21
88.68680511952231
 72
     1
 10
89.08779611227396
 20
88.68680511952231
 11
85.00446277894061
 21
88.68680511952231
 72
     1
 10
85.00446277894061
 20
88.68680511952231
 11
85.00446277894061
 21
92.43680511952231
 97
        0
 75
     0
 76
     1
 52
90.0
 41
2.0
 77
     0
 78
     2
 53
135.0
 43
0.0
 44
0.0
 45
-4.490128060534575
 46
-4.490128060534575
 79
     0
 53
135.0
 43
-3.174999999999998
 44
0.0000000000000002
 45
-4.490128060534575
 46
-4.490128060534575
 79
     0
 47
0.0723240397537105
 98
        4
 10
0.0
 20
0.0
 10
-5.00000105153174
 20
-96.77698530797799
 10
90.30555627195408
 20
98.82832417872272
 10
128.4515738460329
 20
103.7068131994383
1001
ACAD
1010
0.0
1020
0.0
1030
0.0
  0
LINE
  5
2A96
330
1F
100
AcDbEntity
  8
Schlitz-Zapfen
100
AcDbLine
 10
72.54612944560733
 20
175.8868051195219
 30
0.0
 11
72.54612944560733
 21
108.2863900431025
 31
0.0
  0
LINE
  5
2A97
330
1F
100
AcDbEntity
  8
Schlitz-Zapfen
100
AcDbLine
 10
82.04612944560734
 20
175.8868051195221
 30
0.0
 11
82.04612944560734
 21
122.6868051195218
 31
0.0
  0
LINE
  5
2A98
330
1F
100
AcDbEntity
  8
Schlitz-Zapfen
100
AcDbLine
 10
93.0461294456073
 20
175.8868051195224
 30
0.0
 11
93.0461294456073
 21
122.686805119522
 31
0.0
  0
LINE
  5
2A99
330
1F
100
AcDbEntity
  8
Schlitz-Zapfen
100
AcDbLine
 10
115.0461294456068
 20
175.8868051195219
 30
0.0
 11
115.0461294456068
 21
142.6868051195219
 31
0.0
  0
LINE
  5
2A9A
330
1F
100
AcDbEntity
  8
Schlitz-Zapfen
100
AcDbLine
 10
89.04612944560756
 20
118.6868051195219
 30
0.0
 11
89.04612944560756
 21
71.28639004310267
 31
0.0
  0
LINE
  5
2A9B
330
1F
100
AcDbEntity
  8
Schlitz-Zapfen
100
AcDbLine
 10
98.54612944560749
 20
110.1868051195219
 30
0.0
 11
98.54612944560749
 21
88.68680511952231
 31
0.0
  0
LINE
  5
2A9C
330
1F
100
AcDbEntity
  8
Schlitz-Zapfen
100
AcDbLine
 10
109.5461294456075
 20
130.6868051195224
 30
0.0
 11
109.5461294456075
 21
91.18680511952229
 31
0.0
  0
LINE
  5
2A9D
330
1F
100
AcDbEntity
  8
Schlitz-Zapfen
100
AcDbLine
 10
131.5461294456071
 20
118.6868051195219
 30
0.0
 11
131.5461294456071
 21
88.68680511952231
 31
0.0
  0
MTEXT
  5
2A9E
330
1F
100
AcDbEntity
  8
Bemaßung
100
AcDbMText
 10
109.2642848485728
 20
107.2865261352738
 30
0.0
 40
4.0
 41
15.20500240567617
 71
     1
 72
     5
  1
78/78
  7
RomanS
 73
     1
 44
1.0
1001
ACAD
1000
MTEXTBEGIN
1070
    73
1070
     1
1070
    44
1040
1.0
1070
    74
1070
     0
1000
MTEXTEND
  0
MTEXT
  5
2A9F
330
1F
100
AcDbEntity
  8
Bemaßung
100
AcDbMText
 10
93.0457267064167
 20
162.5651147760244
 30
0.0
 40
4.0
 41
15.20500240567617
 71
     1
 72
     5
  1
78/78
  7
RomanS
 73
     1
 44
1.0
1001
ACAD
1000
MTEXTBEGIN
1070
    73
1070
     1
1070
    44
1040
1.0
1070
    74
1070
     0
1000
MTEXTEND
  0
MTEXT
  5
2AA1
330
1F
100
AcDbEntity
  8
Bemaßung
100
AcDbMText
 10
80.74843762568523
 20
78.93228720123468
 30
0.0
 40
2.5
 41
4.582772900059353
 71
     2
 72
     5
  1
R3
  7
RomanS
 73
     1
 44
1.0
1001
ACAD
1000
MTEXTBEGIN
1070
    73
1070
     1
1070
    44
1040
1.0
1070
    74
1070
     0
1000
MTEXTEND
1000
ACAD_MTEXT_DEFINED_HEIGHT_BEGIN
1070
    46
1040
1.971624324197813
1000
ACAD_MTEXT_DEFINED_HEIGHT_END
  0
LINE
  5
2AA3
330
1F
100
AcDbEntity
  8
Schraffur
 62
    84
100
AcDbLine
 10
96.04612944560733
 20
74.68680511952189
 30
0.0
 11
96.04612944560733
 21
118.6868051195219
 31
0.0
  0
LINE
  5
2AA4
330
1F
100
AcDbEntity
  8
Schraffur
 62
    84
100
AcDbLine
 10
116.0461294456074
 20
88.68680511952231
 30
0.0
 11
116.0461294456074
 21
130.6868051195224
 31
0.0
  0
LINE
  5
2AA5
330
1F
100
AcDbEntity
  8
Schraffur
 62
    84
100
AcDbLine
 10
136.0461294456074
 20
88.68680511952231
 30
0.0
 11
136.0461294456074
 21
130.6868051195224
 31
0.0
  0
LINE
  5
2AA6
330
1F
100
AcDbEntity
  8
Schraffur
 62
     5
100
AcDbLine
 10
79.54612944560733
 20
122.6868051195217
 30
0.0
 11
79.54612944560733
 21
175.6868051195219
 31
0.0
  0
LINE
  5
2AA7
330
1F
100
AcDbEntity
  8
Schraffur
 62
     5
100
AcDbLine
 10
99.5461294456073
 20
142.6868051195218
 30
0.0
 11
99.5461294456073
 21
175.6868051195221
 31
0.0
  0
LINE
  5
2AA8
330
1F
100
AcDbEntity
  8
Schraffur
 62
     5
100
AcDbLine
 10
119.5461294456074
 20
142.686805119522
 30
0.0
 11
119.5461294456074
 21
185.6868051195221
 31
0.0
  0
HATCH
  5
2AA9
330
1F
100
AcDbEntity
  8
Schraffur
 62
    84
100
AcDbHatch
 10
0.0
 20
0.0
 30
0.0
210
0.0
220
0.0
230
1.0
  2
STEEL
 70
     0
 71
     0
 91
        4
 92
        7
 72
     1
 73
     1
 93
       18
 10
116.0461294456074
 20
130.6868051195224
 42
0.0
 10
105.5461294456073
 20
130.6868051195224
 42
0.4142135623731158
 10
103.546129445607
 20
128.6868051195223
 42
0.0
 10
103.546129445607
 20
118.6868051195219
 42
0.0
 10
103.2461294456069
 20
118.6868051195219
 42
0.0
 10
103.2461294456069
 20
110.1868051195219
 42
0.0
 10
98.44612944560708
 20
110.1868051195219
 42
0.0
 10
98.44612944560708
 20
118.6868051195219
 42
0.0
 10
96.04612944560733
 20
118.6868051195219
 42
0.0
 10
96.04612944560733
 20
74.68680511952189
 42
0.0
 10
96.54612944560721
 20
74.68680511952189
 42
0.0
 10
97.0461294456073
 20
75.18680511952229
 42
0.0
 10
97.0461294456073
 20
88.68680511952231
 42
0.0
 10
101.5461294456073
 20
88.68680511952231
 42
0.0
 10
101.5461294456073
 20
91.18680511952229
 42
0.0
 10
109.5461294456073
 20
91.18680511952229
 42
0.0
 10
109.5461294456073
 20
88.68680511952231
 42
0.0
 10
116.0461294456074
 20
88.68680511952231
 42
0.0
 97
        0
 92
        1
 93
       23
 72
     2
 10
139.5461294456061
 20
137.6868051195215
 40
0.9999999999992608
 50
90.00000000003256
 51
180.0
 73
     1
 72
     1
 10
138.5461294456067
 20
137.6868051195215
 11
138.5461294456067
 21
131.6868051195225
 72
     2
 10
137.546129445607
 20
131.6868051195221
 40
0.999999999999822
 50
359.9999999999886
 51
450.0
 73
     0
 72
     1
 10
137.546129445607
 20
130.6868051195224
 11
136.0461294456074
 21
130.6868051195224
 72
     1
 10
136.0461294456074
 20
130.6868051195224
 11
136.0461294456074
 21
88.68680511952231
 72
     1
 10
136.0461294456074
 20
88.68680511952231
 11
143.0461294456071
 21
88.68680511952231
 72
     1
 10
143.0461294456071
 20
88.68680511952231
 11
143.0461294456071
 21
92.68680511952169
 72
     1
 10
143.0461294456071
 20
92.68680511952169
 11
147.0461294456067
 21
92.68680511952169
 72
     1
 10
147.0461294456067
 20
92.68680511952169
 11
147.0461294456071
 21
88.68680511952218
 72
     1
 10
147.0461294456071
 20
88.68680511952218
 11
149.4212717071844
 21
88.68680511952231
 72
     2
 10
149.4212717071848
 20
89.18680511952258
 40
0.5000000000003051
 50
269.9999999999479
 51
350.0000000000023
 73
     1
 72
     1
 10
149.9136755836912
 20
89.09998103068918
 11
150.4004213237721
 21
91.86045329718885
 72
     2
 10
151.3852290767843
 20
91.6868051195223
 40
1.000000000000077
 50
189.9999999999846
 51
270.000000000013
 73
     0
 72
     1
 10
151.3852290767847
 20
92.68680511952229
 11
153.0461294456071
 21
92.68680511952169
 72
     2
 10
153.0461294456071
 20
94.6868051195217
 40
1.999999999999999
 50
270.0
 51
360.0
 73
     1
 72
     1
 10
155.046129445607
 20
94.6868051195217
 11
155.046129445607
 21
145.686805119522
 72
     2
 10
152.0461294456071
 20
145.686805119522
 40
2.999999999999998
 50
0.0
 51
90.0
 73
     1
 72
     1
 10
152.0461294456071
 20
148.686805119522
 11
146.5461294456066
 21
148.686805119522
 72
     2
 10
146.5461294456066
 20
146.686805119522
 40
2.0
 50
90.0
 51
180.0000000000346
 73
     1
 72
     1
 10
144.5461294456066
 20
146.6868051195209
 11
144.5461294456066
 21
133.1868051195207
 72
     1
 10
144.5461294456066
 20
133.1868051195207
 11
141.5461294456069
 21
133.1868051195207
 72
     1
 10
141.546129445607
 20
133.1868051195207
 11
141.546129445607
 21
138.6868051195217
 72
     1
 10
141.546129445607
 20
138.6868051195217
 11
139.5461294456058
 21
138.6868051195208
 97
        0
 92
        9
 93
        4
 72
     1
 10
108.2642848485727
 20
108.2865261352738
 11
123.0642848485728
 21
108.2865261352738
 72
     1
 10
123.0642848485728
 20
108.2865261352738
 11
123.0642848485728
 21
100.1912880400357
 72
     1
 10
123.0642848485728
 20
100.1912880400357
 11
108.2642848485727
 21
100.1912880400357
 72
     1
 10
108.2642848485727
 20
100.1912880400357
 11
108.2642848485727
 21
108.2865261352738
 97
        0
 92
       24
 93
        4
 72
     1
 10
143.6294627789403
 20
131.6354918572445
 11
149.9627961122737
 21
131.6354918572445
 72
     1
 10
149.9627961122737
 20
131.6354918572445
 11
149.9627961122737
 21
127.4093013810541
 72
     1
 10
149.9627961122737
 20
127.4093013810541
 11
143.6294627789403
 21
127.4093013810541
 72
     1
 10
143.6294627789403
 20
127.4093013810541
 11
143.6294627789403
 21
131.6354918572445
 97
        0
 75
     0
 76
     1
 52
0.0
 41
2.0
 77
     0
 78
     2
 53
45.0
 43
-5.00000105153174
 44
-96.77698530797799
 45
-4.490128060534575
 46
4.490128060534575
 79
     0
 53
45.0
 43
-5.00000105153174
 44
-93.601985307978
 45
-4.490128060534575
 46
4.490128060534575
 79
     0
 47
0.0540251589592008
 98
        9
 10
-5.00000105153174
 20
-96.77698530797799
 10
103.414433017281
 20
100.605038628871
 10
-5.00000105153174
 20
-96.77698530797799
 10
674.9999965156937
 20
200.2230121680218
 10
674.9999965156937
 20
200.2230121680218
 10
145.5409915483502
 20
129.6237763718828
 10
131.8084271942735
 20
108.2803955374943
 10
145.5409915483502
 20
107.0607713642611
 10
107.7001383848729
 20
97.30379843764099
1001
ACAD
1010
0.0
1020
0.0
1030
0.0
  0
LWPOLYLINE
  5
2AAA
102
{ACAD_REACTORS
330
2EEC
102
}
330
1F
100
AcDbEntity
  8
Flügelrahmen
100
AcDbPolyline
 90
       57
 70
     1
 43
0.0
 10
146.5461294456066
 20
148.6868051195209
 42
0.4142135623730951
 10
144.5461294456066
 20
146.6868051195209
 10
144.5461294456066
 20
133.1868051195207
 10
141.546129445607
 20
133.1868051195207
 10
141.546129445607
 20
138.6868051195217
 10
139.5461294456067
 20
138.6868051195208
 42
0.4142135623730951
 10
138.5461294456071
 20
137.6868051195217
 10
138.5461294456067
 20
137.6868051195218
 10
138.5461294456067
 20
131.6868051195225
 42
-0.4142135623730951
 10
137.5461294456071
 20
130.6868051195224
 10
136.0525935858919
 20
130.6868051195224
 10
133.5461294456071
 20
130.6868051195224
 10
133.5461294456071
 20
128.1868051195219
 10
131.5461294456071
 20
128.1868051195219
 10
131.5461294456071
 20
118.6868051195219
 10
126.8961294456072
 20
118.6868051195219
 10
125.3961294456071
 20
117.3868051195222
 10
123.8961294456072
 20
118.6868051195219
 10
119.2461294456068
 20
118.6868051195219
 10
119.2461294456068
 20
128.1868051195219
 10
117.2461294456071
 20
128.1868051195219
 10
117.2461294456071
 20
130.6868051195224
 10
105.5461294456073
 20
130.6868051195224
 42
0.4142135623730951
 10
103.546129445607
 20
128.6868051195224
 10
103.546129445607
 20
118.6868051195219
 10
103.2461294456069
 20
118.6868051195219
 10
103.2461294456069
 20
110.1868051195219
 10
98.44612944560708
 20
110.1868051195219
 10
98.44612944560708
 20
118.6868051195219
 10
79.04612944560731
 20
118.6868051195219
 42
0.4142135623730951
 10
77.04612944560733
 20
116.6868051195219
 10
77.04612944560733
 20
77.7546554689263
 42
0.3152987888789871
 10
79.02006901563081
 20
74.9355776065685
 10
90.36208915895628
 20
70.80741987795041
 42
0.4400105308918385
 10
92.97798109818559
 20
72.16916702931709
 10
93.05678367635927
 20
72.4632622548296
 42
-0.3394542588633764
 10
95.9545611552269
 20
74.68680511952189
 10
96.54612944560721
 20
74.68680511952189
 10
97.0461294456073
 20
75.18680511952229
 10
97.0461294456073
 20
88.68680511952231
 10
101.5461294456073
 20
88.68680511952231
 10
101.5461294456073
 20
91.18680511952229
 10
109.5461294456073
 20
91.18680511952229
 10
109.5461294456073
 20
88.68680511952231
 10
143.0461294456071
 20
88.68680511952231
 10
143.0461294456071
 20
92.68680511952169
 10
147.0461294456067
 20
92.68680511952169
 10
147.0461294456071
 20
88.68680511952231
 10
149.4212717071845
 20
88.68680511952231
 42
0.3639702342661933
 10
149.9136755836912
 20
89.09998103068867
 10
150.4004213237721
 20
91.86045329718885
 42
-0.363970234266209
 10
151.3852290767843
 20
92.68680511952229
 10
153.0461294456071
 20
92.68680511952169
 42
0.4142135623730951
 10
155.046129445607
 20
94.6868051195217
 10
155.046129445607
 20
125.9916609406771
 10
155.046129445607
 20
145.686805119522
 42
0.4142135623730951
 10
152.0461294456071
 20
148.686805119522
  0
LWPOLYLINE
  5
2AAB
330
1F
100
AcDbEntity
  8
Blendrahmen
100
AcDbPolyline
 90
       42
 70
     1
 43
0.0
 10
60.54612944560735
 20
182.6868051195221
 10
60.54612944560735
 20
114.754655468926
 42
0.3152987888789794
 10
62.52006901563028
 20
111.935577606568
 10
73.86208915895635
 20
107.8074198779499
 42
0.5205670505517467
 10
76.54612944560731
 20
109.686805119522
 10
76.54612944560731
 20
121.6868051195217
 42
-0.4142135623730951
 10
77.5461294456073
 20
122.6868051195217
 10
96.54612944560721
 20
122.686805119522
 42
0.4142135623730951
 10
98.5461294456072
 20
124.686805119522
 10
98.5461294456072
 20
141.6868051195219
 42
-0.4142135623730951
 10
99.546129445607
 20
142.6868051195219
 10
136.5461294456071
 20
142.686805119522
 42
0.4142135623730951
 10
138.5461294456067
 20
144.6868051195217
 10
138.5461294456067
 20
179.686805119385
 10
138.5461294456067
 20
182.6868051195221
 42
0.4142135623730951
 10
135.5461294456071
 20
185.6868051195221
 10
116.6461294456071
 20
185.6868051195221
 42
0.4142135623730951
 10
115.1461294456071
 20
184.1868051195221
 10
115.1461294456071
 20
176.1868051195221
 42
-0.4142135623730992
 10
114.6461294456071
 20
175.6868051195221
 10
114.1461294456068
 20
175.6868051195219
 10
93.4461294456072
 20
175.6868051195221
 42
-0.4142135623730911
 10
92.94612944560801
 20
176.1868051195221
 10
92.94612944560801
 20
183.9868051195212
 42
0.4142135623730911
 10
91.44612944560828
 20
185.4868051195205
 10
83.64612944560736
 20
185.4868051195216
 42
0.4142135623730992
 10
82.14612944560746
 20
183.9868051195216
 10
82.14612944560746
 20
176.1868051195221
 42
-0.4142135623730992
 10
81.64612944560735
 20
175.6868051195219
 10
72.9461294456072
 20
175.6868051195221
 42
-0.4142135623730951
 10
72.44612944560718
 20
176.1868051195221
 10
72.44612944560798
 20
184.1868051195235
 42
0.4142135623730951
 10
70.94612944560798
 20
185.6868051195235
 10
69.37979293959699
 20
185.6868051195235
 42
0.3394542588633798
 10
68.89683002645279
 20
185.3162146420755
 10
68.02363209503814
 20
182.0573955969727
 42
-0.3394542588633914
 10
67.54066918189379
 20
181.6868051195235
 10
65.45158970932198
 20
181.6868051195235
 42
-0.339454258863376
 10
64.96862679617641
 20
182.0573955969727
 10
64.09542886476197
 20
185.3162146420755
 42
0.3394542588633913
 10
63.61246595161843
 20
185.6868051195235
 10
63.54612944560745
 20
185.6868051195221
 42
0.4142135623731062
  0
DIMENSION
  5
2AAC
330
1F
100
AcDbEntity
  8
Bemaßung
100
AcDbDimension
  2
*D12
 10
88.74613158711063
 20
122.6868051195214
 30
0.0
 11
86.87113158711063
 21
120.6868051195214
 31
0.0
 70
    32
 71
     5
 42
4.0
  3
IDEAL Holz
100
AcDbAlignedDimension
 13
88.74613158711088
 23
118.6868051195214
 33
0.0
 14
88.74613158711063
 24
122.6868051195214
 34
0.0
 50
90.0
100
AcDbRotatedDimension
  0
DIMENSION
  5
2AAD
330
1F
100
AcDbEntity
  8
Bemaßung
100
AcDbDimension
  2
*D13
 10
124.8860541840448
 20
142.6868051195214
 30
0.0
 11
123.0110541840447
 21
136.6868051195217
 31
0.0
 70
    32
 71
     5
 42
11.99999999999952
  3
IDEAL Holz
100
AcDbAlignedDimension
 13
124.8860541840449
 23
130.6868051195219
 33
0.0
 14
124.8860541840448
 24
142.6868051195214
 34
0.0
 50
90.0
100
AcDbRotatedDimension
  0
DIMENSION
  5
2AAF
330
1F
100
AcDbEntity
  8
Bemaßung
100
AcDbDimension
  2
*D14
 10
149.2961294456065
 20
148.686805119522
 30
0.0
 11
147.4211294456065
 21
167.1868051195221
 31
0.0
 70
    32
 71
     5
 42
37.00000000000009
  3
IDEAL Holz
100
AcDbAlignedDimension
 13
149.2961294456065
 23
185.6868051195221
 33
0.0
 14
149.2961294456065
 24
148.686805119522
 34
0.0
 50
90.0
100
AcDbRotatedDimension
  0
INSERT
  5
2AB0
102
{ACAD_XDICTIONARY
360
3055
102
}
330
1F
100
AcDbEntity
  8
Dichtungen
100
AcDbBlockReference
  2
D-Überschlag
 10
144.5461294456066
 20
133.1868051195207
 30
0.0
  0
DIMENSION
  5
2AB1
330
1F
100
AcDbEntity
  8
Bemaßung
100
AcDbDimension
  2
*D15
 10
138.5461294456069
 20
127.4093013810541
 30
0.0
 11
146.796129445607
 21
129.5223966191493
 31
0.0
 70
    32
 71
     5
 42
16.50000000000017
  3
IDEAL Holz
100
AcDbAlignedDimension
 13
155.046129445607
 23
127.4093013810541
 33
0.0
 14
138.5461294456069
 24
129.6909151630063
 34
0.0
100
AcDbRotatedDimension
  0
DIMENSION
  5
2AB2
330
1F
100
AcDbEntity
  8
Bemaßung
100
AcDbDimension
  2
*D16
 10
67.66911465762973
 20
70.68680511952198
 30
0.0
 11
65.79411465762972
 21
79.68680511952214
 31
0.0
 70
    32
 71
     5
 42
18.00000000000032
  3
IDEAL Holz
100
AcDbAlignedDimension
 13
73.39373394201287
 23
88.68680511952231
 33
0.0
 14
74.48413384423131
 24
70.68680511952198
 34
0.0
 50
90.0
100
AcDbRotatedDimension
  0
DIMENSION
  5
2AB3
330
1F
100
AcDbEntity
  8
Bemaßung
100
AcDbDimension
  2
*D17
 10
60.54612944560743
 20
103.3329101584008
 30
0.0
 11
68.54612944560743
 21
105.2079101584008
 31
0.0
 70
    32
 71
     5
 42
16.0
  3
IDEAL Holz
100
AcDbAlignedDimension
 13
76.54612944560743
 23
105.923470956312
 33
0.0
 14
60.54612944560743
 24
107.6868051195218
 34
0.0
100
AcDbRotatedDimension
  0
DIMENSION
  5
2AB4
330
1F
100
AcDbEntity
  8
Bemaßung
100
AcDbDimension
  2
*D18
 10
56.49029047189127
 20
114.754655468926
 30
0.0
 11
54.37719523379602
 21
111.2207302942239
 31
0.0
 70
    32
 71
     5
 42
7.067850349404197
  3
IDEAL Holz
100
AcDbAlignedDimension
 13
60.54612944560743
 23
107.6868051195218
 33
0.0
 14
56.49029047189127
 24
114.754655468926
 34
0.0
 50
90.0
100
AcDbRotatedDimension
  0
INSERT
  5
2ABA
330
1F
100
AcDbEntity
  8
0
100
AcDbBlockReference
  2
D-Mitteldichtung
 10
103.2461294456069
 20
110.1868051195219
 30
0.0
 41
-1.0
 50
180.0
  0
LINE
  5
2C44
102
{ACAD_REACTORS
330
2C70
330
2CBF
102
}
330
1F
100
AcDbEntity
  8
Schraffur
 62
    54
100
AcDbLine
 10
79.54612944560733
 20
235.6868051195222
 30
0.0
 11
79.54612944560733
 21
206.6868051195221
 31
0.0
  0
LINE
  5
2C45
102
{ACAD_REACTORS
330
2C70
330
2CBF
102
}
330
1F
100
AcDbEntity
  8
Schraffur
 62
    54
100
AcDbLine
 10
99.5461294456073
 20
235.6868051195223
 30
0.0
 11
99.5461294456073
 21
206.6868051195222
 31
0.0
  0
LINE
  5
2C46
102
{ACAD_REACTORS
330
2C70
330
2CBF
102
}
330
1F
100
AcDbEntity
  8
Schraffur
 62
    54
100
AcDbLine
 10
119.5461294456074
 20
245.6868051195223
 30
0.0
 11
119.5461294456074
 21
215.6868051195222
 31
0.0
  0
LINE
  5
2C47
330
1F
100
AcDbEntity
  8
Schraffur
 62
    54
100
AcDbLine
 10
79.54612944560733
 20
205.6868051195221
 30
0.0
 11
79.54612944560733
 21
176.686805119522
 31
0.0
  0
LINE
  5
2C48
330
1F
100
AcDbEntity
  8
Schraffur
 62
    54
100
AcDbLine
 10
99.5461294456073
 20
205.6868051195222
 30
0.0
 11
99.5461294456073
 21
176.6868051195221
 31
0.0
  0
LINE
  5
2C49
330
1F
100
AcDbEntity
  8
Schraffur
 62
    54
100
AcDbLine
 10
119.5461294456074
 20
215.6868051195222
 30
0.0
 11
119.5461294456074
 21
185.6868051195221
 31
0.0
  0
HATCH
  5
2C70
330
1F
100
AcDbEntity
  8
Schraffur
 62
    54
100
AcDbHatch
 10
0.0
 20
0.0
 30
0.0
210
0.0
220
0.0
230
1.0
  2
STEEL
 70
     0
 71
     1
 91
        7
 92
        7
 72
     1
 73
     1
 93
       23
 10
79.5461294456073
 20
235.6868051195221
 42
0.0
 10
72.94612944560725
 20
235.6868051195224
 42
-0.4142135623731284
 10
72.44612944560725
 20
236.1868051195225
 42
0.0
 10
72.44612944560803
 20
244.1868051195235
 42
0.4142135623730951
 10
70.94612944560804
 20
245.6868051195236
 42
0.0
 10
69.37979293959704
 20
245.6868051195236
 42
0.3394542588635812
 10
68.89683002645274
 20
245.3162146420754
 42
0.0
 10
68.02363209503818
 20
242.0573955969728
 42
-0.3394542588636055
 10
67.54066918189348
 20
241.6868051195236
 42
0.0
 10
65.45158970932203
 20
241.6868051195236
 42
-0.3394542588635128
 10
64.96862679617638
 20
242.057395596973
 42
0.0
 10
64.09542886476201
 20
245.3162146420757
 42
0.3394542588688471
 10
63.61246595160871
 20
245.6868051195236
 42
0.0
 10
63.54612944560749
 20
245.6868051195223
 42
0.4142135623731007
 10
60.5461294456074
 20
242.6868051195222
 42
0.0
 10
60.5461294456074
 20
235.6868051195223
 42
0.0
 10
60.5461294456074
 20
218.6868051195223
 42
0.4142135623731022
 10
63.54612944560747
 20
215.6868051195222
 42
0.0
 10
70.94612944560726
 20
215.6868051195222
 42
-0.4142135623731119
 10
72.44612944560725
 20
214.1868051195222
 42
0.0
 10
72.44612944560718
 20
207.6868051195222
 42
0.4142135623730879
 10
73.4461294456072
 20
206.6868051195222
 42
0.0
 10
79.54612944560733
 20
206.6868051195221
 42
0.0
 97
        2
330
242D
330
2C44
 92
        7
 72
     1
 73
     1
 93
       13
 10
116.6461294456069
 20
215.6868051195222
 42
0.0
 10
119.5461294456074
 20
215.6868051195222
 42
0.0
 10
119.5461294456074
 20
245.6868051195223
 42
0.0
 10
116.6461294456071
 20
245.6868051195223
 42
0.4142135623731119
 10
115.146129445607
 20
244.1868051195223
 42
0.0
 10
115.146129445607
 20
236.1868051195224
 42
-0.4142135623729411
 10
114.6461294456073
 20
235.6868051195224
 42
0.0
 10
114.146129445607
 20
235.6868051195221
 42
0.0
 10
99.5461294456073
 20
235.6868051195223
 42
0.0
 10
99.54612944560729
 20
206.6868051195221
 42
0.0
 10
114.146129445607
 20
206.6868051195222
 42
0.4142135623730951
 10
115.146129445607
 20
207.6868051195222
 42
0.0
 10
115.146129445607
 20
214.1868051195223
 42
-0.4142135623730728
 97
        3
330
242D
330
2C45
330
2C46
 92
       24
 93
        4
 72
     1
 10
63.3711294456074
 20
241.0146805261137
 11
69.62112944560738
 21
241.0146805261137
 72
     1
 10
69.62112944560738
 20
241.0146805261137
 11
69.62112944560738
 21
236.7884900499232
 72
     1
 10
69.62112944560738
 20
236.7884900499232
 11
63.3711294456074
 21
236.7884900499232
 72
     1
 10
63.3711294456074
 20
236.7884900499232
 11
63.3711294456074
 21
241.0146805261137
 97
        1
330
2464
 92
       24
 93
        4
 72
     1
 10
73.97114792003273
 20
210.0201384528555
 11
73.97114792003273
 21
212.3534717861889
 72
     1
 10
73.97114792003273
 20
212.3534717861889
 11
77.72114792003273
 21
212.3534717861889
 72
     1
 10
77.72114792003273
 20
212.3534717861889
 11
77.72114792003273
 21
210.0201384528555
 72
     1
 10
77.72114792003273
 20
210.0201384528555
 11
73.97114792003273
 21
210.0201384528555
 97
        1
330
2506
 92
        9
 93
        4
 72
     1
 10
117.6329061053694
 20
238.7701384528555
 11
117.6329061053694
 21
242.6034717861889
 72
     1
 10
117.6329061053694
 20
242.6034717861889
 11
121.3829061053694
 21
242.6034717861889
 72
     1
 10
121.3829061053694
 20
242.6034717861889
 11
121.3829061053694
 21
238.7701384528555
 72
     1
 10
121.3829061053694
 20
238.7701384528555
 11
117.6329061053694
 21
238.7701384528555
 97
        1
330
24D4
 92
       24
 93
        4
 72
     1
 10
109.2791840816681
 20
227.6562968683695
 11
111.6949412440146
 21
227.6562968683695
 72
     1
 10
111.6949412440146
 20
227.6562968683695
 11
111.6949412440146
 21
224.9397211521348
 72
     1
 10
111.6949412440146
 20
224.9397211521348
 11
109.2791840816681
 21
224.9397211521348
 72
     1
 10
109.2791840816681
 20
224.9397211521348
 11
109.2791840816681
 21
227.6562968683695
 97
        1
330
2433
 92
        9
 93
        4
 72
     1
 10
89.38438685604486
 20
233.821312241144
 11
110.3177201893782
 21
233.821312241144
 72
     1
 10
110.3177201893782
 20
233.821312241144
 11
110.3177201893782
 21
218.2975027173345
 72
     1
 10
110.3177201893782
 20
218.2975027173345
 11
89.38438685604486
 21
218.2975027173345
 72
     1
 10
89.38438685604486
 20
218.2975027173345
 11
89.38438685604486
 21
233.821312241144
 97
        1
330
2431
 75
     0
 76
     1
 52
0.0
 41
2.0
 77
     0
 78
     2
 53
45.0
 43
-10.0
 44
0.0
 45
-4.490128060534575
 46
4.490128060534575
 79
     0
 53
45.0
 43
-10.0
 44
3.174999999999998
 45
-4.490128060534575
 46
4.490128060534575
 79
     0
 47
0.2410667199149624
 98
        2
 10
73.27622475199904
 20
225.6102269616164
 10
109.2275938124628
 20
215.7264913676495
1001
ACAD
1010
0.0
1020
0.0
1030
0.0
  0
HATCH
  5
2C98
330
1F
100
AcDbEntity
  8
Schraffur
 62
    54
100
AcDbHatch
 10
0.0
 20
0.0
 30
0.0
210
0.0
220
0.0
230
1.0
  2
STEEL
 70
     0
 71
     0
 91
        3
 92
        7
 72
     1
 73
     1
 93
       21
 10
99.5461294456073
 20
205.6868051195222
 42
0.0
 10
93.4461294456072
 20
205.6868051195223
 42
-0.4142135623729414
 10
92.94612944560768
 20
206.186805119522
 42
0.0
 10
92.94612944560768
 20
213.9868051195213
 42
0.4142135623730164
 10
91.44612944560853
 20
215.4868051195206
 42
0.0
 10
83.64612944560709
 20
215.4868051195218
 42
0.4142135623730522
 10
82.14612944560748
 20
213.9868051195221
 42
0.0
 10
82.14612944560739
 20
207.6868051195221
 42
0.0
 10
82.1461294456073
 20
206.1868051195223
 42
-0.4142135623731324
 10
81.64612944560699
 20
205.686805119522
 42
0.0
 10
79.54612944560733
 20
205.6868051195221
 42
0.0
 10
79.54612944560733
 20
176.686805119522
 42
0.0
 10
81.1461294456074
 20
176.686805119522
 42
0.4142135623730984
 10
82.14612944560739
 20
177.686805119522
 42
0.0
 10
82.14612944560752
 20
184.9868051195216
 42
-0.4142135623731751
 10
83.64612944560748
 20
186.4868051195216
 42
0.0
 10
91.44612944560853
 20
186.4868051195206
 42
-0.4142135623730728
 10
92.94612944560768
 20
184.9868051195213
 42
0.0
 10
92.94612944560768
 20
177.6868051195221
 42
0.414213562373096
 10
93.94612944560767
 20
176.6868051195221
 42
0.0
 10
99.5461294456073
 20
176.6868051195221
 42
0.0
 97
        0
 92
        7
 72
     1
 73
     1
 93
        8
 10
138.5461294456069
 20
205.6868051195223
 42
0.0
 10
138.5461294456069
 20
209.6868051193852
 42
0.0
 10
138.5461294456069
 20
212.6868051195223
 42
0.4142135623731229
 10
135.5461294456068
 20
215.6868051195222
 42
0.0
 10
119.5461294456074
 20
215.6868051195222
 42
0.0
 10
119.5461294456074
 20
185.686805119522
 42
0.0
 10
135.5461294456068
 20
185.6868051195221
 42
0.4142135623730896
 10
138.5461294456068
 20
188.6868051195221
 42
0.0
 97
        0
 92
        9
 93
        4
 72
     1
 10
89.38438685604484
 20
203.8213122411439
 11
110.3177201893782
 21
203.8213122411439
 72
     1
 10
110.3177201893782
 20
203.8213122411439
 11
110.3177201893782
 21
188.2975027173344
 72
     1
 10
110.3177201893782
 20
188.2975027173344
 11
89.38438685604484
 21
188.2975027173344
 72
     1
 10
89.38438685604484
 20
188.2975027173344
 11
89.38438685604484
 21
203.8213122411439
 97
        0
 75
     0
 76
     1
 52
0.0
 41
2.0
 77
     0
 78
     2
 53
45.0
 43
-10.0
 44
0.0
 45
-4.490128060534575
 46
4.490128060534575
 79
     0
 53
45.0
 43
-10.0
 44
3.174999999999998
 45
-4.490128060534575
 46
4.490128060534575
 79
     0
 47
0.2410667199149624
 98
        2
 10
85.82301075039936
 20
196.6822204816932
 10
129.9780472375112
 20
199.0928879216528
1001
ACAD
1010
0.0
1020
0.0
1030
0.0
  0
HATCH
  5
2CBF
330
1F
100
AcDbEntity
  8
Schraffur
 62
    54
100
AcDbHatch
 10
0.0
 20
0.0
 30
0.0
210
0.0
220
0.0
230
1.0
  2
STEEL
 70
     0
 71
     1
 91
        5
 92
        7
 72
     1
 73
     1
 93
       20
 10
79.54612944560733
 20
206.6868051195221
 42
0.0
 10
81.1461294456074
 20
206.6868051195221
 42
0.4142135623730903
 10
82.14612944560739
 20
207.6868051195221
 42
0.0
 10
82.14612944560752
 20
214.9868051195217
 42
-0.4142135623731751
 10
83.64612944560748
 20
216.4868051195217
 42
0.0
 10
91.44612944560853
 20
216.4868051195207
 42
-0.4142135623730728
 10
92.94612944560768
 20
214.9868051195214
 42
0.0
 10
92.94612944560768
 20
207.6868051195222
 42
0.414213562373096
 10
93.94612944560767
 20
206.6868051195222
 42
0.0
 10
99.5461294456073
 20
206.6868051195222
 42
0.0
 10
99.5461294456073
 20
235.6868051195223
 42
0.0
 10
93.4461294456072
 20
235.6868051195224
 42
-0.414213562372958
 10
92.94612944560768
 20
236.1868051195222
 42
0.0
 10
92.94612944560768
 20
243.9868051195214
 42
0.4142135623730164
 10
91.44612944560847
 20
245.4868051195207
 42
0.0
 10
83.64612944560709
 20
245.4868051195219
 42
0.4142135623730492
 10
82.14612944560752
 20
243.9868051195221
 42
0.0
 10
82.1461294456073
 20
236.1868051195224
 42
-0.4142135623731242
 10
81.64612944560701
 20
235.6868051195221
 42
0.0
 10
79.54612944560733
 20
235.6868051195222
 42
0.0
 97
        3
330
242D
330
2C44
330
2C45
 92
        7
 72
     1
 73
     1
 93
        8
 10
138.5461294456069
 20
235.6868051195224
 42
0.0
 10
138.5461294456069
 20
239.6868051193853
 42
0.0
 10
138.5461294456069
 20
242.6868051195224
 42
0.4142135623730951
 10
135.546129445607
 20
245.6868051195223
 42
0.0
 10
119.5461294456074
 20
245.6868051195223
 42
0.0
 10
119.5461294456074
 20
215.6868051195222
 42
0.0
 10
135.5461294456068
 20
215.6868051195222
 42
0.4142135623730869
 10
138.5461294456068
 20
218.6868051195222
 42
0.0
 97
        2
330
242D
330
2C46
 92
       24
 93
        4
 72
     1
 10
84.37946277894083
 20
243.0673208843573
 11
90.71279611227415
 21
243.0673208843573
 72
     1
 10
90.71279611227415
 20
243.0673208843573
 11
90.71279611227415
 21
238.8411304081668
 72
     1
 10
90.71279611227415
 20
238.8411304081668
 11
84.37946277894083
 21
238.8411304081668
 72
     1
 10
84.37946277894083
 20
238.8411304081668
 11
84.37946277894083
 21
243.0673208843573
 97
        1
330
24A4
 92
        9
 93
        4
 72
     1
 10
89.38438685604486
 20
233.821312241144
 11
110.3177201893782
 21
233.821312241144
 72
     1
 10
110.3177201893782
 20
233.821312241144
 11
110.3177201893782
 21
218.2975027173345
 72
     1
 10
110.3177201893782
 20
218.2975027173345
 11
89.38438685604486
 21
218.2975027173345
 72
     1
 10
89.38438685604486
 20
218.2975027173345
 11
89.38438685604486
 21
233.821312241144
 97
        1
330
2431
 92
        9
 93
        4
 72
     1
 10
117.6329061053694
 20
238.7701384528555
 11
117.6329061053694
 21
242.6034717861889
 72
     1
 10
117.6329061053694
 20
242.6034717861889
 11
121.3829061053694
 21
242.6034717861889
 72
     1
 10
121.3829061053694
 20
242.6034717861889
 11
121.3829061053694
 21
238.7701384528555
 72
     1
 10
121.3829061053694
 20
238.7701384528555
 11
117.6329061053694
 21
238.7701384528555
 97
        1
330
24D4
 75
     0
 76
     1
 52
90.0
 41
2.0
 77
     0
 78
     2
 53
135.0
 43
-10.0
 44
0.0
 45
-4.490128060534575
 46
-4.490128060534575
 79
     0
 53
135.0
 43
-13.175
 44
0.0000000000000002
 45
-4.490128060534575
 46
-4.490128060534575
 79
     0
 47
0.2410667199149624
 98
        2
 10
82.44503034379476
 20
224.8870266596388
 10
133.5973125025439
 20
227.2976940995983
1001
ACAD
1010
0.0
1020
0.0
1030
0.0
  0
HATCH
  5
2CE7
330
1F
100
AcDbEntity
  8
Schraffur
 62
    54
100
AcDbHatch
 10
0.0
 20
0.0
 30
0.0
210
0.0
220
0.0
230
1.0
  2
STEEL
 70
     0
 71
     0
 91
        3
 92
        7
 72
     1
 73
     1
 93
       14
 10
115.146129445607
 20
184.1868051195222
 42
-0.4142135623730784
 10
116.646129445607
 20
185.6868051195221
 42
0.0
 10
119.5461294456074
 20
185.6868051195221
 42
0.0
 10
119.5461294456074
 20
215.6868051195222
 42
0.0
 10
116.6461294456071
 20
215.6868051195222
 42
0.4142135623730951
 10
115.146129445607
 20
214.1868051195223
 42
0.0
 10
115.146129445607
 20
207.6868051195222
 42
0.0
 10
115.146129445607
 20
206.1868051195223
 42
-0.4142135623729411
 10
114.6461294456073
 20
205.6868051195223
 42
0.0
 10
114.146129445607
 20
205.686805119522
 42
0.0
 10
99.5461294456073
 20
205.6868051195222
 42
0.0
 10
99.5461294456073
 20
176.6868051195221
 42
0.0
 10
114.146129445607
 20
176.6868051195221
 42
0.4142135623730951
 10
115.146129445607
 20
177.6868051195221
 42
0.0
 97
        0
 92
        9
 93
        4
 72
     1
 10
89.38438685604484
 20
203.8213122411439
 11
110.3177201893782
 21
203.8213122411439
 72
     1
 10
110.3177201893782
 20
203.8213122411439
 11
110.3177201893782
 21
188.2975027173344
 72
     1
 10
110.3177201893782
 20
188.2975027173344
 11
89.38438685604484
 21
188.2975027173344
 72
     1
 10
89.38438685604484
 20
188.2975027173344
 11
89.38438685604484
 21
203.8213122411439
 97
        0
 92
        1
 93
       22
 72
     2
 10
69.37979293959627
 20
215.1868051195228
 40
0.4999999999993502
 50
89.99999999995603
 51
164.9999999997866
 73
     1
 72
     1
 10
68.89683002645284
 20
215.3162146420757
 11
68.02363209503818
 21
212.0573955969728
 72
     2
 10
67.54066918189348
 20
212.1868051195237
 40
0.5000000000000643
 50
14.99999999995204
 51
89.99999999995603
 73
     0
 72
     1
 10
67.54066918189386
 20
211.6868051195236
 11
65.45158970932203
 21
211.6868051195236
 72
     2
 10
65.45158970932181
 20
212.1868051195245
 40
0.5000000000008973
 50
89.99999999997395
 51
164.9999999999725
 73
     0
 72
     1
 10
64.96862679617646
 20
212.0573955969728
 11
64.09542886476201
 21
215.3162146420757
 72
     2
 10
63.61246595161896
 20
215.1868051195233
 40
0.4999999999988923
 50
15.00000000017355
 51
90.00000000004394
 73
     1
 72
     1
 10
63.61246595161857
 20
215.6868051195222
 11
63.5461294456074
 21
215.6868051195222
 72
     2
 10
63.5461294456074
 20
212.6868051195222
 40
2.999999999999998
 50
90.0
 51
180.0
 73
     1
 72
     1
 10
60.5461294456074
 20
212.6868051195222
 11
60.5461294456074
 21
188.6868051195222
 72
     2
 10
63.54612944560743
 20
188.6868051195221
 40
3.000000000000036
 50
179.9999999999994
 51
269.9999999999998
 73
     1
 72
     1
 10
63.54612944560743
 20
185.6868051195221
 11
70.94612944560726
 21
185.6868051195221
 72
     2
 10
70.94612944560728
 20
184.1868051195221
 40
1.499999999999971
 50
269.9999999999989
 51
360.0000000000012
 73
     0
 72
     1
 10
72.44612944560725
 20
184.1868051195221
 11
72.44612944560718
 21
177.6868051195221
 72
     2
 10
73.4461294456072
 20
177.6868051195221
 40
1.000000000000019
 50
180.0000000000016
 51
269.9999999999992
 73
     1
 72
     1
 10
73.4461294456072
 20
176.6868051195221
 11
79.54612944560733
 21
176.686805119522
 72
     1
 10
79.54612944560733
 20
176.686805119522
 11
79.5461294456073
 21
205.6868051195221
 72
     1
 10
79.5461294456073
 20
205.6868051195221
 11
72.94612944560725
 21
205.6868051195223
 72
     2
 10
72.94612944560725
 20
206.1868051195223
 40
0.5
 50
90.0
 51
180.0
 73
     0
 72
     1
 10
72.44612944560725
 20
206.1868051195223
 11
72.44612944560725
 21
214.1868051195223
 72
     2
 10
70.94612944560733
 20
214.1868051195223
 40
1.499999999999928
 50
0.0000000000021755
 51
90.00000000000273
 73
     1
 72
     1
 10
70.94612944560726
 20
215.6868051195222
 11
69.37979293959665
 21
215.6868051195222
 97
        0
 75
     0
 76
     1
 52
90.0
 41
2.0
 77
     0
 78
     2
 53
135.0
 43
-10.0
 44
0.0
 45
-4.490128060534575
 46
-4.490128060534575
 79
     0
 53
135.0
 43
-13.175
 44
0.0000000000000002
 45
-4.490128060534575
 46
-4.490128060534575
 79
     0
 47
0.0833578020166495
 98
        3
 10
-10.0
 20
0.0
 10
70.62209765211402
 20
201.2624881276879
 10
107.7798871990237
 20
182.9414175437093
1001
ACAD
1010
0.0
1020
0.0
1030
0.0
  0
DIMENSION
  5
2D63
330
1F
100
AcDbEntity
  8
Bemaßung
100
AcDbDimension
  2
*D19
 10
124.8860541840448
 20
122.6868051195219
 30
0.0
 11
123.0110541840447
 21
126.6868051195219
 31
0.0
 70
    32
 71
     5
 42
8.0
  3
IDEAL Holz
100
AcDbAlignedDimension
 13
124.8860541840448
 23
130.6868051195219
 33
0.0
 14
124.8860541840448
 24
122.6868051195219
 34
0.0
 50
90.0
100
AcDbRotatedDimension
  0
DIMENSION
  5
2EA2
330
1F
100
AcDbEntity
  8
Bemaßung
100
AcDbDimension
  2
*D20
 10
161.368081436192
 20
142.686805119522
 30
0.0
 11
159.493081436192
 21
145.6868051195217
 31
0.0
 70
    32
 71
     5
 42
5.999999999999459
  3
IDEAL Holz
100
AcDbAlignedDimension
 13
161.368081436192
 23
148.6868051195214
 33
0.0
 14
161.368081436192
 24
142.686805119522
 34
0.0
 50
90.0
100
AcDbRotatedDimension
  0
DIMENSION
  5
2ED5
102
{ACAD_XDICTIONARY
360
2EE2
102
}
102
{ACAD_REACTORS
330
2EEC
102
}
330
1F
100
AcDbEntity
  8
Bemaßung
100
AcDbDimension
  2
*D21
 10
77.04612944560733
 20
88.68680511952231
 30
0.0
 11
87.04612944560732
 21
90.56180511952231
 31
0.0
 70
    32
 71
     5
 42
19.99999999999997
  3
IDEAL Holz
100
AcDbAlignedDimension
 13
97.0461294456073
 23
88.68680511952231
 33
0.0
 14
77.04612944560733
 24
88.68680511952231
 34
0.0
100
AcDbRotatedDimension
  0
HATCH
  5
2FBE
330
1F
100
AcDbEntity
  8
Silikon
 62
     1
100
AcDbHatch
 10
0.0
 20
0.0
 30
0.0
210
0.0
220
0.0
230
1.0
  2
ANGLE
 70
     0
 71
     1
 91
        1
 92
        1
 93
        6
 72
     2
 10
132.0461294456078
 20
72.68680511952239
 40
2.000000000000503
 50
69.99999999999916
 51
164.9999999999943
 73
     0
 72
     1
 10
130.1142777930293
 20
72.16916702931702
 11
130.0354752148554
 21
72.46326225482963
 72
     2
 10
127.1376977359889
 20
71.68680511952287
 40
2.999999999999107
 50
14.99999999998835
 51
89.99999999998697
 73
     1
 72
     1
 10
127.1376977359896
 20
74.686805119522
 11
125.5461294456074
 21
74.68680511952212
 72
     1
 10
125.5461294456074
 20
74.68680511952212
 11
125.5461294456074
 21
68.28363561040652
 72
     1
 10
125.5461294456074
 20
68.28363561040652
 11
132.7301697322594
 21
70.80741987795011
 97
        1
330
2FBF
 75
     0
 76
     1
 52
0.0
 41
0.1
 77
     0
 78
     2
 53
180.0
 43
-288.847830348205
 44
-266.9069432969993
 45
0.0
 46
0.6985000000000002
 79
     2
 49
0.508
 49
-0.1905
 53
90.0
 43
-288.847830348205
 44
-266.9069432969993
 45
0.6985000000000002
 46
0.0
 79
     2
 49
0.508
 49
-0.1905
 98
        1
 10
-288.847830348205
 20
-266.9069432969993
1001
ACAD
1010
0.0
1020
0.0
1030
0.0
  0
LWPOLYLINE
  5
2FBF
102
{ACAD_REACTORS
330
2FBE
102
}
330
1F
100
AcDbEntity
  8
Silikon
 62
     1
100
AcDbPolyline
 90
        6
 70
     1
 43
0.0
 10
132.7301697322594
 20
70.80741987795011
 42
-0.4400105308918068
 10
130.1142777930293
 20
72.16916702931702
 10
130.0354752148554
 20
72.46326225482963
 42
0.3394542588633679
 10
127.1376977359896
 20
74.686805119522
 10
125.5461294456074
 20
74.68680511952212
 10
125.5461294456074
 20
68.28363561040652
  0
HATCH
  5
2FC0
330
1F
100
AcDbEntity
  8
Schraffur
 62
    84
100
AcDbHatch
 10
0.0
 20
0.0
 30
0.0
210
0.0
220
0.0
230
1.0
  2
STEEL
 70
     0
 71
     1
 91
        2
 92
        1
 93
       19
 72
     1
 10
129.0832028738687
 20
88.686805119522
 11
149.4212717071844
 21
88.68680511952231
 72
     2
 10
149.4212717071848
 20
89.18680511952263
 40
0.5000000000003128
 50
269.9999999999479
 51
349.999999999945
 73
     1
 72
     1
 10
149.9136755836912
 20
89.09998103068863
 11
150.1206214232731
 21
90.2736292083556
 72
     2
 10
150.6130252997792
 20
90.18680511952203
 40
0.5000000000000419
 50
190.0000000000092
 51
270.0000000000293
 73
     0
 72
     1
 10
150.6130252997795
 20
90.68680511952207
 11
152.0461294456074
 21
90.6868051195223
 72
     2
 10
152.0461294456074
 20
88.68680511952268
 40
1.999999999999629
 50
270.0000000000008
 51
360.0000000000012
 73
     0
 72
     1
 10
154.046129445607
 20
88.68680511952263
 11
154.046129445607
 21
82.76703995768583
 72
     2
 10
148.0461294456076
 20
82.76703995768473
 40
5.999999999999403
 50
359.9999999999895
 51
429.9999999999877
 73
     0
 72
     1
 10
150.0982503055626
 20
77.12888423297029
 11
132.7301697322594
 21
70.80741987795011
 72
     2
 10
132.0461294456078
 20
72.68680511952239
 40
2.000000000000503
 50
69.99999999999916
 51
164.9999999999943
 73
     0
 72
     1
 10
130.1142777930293
 20
72.16916702931702
 11
130.0354752148554
 21
72.4632622548297
 72
     2
 10
127.1376977359889
 20
71.68680511952297
 40
2.999999999999131
 50
14.99999999998794
 51
89.99999999998644
 73
     1
 72
     1
 10
127.1376977359896
 20
74.68680511952212
 11
126.5461294456074
 21
74.68680511952212
 72
     1
 10
126.5461294456074
 20
74.68680511952212
 11
126.0461294456074
 21
75.18680511952209
 72
     1
 10
126.0461294456074
 20
75.18680511952209
 11
126.0461294456074
 21
81.25909793277982
 72
     2
 10
126.5461294456073
 20
81.25909793277992
 40
0.4999999999998721
 50
179.999999999987
 51
250.5287793655011
 73
     0
 72
     2
 10
126.0461294456073
 20
82.67331149515298
 40
1.000000000000089
 50
289.4712206344851
 51
359.9999999999927
 73
     1
 72
     1
 10
127.0461294456074
 20
82.67331149515284
 11
127.0461294456074
 21
87.94537102662053
 72
     1
 10
127.0461294456074
 20
87.94537102662053
 11
129.0832028738687
 21
88.686805119522
 97
        1
330
2FC1
 92
       24
 93
        4
 72
     1
 10
136.3588210451104
 20
84.15172565182563
 11
145.6088210451104
 21
84.15172565182563
 72
     1
 10
145.6088210451104
 20
84.15172565182563
 11
145.6088210451104
 21
79.09220184230182
 72
     1
 10
145.6088210451104
 20
79.09220184230182
 11
136.3588210451104
 21
79.09220184230182
 72
     1
 10
136.3588210451104
 20
79.09220184230182
 11
136.3588210451104
 21
84.15172565182563
 97
        1
330
2FC2
 75
     0
 76
     1
 52
0.0
 41
1.0
 77
     0
 78
     2
 53
45.0
 43
0.0000000000005116
 44
-95.77698622867094
 45
-2.245064030267287
 46
2.245064030267287
 79
     0
 53
45.0
 43
0.0000000000005116
 44
-94.18948622867096
 45
-2.245064030267287
 46
2.245064030267287
 79
     0
 98
        1
 10
0.0000000000005116
 20
-95.77698622867094
1001
ACAD
1010
0.0
1020
0.0
1030
0.0
  0
LWPOLYLINE
  5
2FC1
102
{ACAD_REACTORS
330
2FC0
102
}
330
1F
100
AcDbEntity
  8
Glasleiste
100
AcDbPolyline
 90
       19
 70
     1
 43
0.0
 10
129.0832028738687
 20
88.686805119522
 10
149.4212717071844
 20
88.68680511952231
 42
0.3639702342661933
 10
149.9136755836912
 20
89.09998103068863
 10
150.1206214232731
 20
90.2736292083556
 42
-0.3639702342662952
 10
150.6130252997795
 20
90.68680511952207
 10
152.0461294456074
 20
90.6868051195223
 42
-0.4142135623730951
 10
154.046129445607
 20
88.68680511952263
 10
154.046129445607
 20
82.76703995768583
 42
-0.3152987888789748
 10
150.0982503055626
 20
77.12888423297029
 10
132.7301697322594
 20
70.80741987795011
 42
-0.4400105308918081
 10
130.1142777930293
 20
72.16916702931702
 10
130.0354752148554
 20
72.4632622548297
 42
0.3394542588633679
 10
127.1376977359896
 20
74.68680511952212
 10
126.5461294456074
 20
74.68680511952212
 10
126.0461294456074
 20
75.18680511952209
 10
126.0461294456074
 20
81.25909793277982
 42
-0.3178372451958047
 10
126.3794627789406
 20
81.7305024535708
 42
0.3178372451957714
 10
127.0461294456074
 20
82.67331149515284
 10
127.0461294456074
 20
87.94537102662053
  0
MTEXT
  5
2FC2
102
{ACAD_REACTORS
330
2FC0
102
}
330
1F
100
AcDbEntity
  8
Bemaßung
100
AcDbMText
 10
136.9838210451104
 20
83.52672565182563
 30
0.0
 40
2.5
 41
15.20500240567617
 71
     1
 72
     5
  1
20/28
  7
RomanS
 73
     1
 44
1.0
1001
ACAD
1000
MTEXTBEGIN
1070
    73
1070
     1
1070
    44
1040
1.0
1070
    74
1070
     0
1000
MTEXTEND
  0
HATCH
  5
2FC3
330
1F
100
AcDbEntity
  8
Silikon
 62
     1
100
AcDbHatch
 10
0.0
 20
0.0
 30
0.0
210
0.0
220
0.0
230
1.0
  2
ANGLE
 70
     0
 71
     1
 91
        1
 92
        1
 93
        6
 72
     2
 10
91.04612944560754
 20
72.68680511952219
 40
1.999999999999952
 50
250.0000000000068
 51
345.0000000000017
 73
     1
 72
     1
 10
92.97798109818563
 20
72.16916702931721
 11
93.05678367635971
 21
72.46326225483011
 72
     2
 10
95.95456115522669
 20
71.68680511952256
 40
2.999999999999752
 50
195.0000000000008
 51
269.9999999999992
 73
     0
 72
     1
 10
95.95456115522663
 20
74.68680511952232
 11
97.54612944560744
 21
74.68680511952261
 72
     1
 10
97.54612944560744
 20
74.68680511952261
 11
97.54612944560744
 21
68.28363561040683
 72
     1
 10
97.54612944560744
 20
68.28363561040683
 11
90.36208915895644
 21
70.80741987795033
 97
        1
330
2FC4
 75
     0
 76
     1
 52
0.0
 41
0.1
 77
     0
 78
     2
 53
0.0
 43
511.9400892394203
 44
-266.9069432969987
 45
0.0
 46
0.6985000000000002
 79
     2
 49
0.508
 49
-0.1905
 53
90.0
 43
511.9400892394203
 44
-266.9069432969987
 45
-0.6985000000000002
 46
0.0
 79
     2
 49
0.508
 49
-0.1905
 98
        1
 10
511.9400892394203
 20
-266.9069432969987
1001
ACAD
1010
0.0
1020
0.0
1030
0.0
1001
AcDbBlockRepETag
1070
     1
1071
       17
1005
0
  0
LWPOLYLINE
  5
2FC4
102
{ACAD_REACTORS
330
2FC3
102
}
330
1F
100
AcDbEntity
  8
Silikon
 62
     1
100
AcDbPolyline
 90
        6
 70
     1
 43
0.0
 10
90.36208915895644
 20
70.80741987795033
 42
0.4400105308918068
 10
92.97798109818563
 20
72.16916702931721
 10
93.05678367635971
 20
72.46326225483011
 42
-0.3394542588633679
 10
95.95456115522663
 20
74.68680511952232
 10
97.54612944560744
 20
74.68680511952261
 10
97.54612944560744
 20
68.28363561040683
1001
AcDbBlockRepETag
1070
     1
1071
       18
1005
0
  0
DIMENSION
  5
2FC5
330
1F
100
AcDbEntity
  8
Bemaßung
100
AcDbDimension
  2
*D23
 10
154.046129445607
 20
71.73762829140883
 30
0.0
 11
148.2127961122736
 21
73.61262829140883
 31
0.0
 70
    32
 71
     5
 42
1.000000000000227
  3
IDEAL Holz
100
AcDbAlignedDimension
 13
155.0461294456072
 23
71.73762829140883
 33
0.0
 14
154.046129445607
 24
71.73762829140883
 34
0.0
100
AcDbRotatedDimension
  0
INSERT
  5
2FC6
330
1F
100
AcDbEntity
  8
0
100
AcDbBlockReference
  2
Glas 28mm ob
 10
97.04612944560722
 20
88.68680511952231
 30
0.0
  0
LINE
  5
3002
330
1F
100
AcDbEntity
  8
Aluhalter
 62
     3
100
AcDbLine
 10
169.2763559120465
 20
88.68680511952282
 30
0.0
 11
166.9659143250235
 21
88.35195851270801
 31
0.0
1001
AcDbBlockRepETag
1070
     1
1071
        7
1005
2FD2
  0
LINE
  5
3003
330
1F
100
AcDbEntity
  8
Aluhalter
 62
     3
100
AcDbLine
 10
166.0619027240594
 20
84.15266790039055
 30
0.0
 11
169.2763559120465
 21
83.68680511952272
 31
0.0
1001
AcDbBlockRepETag
1070
     1
1071
        8
1005
2FD3
  0
LWPOLYLINE
  5
3004
330
1F
100
AcDbEntity
  8
Aluhalter
 62
     3
100
AcDbPolyline
 90
        4
 70
     0
 43
0.0
 10
167.0878389827313
 20
88.68680511952282
 10
169.2763559120465
 20
88.68680511952282
 10
169.2763559120465
 20
83.68680511952272
 10
166.0284771906268
 20
83.68680511952272
1001
AcDbBlockRepETag
1070
     1
1071
       36
1005
2FD4
  0
LWPOLYLINE
  5
3005
330
1F
100
AcDbEntity
  8
Glas
 62
   150
100
AcDbPolyline
 90
        5
 70
     0
 43
0.0
 10
166.0153634398051
 20
83.42581264728094
 10
166.2763559120472
 20
83.68680511952272
 10
169.2763559120468
 20
83.68680511952272
 10
169.7763559120468
 20
83.18680511952283
 10
169.7763559120468
 20
72.01982386721354
1001
AcDbBlockRepETag
1070
     1
1071
       37
1005
2FD5
  0
HATCH
  5
3006
330
1F
100
AcDbEntity
  8
Glas
 62
   150
100
AcDbHatch
 10
0.0
 20
0.0
 30
0.0
210
0.0
220
0.0
230
1.0
  2
AR-CONC
 70
     0
 71
     0
 91
        1
 92
        1
 93
        5
 72
     2
 10
183.0000000000001
 20
82.70323329656417
 40
17.0
 50
141.0651836560979
 51
182.4360719642834
 73
     0
 72
     1
 10
166.0153634398051
 20
83.42581264728094
 11
166.2763559120471
 21
83.68680511952272
 72
     1
 10
166.2763559120472
 20
83.68680511952272
 11
169.2763559120466
 21
83.68680511952272
 72
     1
 10
169.2763559120468
 20
83.68680511952272
 11
169.7763559120468
 21
83.18680511952283
 72
     1
 10
169.7763559120468
 20
83.18680511952283
 11
169.7763559120468
 21
72.01982386721354
 97
        0
 75
     0
 76
     1
 52
0.0
 41
0.02
 77
     0
 78
    13
 53
310.0
 43
171.7763559120461
 44
88.68680511952282
 45
3.64369337992008
 46
0.3187817107780617
 79
     2
 49
0.381
 49
-4.190999999999998
 53
5.000000000000006
 43
171.7763559120461
 44
88.68680511952282
 45
-0.7048565195133401
 46
-3.821132857643598
 79
     2
 49
0.3048
 49
-3.352799999999998
 53
259.549
 43
172.0799959120463
 44
88.71337011952283
 45
2.938850033319181
 46
-3.502333756405836
 79
     2
 49
0.3237999999999999
 49
-3.561799999999993
 53
313.8158
 43
171.7763559120461
 44
87.67080511952292
 45
5.421580817842596
 46
0.8408465586545428
 79
     2
 49
0.5714999999999997
 49
-6.286499999999997
 53
263.3644
 43
172.2281539120465
 44
87.74087511952282
 45
4.748084689324741
 46
-4.948511117800983
 79
     2
 49
0.4857000000000001
 49
-5.342699999999998
 53
8.815999999999981
 43
171.7763559120461
 44
87.67080511952292
 45
4.748092116278677
 46
-4.948502357211953
 79
     2
 49
0.4572
 49
-5.0292
 53
339.0
 43
172.2843559120465
 44
87.92480511952282
 45
3.032297596707665
 46
2.045310370335247
 79
     2
 49
0.381
 49
-4.190999999999997
 53
34.00000000000004
 43
172.2843559120465
 44
87.92480511952282
 45
1.236040566952941
 46
-3.683759322446384
 79
     2
 49
0.3048
 49
-3.352799999999998
 53
288.5486
 43
172.5370459120463
 44
88.09524711952283
 45
4.268329815402489
 46
-1.638457154321149
 79
     2
 49
0.3237999999999984
 49
-3.561799999999978
 53
322.5
 43
171.7763559120461
 44
88.68680511952282
 45
0.0617720650118363
 46
-1.691100777463059
 79
     6
 49
0.0
 49
-3.312159999999998
 49
0.0
 49
-3.403599999999998
 49
0.0
 49
-3.365499999999998
 53
352.5
 43
171.7763559120461
 44
88.68680511952282
 45
1.336393250206113
 46
-2.00361149636239
 79
     6
 49
0.0
 49
-1.940559999999999
 49
0.0
 49
-3.235959999999998
 49
0.0
 49
-1.282699999999999
 53
32.50000000000003
 43
170.6435159120463
 44
88.68680511952282
 45
2.711811903337423
 46
0.1145748798534692
 79
     6
 49
0.0
 49
-1.27
 49
0.0
 49
-3.9624
 49
0.0
 49
-5.257799999999996
 53
42.5
 43
170.1355159120463
 44
88.68680511952282
 45
2.962583627720361
 46
-0.5085298206666603
 79
     6
 49
0.0
 49
-1.650999999999999
 49
0.0
 49
-2.63144
 49
0.0
 49
-3.7338
 98
        1
 10
168.5754967331364
 20
66.44198358067473
1001
ACAD
1010
0.0
1020
0.0
1030
0.0
1001
AcDbBlockRepETag
1070
     1
1071
       39
1005
2FD6
  0
LINE
  5
3007
330
1F
100
AcDbEntity
  8
Aluhalter
100
AcDbLine
 10
37.46878948957942
 20
88.68680511952247
 30
0.0
 11
40.84209667267288
 21
87.66459082161526
 31
0.0
1001
AcDbBlockRepETag
1070
     1
1071
        9
1005
0
  0
LINE
  5
3008
330
1F
100
AcDbEntity
  8
Aluhalter
100
AcDbLine
 10
42.32312728386779
 20
85.15781657233736
 30
0.0
 11
37.46878948957942
 21
83.68680511952266
 31
0.0
1001
AcDbBlockRepETag
1070
     1
1071
       10
1005
0
  0
LWPOLYLINE
  5
3009
330
1F
100
AcDbEntity
  8
Aluhalter
100
AcDbPolyline
 90
        4
 70
     0
 43
0.0
 10
40.05305846955772
 20
88.68680511952247
 10
37.46878948957942
 20
88.68680511952247
 10
37.46878948957942
 20
83.68680511952266
 10
42.94660065412012
 20
83.68680511952266
1001
AcDbBlockRepETag
1070
     1
1071
       28
1005
0
  0
LWPOLYLINE
  5
300A
330
1F
100
AcDbEntity
  8
Glas
 62
   251
100
AcDbPolyline
 90
        5
 70
     0
 43
0.0
 10
42.86449624953422
 20
71.68680511952263
 10
40.46878948957895
 20
71.68680511952263
 10
40.46878948957895
 20
81.68680511952272
 10
42.46878948957895
 20
83.68680511952266
 10
42.94660065412012
 20
83.68680511952266
1001
AcDbBlockRepETag
1070
     1
1071
       21
1005
0
  0
HATCH
  5
300B
330
1F
100
AcDbEntity
  8
Glas
 62
   150
100
AcDbHatch
 10
0.0
 20
0.0
 30
0.0
210
0.0
220
0.0
230
1.0
  2
AR-CONC
 70
     0
 71
     0
 91
        1
 92
        7
 72
     1
 73
     1
 93
        6
 10
40.46878948957895
 20
83.18680511952265
 42
0.0
 10
39.96878948957897
 20
83.68680511952266
 42
0.0
 10
36.96878948957942
 20
83.68680511952266
 42
0.0
 10
36.46878948957942
 20
83.18680511952265
 42
0.0
 10
36.46878948957942
 20
63.67677786702865
 42
0.081123584071759
 10
40.46878948957895
 20
67.42298905072657
 42
0.0
 97
        0
 75
     0
 76
     1
 52
180.0
 41
0.02
 77
     0
 78
    13
 53
230.0
 43
48.00000000000119
 44
94.73993653459386
 45
-3.64369337992008
 46
0.3187817107780622
 79
     2
 49
0.381
 49
-4.190999999999998
 53
175.0
 43
48.00000000000119
 44
94.73993653459386
 45
0.7048565195133394
 46
-3.821132857643598
 79
     2
 49
0.3048
 49
-3.352799999999998
 53
280.451
 43
47.69636000000121
 44
94.76650153459386
 45
-2.938850033319181
 46
-3.502333756405836
 79
     2
 49
0.3237999999999999
 49
-3.561799999999998
 53
226.1842
 43
48.00000000000119
 44
93.72393653459388
 45
-5.421580817842596
 46
0.8408465586545435
 79
     2
 49
0.5715
 49
-6.2865
 53
276.6356
 43
47.5482020000012
 44
93.79400653459386
 45
-4.748084689324743
 46
-4.948511117800983
 79
     2
 49
0.4856999999999994
 49
-5.342699999999981
 53
171.1839999999999
 43
48.00000000000119
 44
93.72393653459388
 45
-4.748092116278677
 46
-4.948502357211951
 79
     2
 49
0.4572
 49
-5.0292
 53
201.0
 43
47.49200000000114
 44
93.97793653459386
 45
-3.032297596707665
 46
2.045310370335247
 79
     2
 49
0.381
 49
-4.190999999999998
 53
146.0
 43
47.49200000000114
 44
93.97793653459386
 45
-1.236040566952941
 46
-3.683759322446384
 79
     2
 49
0.3048
 49
-3.352799999999998
 53
251.4514000000001
 43
47.23931000000118
 44
94.14837853459387
 45
-4.268329815402489
 46
-1.638457154321148
 79
     2
 49
0.3237999999999999
 49
-3.561799999999998
 53
217.5
 43
48.00000000000119
 44
94.73993653459386
 45
-0.0617720650118366
 46
-1.691100777463059
 79
     6
 49
0.0
 49
-3.312159999999998
 49
0.0
 49
-3.403599999999998
 49
0.0
 49
-3.365499999999998
 53
187.5
 43
48.00000000000119
 44
94.73993653459386
 45
-1.336393250206113
 46
-2.00361149636239
 79
     6
 49
0.0
 49
-1.940559999999999
 49
0.0
 49
-3.235959999999998
 49
0.0
 49
-1.282699999999999
 53
147.4999999999999
 43
49.13284000000118
 44
94.73993653459386
 45
-2.711811903337423
 46
0.1145748798534695
 79
     6
 49
0.0
 49
-1.27
 49
0.0
 49
-3.9624
 49
0.0
 49
-5.257799999999996
 53
137.5
 43
49.64084000000122
 44
94.73993653459386
 45
-2.962583627720361
 46
-0.5085298206666601
 79
     6
 49
0.0
 49
-1.650999999999999
 49
0.0
 49
-2.63144
 49
0.0
 49
-3.7338
 47
0.0484061782568556
 98
        2
 10
38.62794126379578
 20
71.36869768300687
 10
37.66964866848935
 20
66.44198358067467
1001
ACAD
1010
0.0
1020
0.0
1030
0.0
1001
AcDbBlockRepETag
1070
     1
1071
       29
1005
0
  0
HATCH
  5
300C
330
1F
100
AcDbEntity
  8
Glas
 62
   251
100
AcDbHatch
 10
0.0
 20
0.0
 30
0.0
210
0.0
220
0.0
230
1.0
  2
GRAVEL
 70
     0
 71
     0
 91
        1
 92
        5
 93
        5
 72
     2
 10
27.00000000000063
 20
77.79563141829348
 40
17.00000000000059
 50
338.9401640858571
 51
380.2758088379533
 73
     1
 72
     1
 10
42.94660065412012
 20
83.68680511952266
 11
42.46878948957895
 21
83.68680511952266
 72
     1
 10
42.46878948957895
 20
83.68680511952266
 11
40.46878948957895
 21
81.68680511952272
 72
     1
 10
40.46878948957895
 20
81.68680511952272
 11
40.46878948957895
 21
71.68680511952263
 72
     1
 10
40.46878948957895
 20
71.68680511952263
 11
42.86449624953422
 21
71.68680511952263
 97
        0
 75
     0
 76
     1
 52
180.0
 41
0.1
 77
     0
 78
    42
 53
48.01279999999997
 43
46.88998948957896
 44
84.14680511952246
 45
20.32001726589601
 46
22.86002808951257
 79
     2
 49
0.3417209999999987
 49
-33.83049999999988
 53
4.969699999999943
 43
47.11858948957893
 44
84.40080511952249
 45
-30.48004930617913
 46
-2.539982075387451
 79
     2
 49
0.5864050000000001
 49
-58.05399999999998
 53
312.5104
 43
47.70278948957893
 44
84.45160511952247
 45
-25.3999815183317
 46
27.94002729246042
 79
     2
 49
0.413482
 49
-40.93469999999999
 53
87.27370000000004
 43
48.69338948957897
 44
85.08660511952255
 45
-2.539988970828173
 46
-50.79998365336643
 79
     2
 49
0.5340050000000001
 49
-52.8664
 53
112.8337
 43
48.71878948957895
 44
85.62000511952248
 45
12.70003605550189
 46
-30.48001733005111
 79
     2
 49
0.5236339999999983
 49
-51.83979999999983
 53
177.2737
 43
48.51558948957894
 44
86.10260511952247
 45
50.79998365336643
 46
-2.539988970828179
 79
     2
 49
0.5340050000000001
 49
-52.8664
 53
217.6942
 43
47.98218948957893
 44
86.12800511952247
 45
33.02002086123994
 46
25.39997735698489
 79
     2
 49
0.706194
 49
-69.91310000000002
 53
252.2553
 43
47.42338948957892
 44
85.69620511952246
 45
-17.78003556546719
 46
-55.88001620603638
 79
     2
 49
0.6667200000000002
 49
-66.0053
 53
301.4296
 43
47.22018948957893
 44
85.06120511952245
 45
20.32000523526448
 46
-33.01996115997269
 79
     2
 49
0.535813
 49
-53.04549999999998
 53
355.2364
 43
47.49958948957895
 44
84.60400511952247
 45
-27.93997805305446
 46
2.539976162721158
 79
     2
 49
0.611712999999998
 49
-29.97389999999992
 53
42.39739999999999
 43
48.10918948957898
 44
84.55320511952256
 45
30.48000091723972
 46
27.93996365063696
 79
     2
 49
0.7910780000000001
 49
-78.3168
 53
318.8141
 43
46.17878948957893
 44
85.11200511952248
 45
17.77998867422471
 46
-15.239976557124
 79
     2
 49
0.270005
 49
-26.7306
 53
351.4692
 43
46.38198948957892
 44
84.93420511952257
 45
-33.01994959559142
 46
5.080012800045701
 79
     2
 49
0.5136819999999995
 49
-50.85459999999997
 53
44.99999999999998
 43
46.88998948957896
 44
84.85800511952248
 45
0.0000000000000008
 46
2.539998268700193
 79
     2
 49
0.3592090000000001
 49
-3.232889999999998
 53
23.19859999999998
 43
47.06778948957896
 44
84.55320511952256
 45
-12.70004282559083
 46
-5.080022274306258
 79
     2
 49
0.1934409999999998
 49
-19.15059999999997
 53
111.8014
 43
47.24558948957893
 44
84.62940511952259
 45
2.540001781894508
 46
-7.620004908731861
 79
     2
 49
0.2735659999999989
 49
-13.40479999999997
 53
210.9638
 43
47.14398948957891
 44
84.88340511952248
 45
-7.619991954808227
 46
-5.080003958660546
 79
     2
 49
0.44432
 49
-14.36629999999999
 53
341.5651
 43
46.76298948957895
 44
84.65480511952248
 45
-5.080002318180981
 46
2.539996222465076
 79
     2
 49
0.3212869999999998
 49
-7.710899999999991
 53
196.3895
 43
48.71878948957895
 44
84.62940511952259
 45
-25.40001401396935
 46
-7.6199841499678
 79
     2
 49
0.4500879999999994
 49
-44.5587999999998
 53
250.3462
 43
48.28698948957896
 44
84.50240511952257
 45
10.15997168867651
 46
27.939960488545
 79
     2
 49
0.377599
 49
-37.3822
 53
113.1985999999999
 43
46.76298948957895
 44
84.14680511952246
 45
5.080022274306258
 46
-12.70004282559083
 79
     2
 49
0.38688
 49
-18.9572
 53
163.6104999999999
 43
46.61058948957895
 44
84.50240511952257
 45
25.40001401396935
 46
-7.619984149967815
 79
     2
 49
0.4500880000000003
 49
-44.55879999999996
 53
159.4440000000001
 43
48.71878948957895
 44
86.2042051195225
 45
12.70001576425591
 46
-5.079993836050136
 79
     2
 49
0.4340350000000001
 49
-21.2677
 53
114.7751
 43
48.31238948957896
 44
86.3566051195225
 45
12.69997040362684
 46
-27.93998702615667
 79
     2
 49
0.3636719999999997
 49
-36.00359999999995
 53
246.8014
 43
46.73758948957896
 44
86.68680511952247
 45
-5.080022274306266
 46
-12.70004282559083
 79
     2
 49
0.3868799999999986
 49
-18.95719999999994
 53
197.354
 43
46.58518948957897
 44
86.33120511952247
 45
33.02000178185996
 46
10.15998467560563
 79
     2
 49
0.4257830000000002
 49
-42.15239999999996
 53
249.444
 43
47.98218948957893
 44
86.68680511952247
 45
5.079993836050143
 46
12.70001576425591
 79
     2
 49
0.217018
 49
-21.4848
 53
281.3098999999998
 43
46.88998948957896
 44
86.68680511952247
 45
2.539987462887345
 46
-10.15996746090262
 79
     2
 49
0.129515
 49
-12.822
 53
345.9638
 43
46.91538948957895
 44
86.55980511952249
 45
-7.620005354697172
 46
2.539995604123642
 79
     2
 49
0.5236340000000002
 49
-9.949049999999999
 53
6.009000000000008
 43
47.42338948957892
 44
86.43280511952246
 45
-25.39996254442795
 46
-2.539994068547855
 79
     2
 49
0.485267
 49
-48.0414
 53
123.6900999999999
 43
47.14398948957891
 44
85.11200511952248
 45
2.540000871307232
 46
-5.079995099231839
 79
     2
 49
0.366324
 49
-8.791780000000001
 53
173.1571999999999
 43
46.94078948957893
 44
85.41680511952256
 45
-43.18001785664342
 46
5.080022751654841
 79
     2
 49
0.639557
 49
-63.31599999999999
 53
240.9454
 43
46.30578948957896
 44
85.49300511952248
 45
10.15997636582909
 46
17.77995761083413
 79
     2
 49
0.261508
 49
-25.8894
 53
270.0
 43
46.17878948957893
 44
85.26440511952248
 45
2.539999999999999
 46
-2.54
 79
     2
 49
0.1524
 49
-2.387599999999999
 53
300.2564
 43
47.47418948957895
 44
86.3566051195225
 45
-10.15997846683611
 46
17.77999103247756
 79
     2
 49
0.352867
 49
-34.9339
 53
228.0128
 43
47.65198948957896
 44
86.0518051195225
 45
-20.32001726589601
 46
-22.86002808951257
 79
     2
 49
0.6834430000000003
 49
-33.48880000000001
 53
180.0
 43
47.19478948957893
 44
85.54380511952258
 45
-2.54
 46
-2.539999999999999
 79
     2
 49
0.6604000000000001
 49
-1.879599999999999
 53
145.3047999999999
 43
46.53438948957894
 44
85.54380511952258
 45
25.39995599095369
 46
-17.78000169048477
 79
     2
 49
0.401609999999999
 49
-39.75929999999987
 53
74.05459999999997
 43
46.20418948957893
 44
85.77240511952249
 45
2.540006479701475
 46
10.16002420320363
 79
     2
 49
0.369829
 49
-18.1217
 53
27.6459999999999
 43
46.30578948957896
 44
86.12800511952247
 45
48.25998304902272
 46
25.40001597472338
 79
     2
 49
0.6021450000000002
 49
-59.61249999999998
 53
355.4261
 43
46.83918948957892
 44
86.40740511952248
 45
33.02000760474751
 46
-2.539987711219461
 79
     2
 49
0.6370289999999994
 49
-63.06579999999996
 53
355.4261
 43
46.83918948957892
 44
86.40740511952248
 45
33.02000760474751
 46
-2.539987711219461
 79
     2
 49
0.6370289999999994
 49
-63.06579999999996
 47
0.0
 98
        1
 10
42.12288208438633
 20
77.41753011589072
1001
ACAD
1010
0.0
1020
0.0
1030
0.0
1001
AcDbBlockRepETag
1070
     1
1071
       25
1005
0
  0
LWPOLYLINE
  5
300D
330
1F
100
AcDbEntity
  8
Glas
 62
   150
100
AcDbPolyline
 90
        6
 70
     0
 43
0.0
 10
40.46878948957895
 20
67.42298905072657
 10
40.46878948957895
 20
83.18680511952265
 10
39.96878948957897
 20
83.68680511952266
 10
36.96878948957942
 20
83.68680511952266
 10
36.46878948957942
 20
83.18680511952265
 10
36.46878948957942
 20
63.67677786702865
1001
AcDbBlockRepETag
1070
     1
1071
       30
1005
0
  0
LINE
  5
300E
330
1F
100
AcDbEntity
  8
Aluhalter
100
AcDbLine
 10
37.46878948957937
 20
169.0399654974647
 30
0.0
 11
40.8420966726728
 21
168.0177511995575
 31
0.0
1001
AcDbBlockRepETag
1070
     1
1071
        9
1005
0
  0
LINE
  5
300F
330
1F
100
AcDbEntity
  8
Aluhalter
100
AcDbLine
 10
42.32312728386772
 20
165.5109769502796
 30
0.0
 11
37.46878948957937
 21
164.0399654974649
 31
0.0
1001
AcDbBlockRepETag
1070
     1
1071
       10
1005
0
  0
LWPOLYLINE
  5
3010
330
1F
100
AcDbEntity
  8
Aluhalter
100
AcDbPolyline
 90
        4
 70
     0
 43
0.0
 10
40.0530584695577
 20
169.0399654974647
 10
37.46878948957937
 20
169.0399654974647
 10
37.46878948957937
 20
164.0399654974649
 10
42.94660065412005
 20
164.0399654974649
1001
AcDbBlockRepETag
1070
     1
1071
       28
1005
0
  0
LWPOLYLINE
  5
3011
330
1F
100
AcDbEntity
  8
Glas
 62
   251
100
AcDbPolyline
 90
        5
 70
     0
 43
0.0
 10
42.86449624953417
 20
152.0399654974648
 10
40.4687894895789
 20
152.0399654974648
 10
40.4687894895789
 20
162.0399654974649
 10
42.4687894895789
 20
164.0399654974649
 10
42.94660065412005
 20
164.0399654974649
1001
AcDbBlockRepETag
1070
     1
1071
       21
1005
0
  0
HATCH
  5
3012
330
1F
100
AcDbEntity
  8
Glas
 62
   150
100
AcDbHatch
 10
0.0
 20
0.0
 30
0.0
210
0.0
220
0.0
230
1.0
  2
AR-CONC
 70
     0
 71
     0
 91
        1
 92
        7
 72
     1
 73
     1
 93
        6
 10
40.4687894895789
 20
163.5399654974649
 42
0.0
 10
39.9687894895789
 20
164.0399654974649
 42
0.0
 10
36.96878948957937
 20
164.0399654974649
 42
0.0
 10
36.46878948957937
 20
163.5399654974649
 42
0.0
 10
36.46878948957937
 20
144.0299382449708
 42
0.081123584071759
 10
40.4687894895789
 20
147.7761494286688
 42
0.0
 97
        0
 75
     0
 76
     1
 52
180.0
 41
0.02
 77
     0
 78
    13
 53
230.0
 43
48.00000000000114
 44
175.0930969125361
 45
-3.64369337992008
 46
0.3187817107780622
 79
     2
 49
0.381
 49
-4.190999999999998
 53
175.0
 43
48.00000000000114
 44
175.0930969125361
 45
0.7048565195133394
 46
-3.821132857643598
 79
     2
 49
0.3048
 49
-3.352799999999998
 53
280.451
 43
47.69636000000114
 44
175.1196619125361
 45
-2.938850033319181
 46
-3.502333756405836
 79
     2
 49
0.3237999999999999
 49
-3.561799999999998
 53
226.1842
 43
48.00000000000114
 44
174.0770969125361
 45
-5.421580817842596
 46
0.8408465586545435
 79
     2
 49
0.5715
 49
-6.2865
 53
276.6356
 43
47.54820200000113
 44
174.1471669125361
 45
-4.748084689324743
 46
-4.948511117800983
 79
     2
 49
0.4856999999999994
 49
-5.342699999999981
 53
171.1839999999999
 43
48.00000000000114
 44
174.0770969125361
 45
-4.748092116278677
 46
-4.948502357211951
 79
     2
 49
0.4572
 49
-5.0292
 53
201.0
 43
47.49200000000111
 44
174.331096912536
 45
-3.032297596707665
 46
2.045310370335247
 79
     2
 49
0.381
 49
-4.190999999999998
 53
146.0
 43
47.49200000000111
 44
174.331096912536
 45
-1.236040566952941
 46
-3.683759322446384
 79
     2
 49
0.3048
 49
-3.352799999999998
 53
251.4514000000001
 43
47.23931000000113
 44
174.5015389125361
 45
-4.268329815402489
 46
-1.638457154321148
 79
     2
 49
0.3237999999999999
 49
-3.561799999999998
 53
217.5
 43
48.00000000000114
 44
175.0930969125361
 45
-0.0617720650118366
 46
-1.691100777463059
 79
     6
 49
0.0
 49
-3.312159999999998
 49
0.0
 49
-3.403599999999998
 49
0.0
 49
-3.365499999999998
 53
187.5
 43
48.00000000000114
 44
175.0930969125361
 45
-1.336393250206113
 46
-2.00361149636239
 79
     6
 49
0.0
 49
-1.940559999999999
 49
0.0
 49
-3.235959999999998
 49
0.0
 49
-1.282699999999999
 53
147.4999999999999
 43
49.13284000000111
 44
175.0930969125361
 45
-2.711811903337423
 46
0.1145748798534695
 79
     6
 49
0.0
 49
-1.27
 49
0.0
 49
-3.9624
 49
0.0
 49
-5.257799999999996
 53
137.5
 43
49.64084000000116
 44
175.0930969125361
 45
-2.962583627720361
 46
-0.5085298206666601
 79
     6
 49
0.0
 49
-1.650999999999999
 49
0.0
 49
-2.63144
 49
0.0
 49
-3.7338
 47
0.0484061782568556
 98
        2
 10
38.62794126379572
 20
151.7218580609491
 10
37.66964866848929
 20
146.7951439586169
1001
ACAD
1010
0.0
1020
0.0
1030
0.0
1001
AcDbBlockRepETag
1070
     1
1071
       29
1005
0
  0
HATCH
  5
3013
330
1F
100
AcDbEntity
  8
Glas
 62
   251
100
AcDbHatch
 10
0.0
 20
0.0
 30
0.0
210
0.0
220
0.0
230
1.0
  2
GRAVEL
 70
     0
 71
     0
 91
        1
 92
        5
 93
        5
 72
     2
 10
27.00000000000057
 20
158.1487917962357
 40
17.00000000000059
 50
338.9401640858571
 51
380.2758088379533
 73
     1
 72
     1
 10
42.94660065412005
 20
164.0399654974649
 11
42.4687894895789
 21
164.0399654974649
 72
     1
 10
42.4687894895789
 20
164.0399654974649
 11
40.4687894895789
 21
162.0399654974649
 72
     1
 10
40.4687894895789
 20
162.0399654974649
 11
40.4687894895789
 21
152.0399654974648
 72
     1
 10
40.4687894895789
 20
152.0399654974648
 11
42.86449624953417
 21
152.0399654974648
 97
        0
 75
     0
 76
     1
 52
180.0
 41
0.1
 77
     0
 78
    42
 53
48.01279999999997
 43
46.88998948957888
 44
164.4999654974647
 45
20.32001726589601
 46
22.86002808951257
 79
     2
 49
0.3417209999999987
 49
-33.83049999999988
 53
4.969699999999943
 43
47.11858948957888
 44
164.7539654974647
 45
-30.48004930617913
 46
-2.539982075387451
 79
     2
 49
0.5864050000000001
 49
-58.05399999999998
 53
312.5104
 43
47.70278948957888
 44
164.8047654974647
 45
-25.3999815183317
 46
27.94002729246042
 79
     2
 49
0.413482
 49
-40.93469999999999
 53
87.27370000000004
 43
48.69338948957892
 44
165.4397654974648
 45
-2.539988970828173
 46
-50.79998365336643
 79
     2
 49
0.5340050000000001
 49
-52.8664
 53
112.8337
 43
48.71878948957888
 44
165.9731654974647
 45
12.70003605550189
 46
-30.48001733005111
 79
     2
 49
0.5236339999999983
 49
-51.83979999999983
 53
177.2737
 43
48.51558948957887
 44
166.4557654974647
 45
50.79998365336643
 46
-2.539988970828179
 79
     2
 49
0.5340050000000001
 49
-52.8664
 53
217.6942
 43
47.98218948957888
 44
166.4811654974647
 45
33.02002086123994
 46
25.39997735698489
 79
     2
 49
0.706194
 49
-69.91310000000002
 53
252.2553
 43
47.42338948957889
 44
166.0493654974647
 45
-17.78003556546719
 46
-55.88001620603638
 79
     2
 49
0.6667200000000002
 49
-66.0053
 53
301.4296
 43
47.22018948957888
 44
165.4143654974647
 45
20.32000523526448
 46
-33.01996115997269
 79
     2
 49
0.535813
 49
-53.04549999999998
 53
355.2364
 43
47.49958948957888
 44
164.9571654974647
 45
-27.93997805305446
 46
2.539976162721158
 79
     2
 49
0.611712999999998
 49
-29.97389999999992
 53
42.39739999999999
 43
48.1091894895789
 44
164.9063654974648
 45
30.48000091723972
 46
27.93996365063696
 79
     2
 49
0.7910780000000001
 49
-78.3168
 53
318.8141
 43
46.17878948957889
 44
165.4651654974647
 45
17.77998867422471
 46
-15.239976557124
 79
     2
 49
0.270005
 49
-26.7306
 53
351.4692
 43
46.38198948957884
 44
165.2873654974648
 45
-33.01994959559142
 46
5.080012800045701
 79
     2
 49
0.5136819999999995
 49
-50.85459999999997
 53
44.99999999999998
 43
46.88998948957888
 44
165.2111654974647
 45
0.0000000000000008
 46
2.539998268700193
 79
     2
 49
0.3592090000000001
 49
-3.232889999999998
 53
23.19859999999998
 43
47.06778948957889
 44
164.9063654974648
 45
-12.70004282559083
 46
-5.080022274306258
 79
     2
 49
0.1934409999999998
 49
-19.15059999999997
 53
111.8014
 43
47.24558948957888
 44
164.9825654974648
 45
2.540001781894508
 46
-7.620004908731861
 79
     2
 49
0.2735659999999989
 49
-13.40479999999997
 53
210.9638
 43
47.14398948957884
 44
165.2365654974647
 45
-7.619991954808227
 46
-5.080003958660546
 79
     2
 49
0.44432
 49
-14.36629999999999
 53
341.5651
 43
46.76298948957888
 44
165.0079654974646
 45
-5.080002318180981
 46
2.539996222465076
 79
     2
 49
0.3212869999999998
 49
-7.710899999999991
 53
196.3895
 43
48.71878948957888
 44
164.9825654974648
 45
-25.40001401396935
 46
-7.6199841499678
 79
     2
 49
0.4500879999999994
 49
-44.5587999999998
 53
250.3462
 43
48.28698948957889
 44
164.8555654974648
 45
10.15997168867651
 46
27.939960488545
 79
     2
 49
0.377599
 49
-37.3822
 53
113.1985999999999
 43
46.76298948957888
 44
164.4999654974647
 45
5.080022274306258
 46
-12.70004282559083
 79
     2
 49
0.38688
 49
-18.9572
 53
163.6104999999999
 43
46.61058948957888
 44
164.8555654974648
 45
25.40001401396935
 46
-7.619984149967815
 79
     2
 49
0.4500880000000003
 49
-44.55879999999996
 53
159.4440000000001
 43
48.71878948957888
 44
166.5573654974647
 45
12.70001576425591
 46
-5.079993836050136
 79
     2
 49
0.4340350000000001
 49
-21.2677
 53
114.7751
 43
48.31238948957889
 44
166.7097654974647
 45
12.69997040362684
 46
-27.93998702615667
 79
     2
 49
0.3636719999999997
 49
-36.00359999999995
 53
246.8014
 43
46.73758948957888
 44
167.0399654974647
 45
-5.080022274306266
 46
-12.70004282559083
 79
     2
 49
0.3868799999999986
 49
-18.95719999999994
 53
197.354
 43
46.58518948957889
 44
166.6843654974647
 45
33.02000178185996
 46
10.15998467560563
 79
     2
 49
0.4257830000000002
 49
-42.15239999999996
 53
249.444
 43
47.98218948957888
 44
167.0399654974647
 45
5.079993836050143
 46
12.70001576425591
 79
     2
 49
0.217018
 49
-21.4848
 53
281.3098999999998
 43
46.88998948957888
 44
167.0399654974647
 45
2.539987462887345
 46
-10.15996746090262
 79
     2
 49
0.129515
 49
-12.822
 53
345.9638
 43
46.91538948957888
 44
166.9129654974647
 45
-7.620005354697172
 46
2.539995604123642
 79
     2
 49
0.5236340000000002
 49
-9.949049999999999
 53
6.009000000000008
 43
47.42338948957889
 44
166.7859654974647
 45
-25.39996254442795
 46
-2.539994068547855
 79
     2
 49
0.485267
 49
-48.0414
 53
123.6900999999999
 43
47.14398948957884
 44
165.4651654974647
 45
2.540000871307232
 46
-5.079995099231839
 79
     2
 49
0.366324
 49
-8.791780000000001
 53
173.1571999999999
 43
46.94078948957888
 44
165.7699654974648
 45
-43.18001785664342
 46
5.080022751654841
 79
     2
 49
0.639557
 49
-63.31599999999999
 53
240.9454
 43
46.30578948957889
 44
165.8461654974647
 45
10.15997636582909
 46
17.77995761083413
 79
     2
 49
0.261508
 49
-25.8894
 53
270.0
 43
46.17878948957889
 44
165.6175654974647
 45
2.539999999999999
 46
-2.54
 79
     2
 49
0.1524
 49
-2.387599999999999
 53
300.2564
 43
47.47418948957892
 44
166.7097654974647
 45
-10.15997846683611
 46
17.77999103247756
 79
     2
 49
0.352867
 49
-34.9339
 53
228.0128
 43
47.65198948957888
 44
166.4049654974647
 45
-20.32001726589601
 46
-22.86002808951257
 79
     2
 49
0.6834430000000003
 49
-33.48880000000001
 53
180.0
 43
47.19478948957888
 44
165.8969654974648
 45
-2.54
 46
-2.539999999999999
 79
     2
 49
0.6604000000000001
 49
-1.879599999999999
 53
145.3047999999999
 43
46.53438948957886
 44
165.8969654974648
 45
25.39995599095369
 46
-17.78000169048477
 79
     2
 49
0.401609999999999
 49
-39.75929999999987
 53
74.05459999999997
 43
46.20418948957889
 44
166.1255654974647
 45
2.540006479701475
 46
10.16002420320363
 79
     2
 49
0.369829
 49
-18.1217
 53
27.6459999999999
 43
46.30578948957889
 44
166.4811654974647
 45
48.25998304902272
 46
25.40001597472338
 79
     2
 49
0.6021450000000002
 49
-59.61249999999998
 53
355.4261
 43
46.83918948957884
 44
166.7605654974647
 45
33.02000760474751
 46
-2.539987711219461
 79
     2
 49
0.6370289999999994
 49
-63.06579999999996
 53
355.4261
 43
46.83918948957884
 44
166.7605654974647
 45
33.02000760474751
 46
-2.539987711219461
 79
     2
 49
0.6370289999999994
 49
-63.06579999999996
 47
0.0
 98
        1
 10
42.12288208438628
 20
157.7706904938329
1001
ACAD
1010
0.0
1020
0.0
1030
0.0
1001
AcDbBlockRepETag
1070
     1
1071
       25
1005
0
  0
LWPOLYLINE
  5
3014
330
1F
100
AcDbEntity
  8
Glas
 62
   150
100
AcDbPolyline
 90
        6
 70
     0
 43
0.0
 10
40.4687894895789
 20
147.7761494286688
 10
40.4687894895789
 20
163.5399654974649
 10
39.9687894895789
 20
164.0399654974649
 10
36.96878948957937
 20
164.0399654974649
 10
36.46878948957937
 20
163.5399654974649
 10
36.46878948957937
 20
144.0299382449708
1001
AcDbBlockRepETag
1070
     1
1071
       30
1005
0
  0
VIEWPORT
  5
177E
102
{ACAD_XDICTIONARY
360
31A1
102
}
330
D2
100
AcDbEntity
 67
     1
  8
0
100
AcDbViewport
 10
147.3334766312255
 20
142.5159155017387
 30
0.0
 40
641.5965120280742
 41
300.6360756422775
 68
     1
 69
     1
 12
147.3334766312255
 22
142.5159155017387
 13
0.0
 23
0.0
 14
10.0
 24
10.0
 15
10.0
 25
10.0
 16
0.0
 26
0.0
 36
1.0
 17
0.0
 27
0.0
 37
0.0
 42
50.0
 43
0.0
 44
0.0
 45
300.6360756422775
 50
0.0
 51
0.0
 72
  1000
 90
   557088
  1

281
     0
 71
     1
 74
     0
110
0.0
120
0.0
130
0.0
111
1.0
121
0.0
131
0.0
112
0.0
122
1.0
132
0.0
 79
     0
146
0.0
  0
VIEWPORT
  5
1780
102
{ACAD_XDICTIONARY
360
31A3
102
}
330
D2
100
AcDbEntity
 67
     1
  8
0
100
AcDbViewport
 10
98.98666312582941
 20
142.5159147323491
 30
0.0
 40
209.9733268086163
 41
297.0318298920366
 68
     2
 69
     2
 12
104.7879568455957
 22
148.3976811817479
 13
0.0
 23
0.0
 14
10.0
 24
10.0
 15
10.0
 25
10.0
 16
0.0
 26
0.0
 36
1.0
 17
0.0
 27
0.0
 37
0.0
 42
50.0
 43
0.0
 44
0.0
 45
297.0318250049743
 50
0.0
 51
0.0
 72
  1000
 90
   819296
  1

281
     0
 71
     1
 74
     0
110
0.0
120
0.0
130
0.0
111
1.0
121
0.0
131
0.0
112
0.0
122
1.0
132
0.0
 79
     0
146
0.0
  0
ENDSEC
  0
SECTION
  2
OBJECTS
  0
DICTIONARY
  5
C
330
0
100
AcDbDictionary
281
     1
  3
ACAD_CIP_PREVIOUS_PRODUCT_INFO
350
3170
  3
ACAD_COLOR
350
6B
  3
ACAD_GROUP
350
D
  3
ACAD_LAYOUT
350
1A
  3
ACAD_MATERIAL
350
6A
  3
ACAD_MLEADERSTYLE
350
316C
  3
ACAD_MLINESTYLE
350
17
  3
ACAD_PLOTSETTINGS
350
19
  3
ACAD_PLOTSTYLENAME
350
E
  3
ACAD_SCALELIST
350
315A
  3
ACAD_TABLESTYLE
350
7E
  3
ACAD_VISUALSTYLE
350
EF
  3
ACDB_RECOMPOSE_DATA
350
317B
  3
AcDbVariableDictionary
350
5E
  3
DWGPROPS
350
317C
  0
DICTIONARY
  5
120
330
2
100
AcDbDictionary
280
     1
281
     1
  3
ACAD_LAYERSTATES
360
121
  0
DICTIONARY
  5
732
330
1F
100
AcDbDictionary
280
     1
281
     1
  3
ACAD_SORTENTS
360
733
  0
DICTIONARY
  5
306B
330
1F37
100
AcDbDictionary
280
     1
281
     1
  3
ACAD_SORTENTS
360
306C
  0
DICTIONARY
  5
3061
330
1F40
100
AcDbDictionary
280
     1
281
     1
  0
DICTIONARY
  5
2665
330
261F
100
AcDbDictionary
280
     1
281
     1
  0
DICTIONARY
  5
2F55
330
2F54
100
AcDbDictionary
280
     1
281
     1
  3
ACAD_SORTENTS
360
2F56
  0
DICTIONARY
  5
3019
330
207B
100
AcDbDictionary
280
     1
281
     1
  3
ACAD_MTEXT_RT
360
31A5
  0
DICTIONARY
  5
301B
330
207C
100
AcDbDictionary
280
     1
281
     1
  3
ACAD_MTEXT_RT
360
31A6
  0
DICTIONARY
  5
24E1
330
24D4
100
AcDbDictionary
280
     1
281
     1
  3
ACAD_DIMASSOC
360
24EB
  0
DICTIONARY
  5
3055
330
2AB0
100
AcDbDictionary
280
     1
281
     1
  0
DICTIONARY
  5
2EE2
330
2ED5
100
AcDbDictionary
280
     1
281
     1
  3
ACAD_DIMASSOC
360
2EEC
  0
DICTIONARY
  5
31A1
330
177E
100
AcDbDictionary
280
     1
281
     1
  3
ACAD_XREC_ROUNDTRIP
360
31A2
  0
DICTIONARY
  5
31A3
330
1780
100
AcDbDictionary
280
     1
281
     1
  3
ACAD_XREC_ROUNDTRIP
360
31A4
  0
XRECORD
  5
3170
102
{ACAD_REACTORS
330
C
102
}
330
C
100
AcDbXrecord
280
     1
300
ACDLT
300
2012
300
ACDLT_F_S
  0
DICTIONARY
  5
6B
102
{ACAD_REACTORS
330
C
102
}
330
C
100
AcDbDictionary
281
     1
  0
DICTIONARY
  5
D
102
{ACAD_REACTORS
330
C
102
}
330
C
100
AcDbDictionary
281
     1
  0
DICTIONARY
  5
1A
102
{ACAD_REACTORS
330
C
102
}
330
C
100
AcDbDictionary
281
     1
  3
Layout A4-hoch
350
D3
  3
Model
350
22
  0
DICTIONARY
  5
6A
102
{ACAD_REACTORS
330
C
102
}
330
C
100
AcDbDictionary
281
     1
  3
ByBlock
350
ED
  3
ByLayer
350
EC
  3
Global
350
EE
  0
DICTIONARY
  5
316C
102
{ACAD_REACTORS
330
C
102
}
330
C
100
AcDbDictionary
281
     1
  3
Standard
350
316D
  0
DICTIONARY
  5
17
102
{ACAD_REACTORS
330
C
102
}
330
C
100
AcDbDictionary
281
     1
  3
Standard
350
18
  0
DICTIONARY
  5
19
102
{ACAD_REACTORS
330
C
102
}
330
C
100
AcDbDictionary
281
     1
  0
ACDBDICTIONARYWDFLT
  5
E
102
{ACAD_REACTORS
330
C
102
}
330
C
100
AcDbDictionary
281
     1
  3
Normal
350
F
100
AcDbDictionaryWithDefault
340
F
  0
DICTIONARY
  5
315A
102
{ACAD_REACTORS
330
C
102
}
330
C
100
AcDbDictionary
281
     1
  3
A0
350
315B
  3
A1
350
315C
  3
A2
350
315D
  3
A3
350
315E
  3
A4
350
315F
  3
A5
350
3160
  3
A6
350
3161
  3
A7
350
3162
  3
A8
350
3163
  3
A9
350
3164
  3
B0
350
3165
  3
B1
350
3166
  3
B2
350
3167
  3
B3
350
3168
  3
B4
350
3169
  3
B5
350
316A
  3
B6
350
316B
  0
DICTIONARY
  5
7E
102
{ACAD_REACTORS
330
C
102
}
330
C
100
AcDbDictionary
281
     1
  3
Standard
350
7F
  0
DICTIONARY
  5
EF
102
{ACAD_REACTORS
330
C
102
}
330
C
100
AcDbDictionary
281
     1
  3
2dWireframe
350
F5
  3
3D Hidden
350
F7
  3
3dWireframe
350
F6
  3
Basic
350
F4
  3
Brighten
350
FB
  3
ColorChange
350
FF
  3
Conceptual
350
F8
  3
Dim
350
FA
  3
EdgeColorOff
350
3159
  3
Facepattern
350
FE
  3
Flat
350
F0
  3
FlatWithEdges
350
F1
  3
Gouraud
350
F2
  3
GouraudWithEdges
350
F3
  3
Hidden
350
3151
  3
JitterOff
350
3157
  3
Linepattern
350
FD
  3
OverhangOff
350
3158
  3
Realistic
350
F9
  3
Shaded
350
3156
  3
Shaded with edges
350
3155
  3
Shades of Gray
350
3152
  3
Sketchy
350
3153
  3
Thicken
350
FC
  3
Wireframe
350
3150
  3
X-Ray
350
3154
  0
XRECORD
  5
317B
102
{ACAD_REACTORS
330
C
102
}
330
C
100
AcDbXrecord
280
     1
 90
        1
330
7F
  0
DICTIONARY
  5
5E
102
{ACAD_REACTORS
330
C
102
}
330
C
100
AcDbDictionary
281
     1
  3
CANNOSCALE
350
3174
  3
CMLEADERSTYLE
350
3173
  3
CTABLESTYLE
350
84
  3
DIMASSOC
350
5F
  3
HIDETEXT
350
63
  3
INDEXCTL
350
70A
  3
PSOLHEIGHT
350
3177
  3
PSOLWIDTH
350
3176
  3
SORTENTS
350
709
  3
XCLIPFRAME
350
3175
  0
XRECORD
  5
317C
102
{ACAD_REACTORS
330
C
102
}
330
C
100
AcDbXrecord
280
     1
  1
DWGPROPS COOKIE
  2

  3

  4

  6

  7

  8
asiol
  9

300
=
301
=
302
=
303
=
304
=
305
=
306
=
307
=
308
=
309
=
 40
0.2584916898148148
 41
2454587.317474965
 42
2455980.605120567
  1

 90
        0
  0
DICTIONARY
  5
121
102
{ACAD_REACTORS
330
120
102
}
330
120
100
AcDbDictionary
281
     1
  0
SORTENTSTABLE
  5
733
102
{ACAD_REACTORS
330
732
102
}
330
732
100
AcDbSortentsTable
330
1F
331
2432
  5
24D4
331
2AB1
  5
2ABA
331
3012
  5
3012
331
300E
  5
300E
331
300A
  5
300A
331
207D
  5
2096
331
2CBF
  5
2497
331
2C46
  5
2C4A
331
2AAD
  5
2AB2
331
2AA9
  5
2AAD
331
2C49
  5
2CC0
331
3006
  5
3006
331
3002
  5
3002
331
2075
  5
2076
331
20C8
  5
21BE
331
2065
  5
2066
331
20C4
  5
21BA
331
2AA6
  5
2AAA
331
2061
  5
2062
331
2FC6
  5
2FC6
331
2A9E
  5
2AA2
331
2FC2
  5
2FC2
331
2347
  5
242F
331
2648
  5
2A8D
331
2A9A
  5
2A9E
331
2A96
  5
2A9A
331
205D
  5
205E
331
2059
  5
205A
331
20B0
  5
20BE
331
21C3
  5
21B9
331
2EA2
  5
2EA2
331
21BF
  5
21B3
331
21BB
  5
20C9
331
2A8A
  5
2A8E
331
2049
  5
204A
331
21B7
  5
20C6
331
2045
  5
2046
331
2AB4
  5
2C46
331
2431
  5
24BC
331
2AB0
  5
2AB4
331
3011
  5
3011
331
2CE7
  5
234A
331
300D
  5
300D
331
3009
  5
3009
331
207C
  5
207D
331
2C45
  5
2C49
331
2078
  5
207A
331
2C98
  5
2349
331
2AAC
  5
2AB1
331
2AA8
  5
2AAC
331
2C48
  5
2C99
331
3005
  5
3005
331
2074
  5
2075
331
20CB
  5
21C8
331
20C7
  5
21BD
331
2064
  5
2065
331
2AA5
  5
2AA9
331
2AA1
  5
2AA5
331
234A
  5
2433
331
24D4
  5
2A8B
331
24BC
  5
2A8A
331
2FC5
  5
2FC5
331
2A9D
  5
2AA1
331
2FC1
  5
2FC1
331
2A99
  5
2A9D
331
2ED5
  5
2ED5
331
205C
  5
205D
331
2058
  5
2059
331
24A4
  5
2648
331
20AB
  5
20AD
331
21BE
  5
20CC
331
21BA
  5
20C8
331
2048
  5
2049
331
242D
  5
2045
331
2FBF
  5
2FBF
331
2464
  5
2543
331
2AB3
  5
2C45
331
2430
  5
24A4
331
3014
  5
3014
331
3010
  5
3010
331
300C
  5
300C
331
3008
  5
3008
331
207B
  5
207C
331
2C44
  5
2C48
331
2AAF
  5
2AB3
331
2AAB
  5
2AB0
331
3004
  5
3004
331
2077
  5
2078
331
2073
  5
2074
331
20CA
  5
21C0
331
20C6
  5
21BC
331
2063
  5
2064
331
2AA4
  5
2AA8
331
2349
  5
2432
331
2FC4
  5
2FC4
331
2057
  5
2058
331
20BE
  5
20C4
331
2A9C
  5
2AA0
331
2FC0
  5
2FC0
331
2A98
  5
2A9C
331
205F
  5
2061
331
205B
  5
205C
331
2497
  5
257D
331
20AE
  5
20B0
331
2A8C
  5
2A90
331
204B
  5
2057
331
21BD
  5
20CB
331
2096
  5
20AB
331
21B9
  5
20C7
331
2047
  5
2048
331
2FBE
  5
2FBE
331
2433
  5
2506
331
2AB2
  5
2C44
331
3013
  5
3013
331
300F
  5
300F
331
2C47
  5
2C71
331
300B
  5
300B
331
207A
  5
207B
331
2AAA
  5
2AAF
331
22CB
  5
23D7
331
2506
  5
2A8C
331
3007
  5
3007
331
3003
  5
3003
331
2076
  5
2077
331
20C9
  5
21BF
331
2072
  5
2073
331
20C5
  5
21BB
331
2C70
  5
2464
331
2AA7
  5
2AAB
331
2066
  5
2072
331
2062
  5
2063
331
2AA3
  5
2AA7
331
2ABA
  5
2C47
331
2A9F
  5
2AA3
331
2FC3
  5
2FC3
331
2A9B
  5
2A9F
331
2A97
  5
2A9B
331
205E
  5
205F
331
205A
  5
205B
331
2A8F
  5
2A93
331
20AD
  5
20AE
331
21BC
  5
20CA
331
2A8B
  5
2A8F
331
204A
  5
204B
331
2D63
  5
2D63
331
2046
  5
2047
331
21B4
  5
2382
  0
SORTENTSTABLE
  5
306C
102
{ACAD_REACTORS
330
306B
102
}
330
306B
100
AcDbSortentsTable
330
1F37
331
3067
  5
3068
331
3068
  5
3069
331
3069
  5
306A
331
306A
  5
3067
  0
SORTENTSTABLE
  5
2F56
102
{ACAD_REACTORS
330
2F55
102
}
330
2F55
100
AcDbSortentsTable
330
2F54
  0
XRECORD
  5
31A5
102
{ACAD_REACTORS
330
3019
102
}
330
3019
100
AcDbXrecord
280
     1
 40
1919807.0
  1
{\fArial|b1|i0|c0|p34;Holzfenster IDEAL IV78xxxx - ClassicLine\PVerbreiterung\P\fArial|b0|i0|c0|p34;\H0.6x;Getriebenutmitte 13.15mm\PGlasstärken 28mm bis 46mm\P\PVertikalschnitt - Horizontalschnitt}
  0
XRECORD
  5
31A6
102
{ACAD_REACTORS
330
301B
102
}
330
301B
100
AcDbXrecord
280
     1
 40
293718.0
  1
{\fArial|b0|i0|c0|p34;Zeichnung ohne Gewähr; Änderungen vorbehalten}
  0
DIMASSOC
  5
24EB
102
{ACAD_REACTORS
330
24E1
102
}
330
24E1
100
AcDbDimAssoc
330
24D4
 90
        2
 70
     0
 71
     0
  1
AcDbOsnapPointRef
 72
    10
331
242D
 73
     2
 91
       26
 40
0.7493768963088641
 10
0.0
 20
0.0
 30
0.0
 75
     0
  0
DIMASSOC
  5
2EEC
102
{ACAD_REACTORS
330
2EE2
102
}
330
2EE2
100
AcDbDimAssoc
330
2ED5
 90
        3
 70
     0
 71
     0
  1
AcDbOsnapPointRef
 72
     1
331
2AAA
 73
     2
 91
       39
 40
1.0
 10
0.0
 20
0.0
 30
2.000000000000000E+50
 75
     0
  1
AcDbOsnapPointRef
 72
     8
331
2AAA
 73
     2
 91
       31
 40
0.7191999478911704
 10
0.0
 20
0.0
 30
0.0
 75
     1
  1
AcDbOsnapPointRef
 72
     1
331
2AAA
 73
     2
 91
       39
 40
1.0
 10
0.0
 20
0.0
 30
2.000000000000000E+50
 75
     0
  0
XRECORD
  5
31A2
102
{ACAD_REACTORS
330
31A1
102
}
330
31A1
100
AcDbXrecord
280
     1
102
SHADEPLOT
 70
     0
  0
XRECORD
  5
31A4
102
{ACAD_REACTORS
330
31A3
102
}
330
31A3
100
AcDbXrecord
280
     1
102
SHADEPLOT
 70
     0
  0
LAYOUT
  5
D3
102
{ACAD_XDICTIONARY
360
1785
102
}
102
{ACAD_REACTORS
330
1A
102
}
330
1A
100
AcDbPlotSettings
  1

  2
Adobe PDF
  4
A4
  6

 40
3.174999952316281
 41
3.174999952316281
 42
3.175003051757812
 43
3.17498779296875
 44
209.9733276367186
 45
297.0318298339844
 46
2.825000047683714
 47
2.825000047683714
 48
0.0
 49
0.0
140
0.0
141
0.0
142
1.0
143
1.0
 70
   672
 72
     1
 73
     0
 74
     5
  7
Grayscale.ctb
 75
    16
147
1.0
148
0.0
149
0.0
100
AcDbLayout
  1
Layout A4-hoch
 70
     1
 71
     1
 10
-5.999999999999997
 20
-5.999999999999997
 11
203.9733276367186
 21
291.0318298339844
 12
0.0
 22
0.0
 32
0.0
 14
-6.006404489069383
 24
-6.009059718562637
 34
-0.0000000000000053
 15
203.9797374698058
 25
291.0408972925567
 35
0.0000000000000099
146
0.0
 13
0.0
 23
0.0
 33
0.0
 16
1.0
 26
0.0
 36
0.0
 17
0.0
 27
1.0
 37
0.0
 76
     0
330
D2
331
177E
1001
ACAD_PSEXT
1000
Adobe PDF
1000
Adobe PDF Converter
1000
Eigene Dateien
1000

1070
     0
  0
LAYOUT
  5
22
102
{ACAD_XDICTIONARY
360
317D
102
}
102
{ACAD_REACTORS
330
1A
102
}
330
1A
100
AcDbPlotSettings
  1

  2
\\ideal2000-01\RICOH Aficio MP 161 PCL 6
  4
A4
  6

 40
5.027082920074462
 41
5.027085781097412
 42
5.027069091796875
 43
5.027069091796875
 44
209.9733276367186
 45
296.9259948730469
 46
-110.0404121875763
 47
-5.064079999923706
 48
0.0
 49
0.0
140
0.0
141
0.0
142
1.0
143
1.0
 70
 11940
 72
     1
 73
     0
 74
     2
  7
Grayscale.ctb
 75
     0
147
0.4759980372020177
148
0.0
149
0.0
100
AcDbLayout
  1
Model
 70
     1
 71
     0
 10
0.0
 20
0.0
 11
12.0
 21
9.0
 12
0.0
 22
0.0
 32
0.0
 14
0.0
 24
0.0
 34
0.0
 15
0.0
 25
0.0
 35
0.0
146
0.0
 13
0.0
 23
0.0
 33
0.0
 16
1.0
 26
0.0
 36
0.0
 17
0.0
 27
1.0
 37
0.0
 76
     0
330
1F
331
EA
1001
ACAD_PSEXT
1000
\\ideal2000-01\RICOH Aficio MP 161 PCL 6
1000
RICOH Aficio MP 161 PCL 6
1000
Bei Hern Becker an JetAdmin 172.16.99.14
1000

1070
     0
  0
MATERIAL
  5
ED
102
{ACAD_XDICTIONARY
360
718
102
}
102
{ACAD_REACTORS
330
6A
102
}
330
6A
100
AcDbMaterial
  1
ByBlock
  0
MATERIAL
  5
EC
102
{ACAD_XDICTIONARY
360
716
102
}
102
{ACAD_REACTORS
330
6A
102
}
330
6A
100
AcDbMaterial
  1
ByLayer
  0
MATERIAL
  5
EE
102
{ACAD_XDICTIONARY
360
71A
102
}
102
{ACAD_REACTORS
330
6A
102
}
330
6A
100
AcDbMaterial
  1
Global
  0
MLEADERSTYLE
  5
316D
102
{ACAD_REACTORS
330
316C
102
}
330
316C
100
AcDbMLeaderStyle
170
     2
171
     1
172
     0
 90
        2
 40
0.0
 41
0.0
173
     1
 91
-1056964608
340
14
 92
       -2
290
     1
 42
2.0
291
     1
 43
0.36
  3
Standard
 44
4.0
300

342
11
174
     1
178
     6
175
     1
176
     0
 93
-1056964608
 45
4.0
292
     0
297
     0
 46
4.0
 94
-1056964608
 47
1.0
 49
1.0
140
1.0
293
     1
141
0.0
294
     1
177
     0
142
1.0
295
     0
296
     0
143
0.125
1001
ACAD_MLEADERVER
1070
     2
  0
MLINESTYLE
  5
18
102
{ACAD_REACTORS
330
17
102
}
330
17
100
AcDbMlineStyle
  2
STANDARD
 70
     0
  3

 62
   256
 51
90.0
 52
90.0
 71
     2
 49
0.5
 62
   256
  6
BYLAYER
 49
-0.5
 62
   256
  6
BYLAYER
  0
ACDBPLACEHOLDER
  5
F
102
{ACAD_REACTORS
330
E
102
}
330
E
  0
SCALE
  5
315B
102
{ACAD_REACTORS
330
315A
102
}
330
315A
100
AcDbScale
 70
     0
300
1:1
140
1.0
141
1.0
290
     1
  0
SCALE
  5
315C
102
{ACAD_REACTORS
330
315A
102
}
330
315A
100
AcDbScale
 70
     0
300
1:2
140
1.0
141
2.0
290
     0
  0
SCALE
  5
315D
102
{ACAD_REACTORS
330
315A
102
}
330
315A
100
AcDbScale
 70
     0
300
1:4
140
1.0
141
4.0
290
     0
  0
SCALE
  5
315E
102
{ACAD_REACTORS
330
315A
102
}
330
315A
100
AcDbScale
 70
     0
300
1:5
140
1.0
141
5.0
290
     0
  0
SCALE
  5
315F
102
{ACAD_REACTORS
330
315A
102
}
330
315A
100
AcDbScale
 70
     0
300
1:8
140
1.0
141
8.0
290
     0
  0
SCALE
  5
3160
102
{ACAD_REACTORS
330
315A
102
}
330
315A
100
AcDbScale
 70
     0
300
1:10
140
1.0
141
10.0
290
     0
  0
SCALE
  5
3161
102
{ACAD_REACTORS
330
315A
102
}
330
315A
100
AcDbScale
 70
     0
300
1:16
140
1.0
141
16.0
290
     0
  0
SCALE
  5
3162
102
{ACAD_REACTORS
330
315A
102
}
330
315A
100
AcDbScale
 70
     0
300
1:20
140
1.0
141
20.0
290
     0
  0
SCALE
  5
3163
102
{ACAD_REACTORS
330
315A
102
}
330
315A
100
AcDbScale
 70
     0
300
1:30
140
1.0
141
30.0
290
     0
  0
SCALE
  5
3164
102
{ACAD_REACTORS
330
315A
102
}
330
315A
100
AcDbScale
 70
     0
300
1:40
140
1.0
141
40.0
290
     0
  0
SCALE
  5
3165
102
{ACAD_REACTORS
330
315A
102
}
330
315A
100
AcDbScale
 70
     0
300
1:50
140
1.0
141
50.0
290
     0
  0
SCALE
  5
3166
102
{ACAD_REACTORS
330
315A
102
}
330
315A
100
AcDbScale
 70
     0
300
1:100
140
1.0
141
100.0
290
     0
  0
SCALE
  5
3167
102
{ACAD_REACTORS
330
315A
102
}
330
315A
100
AcDbScale
 70
     0
300
2:1
140
2.0
141
1.0
290
     0
  0
SCALE
  5
3168
102
{ACAD_REACTORS
330
315A
102
}
330
315A
100
AcDbScale
 70
     0
300
4:1
140
4.0
141
1.0
290
     0
  0
SCALE
  5
3169
102
{ACAD_REACTORS
330
315A
102
}
330
315A
100
AcDbScale
 70
     0
300
8:1
140
8.0
141
1.0
290
     0
  0
SCALE
  5
316A
102
{ACAD_REACTORS
330
315A
102
}
330
315A
100
AcDbScale
 70
     0
300
10:1
140
10.0
141
1.0
290
     0
  0
SCALE
  5
316B
102
{ACAD_REACTORS
330
315A
102
}
330
315A
100
AcDbScale
 70
     0
300
100:1
140
100.0
141
1.0
290
     0
  0
TABLESTYLE
  5
7F
102
{ACAD_XDICTIONARY
360
3179
102
}
102
{ACAD_REACTORS
330
7E
102
}
330
7E
100
AcDbTableStyle
  3
Standard
 70
     0
 71
     0
 40
1.5
 41
1.5
280
     0
281
     0
  7
Standard
140
4.5
170
     2
 62
     0
 63
     7
283
     0
274
    -2
284
     1
 64
     0
275
    -2
285
     1
 65
     0
276
    -2
286
     1
 66
     0
277
    -2
287
     1
 67
     0
278
    -2
288
     1
 68
     0
279
    -2
289
     1
 69
     0
  7
Standard
140
6.0
170
     5
 62
     0
 63
     7
283
     0
274
    -2
284
     1
 64
     0
275
    -2
285
     1
 65
     0
276
    -2
286
     1
 66
     0
277
    -2
287
     1
 67
     0
278
    -2
288
     1
 68
     0
279
    -2
289
     1
 69
     0
  7
Standard
140
4.5
170
     5
 62
     0
 63
     7
283
     0
274
    -2
284
     1
 64
     0
275
    -2
285
     1
 65
     0
276
    -2
286
     1
 66
     0
277
    -2
287
     1
 67
     0
278
    -2
288
     1
 68
     0
279
    -2
289
     1
 69
     0
  0
VISUALSTYLE
  5
F5
102
{ACAD_XDICTIONARY
360
318B
102
}
102
{ACAD_REACTORS
330
EF
102
}
330
EF
100
AcDbVisualStyle
  2

 70
     4
 71
     0
 72
     2
 73
     1
 90
        0
 40
-0.6
 41
-30.0
 62
     5
 63
     7
 74
     1
 91
        4
 64
     7
 65
   257
 75
     1
175
     1
 42
1.0
 92
        0
 66
   257
 43
1.0
 76
     1
 77
     6
 78
     2
 67
     7
 79
     5
170
     0
171
     0
290
     0
174
     0
 93
        1
 44
0.0
173
     0
291
     0
 45
0.0
1001
ACAD
1000
AcDbSavedByObjectVersion
1070
     0
  0
VISUALSTYLE
  5
F7
102
{ACAD_XDICTIONARY
360
318F
102
}
102
{ACAD_REACTORS
330
EF
102
}
330
EF
100
AcDbVisualStyle
  2

 70
     6
 71
     1
 72
     2
 73
     2
 90
        0
 40
-0.6
 41
-30.0
 62
     5
 63
     7
 74
     2
 91
        2
 64
     7
 65
   257
 75
     2
175
     1
 42
40.0
 92
        0
 66
   257
 43
1.0
 76
     1
 77
     6
 78
     2
 67
     7
 79
     3
170
     0
171
     0
290
     0
174
     0
 93
        1
 44
0.0
173
     0
291
     0
 45
0.0
1001
ACAD
1000
AcDbSavedByObjectVersion
1070
     0
  0
VISUALSTYLE
  5
F6
102
{ACAD_XDICTIONARY
360
318D
102
}
102
{ACAD_REACTORS
330
EF
102
}
330
EF
100
AcDbVisualStyle
  2

 70
     5
 71
     0
 72
     2
 73
     1
 90
        0
 40
-0.6
 41
-30.0
 62
     5
 63
     7
 74
     1
 91
        4
 64
     7
 65
   257
 75
     1
175
     1
 42
1.0
 92
        0
 66
   257
 43
1.0
 76
     1
 77
     6
 78
     2
 67
     7
 79
     5
170
     0
171
     0
290
     0
174
     0
 93
        1
 44
0.0
173
     0
291
     0
 45
0.0
1001
ACAD
1000
AcDbSavedByObjectVersion
1070
     0
  0
VISUALSTYLE
  5
F4
102
{ACAD_XDICTIONARY
360
3189
102
}
102
{ACAD_REACTORS
330
EF
102
}
330
EF
100
AcDbVisualStyle
  2

 70
     7
 71
     1
 72
     0
 73
     1
 90
        0
 40
-0.6
 41
-30.0
 62
     5
 63
     7
 74
     0
 91
        4
 64
     7
 65
   257
 75
     1
175
     1
 42
1.0
 92
        8
 66
     7
 43
1.0
 76
     1
 77
     6
 78
     2
 67
     7
 79
     5
170
     0
171
     0
290
     0
174
     0
 93
        1
 44
0.0
173
     0
291
     1
 45
0.0
1001
ACAD
1000
AcDbSavedByObjectVersion
1070
     0
  0
VISUALSTYLE
  5
FB
102
{ACAD_XDICTIONARY
360
3197
102
}
102
{ACAD_REACTORS
330
EF
102
}
330
EF
100
AcDbVisualStyle
  2

 70
    12
 71
     2
 72
     2
 73
     1
 90
        0
 40
-0.6
 41
-30.0
 62
     5
 63
     7
 74
     1
 91
        4
 64
     7
 65
   257
 75
     1
175
     1
 42
1.0
 92
        8
 66
     7
 43
1.0
 76
     1
 77
     6
 78
     2
 67
     7
 79
     5
170
     0
171
     0
290
     0
174
     0
 93
        1
 44
50.0
173
     0
291
     1
 45
0.0
1001
ACAD
1000
AcDbSavedByObjectVersion
1070
     0
  0
VISUALSTYLE
  5
FF
102
{ACAD_XDICTIONARY
360
319F
102
}
102
{ACAD_REACTORS
330
EF
102
}
330
EF
100
AcDbVisualStyle
  2

 70
    16
 71
     2
 72
     2
 73
     3
 90
        0
 40
-0.6
 41
-30.0
 62
     5
 63
     8
 74
     1
 91
        4
 64
     7
 65
   257
 75
     1
175
     1
 42
1.0
 92
        8
 66
     8
 43
1.0
 76
     1
 77
     6
 78
     2
 67
     7
 79
     5
170
     0
171
     0
290
     0
174
     0
 93
        1
 44
0.0
173
     0
291
     1
 45
0.0
1001
ACAD
1000
AcDbSavedByObjectVersion
1070
     0
  0
VISUALSTYLE
  5
F8
102
{ACAD_XDICTIONARY
360
3191
102
}
102
{ACAD_REACTORS
330
EF
102
}
330
EF
100
AcDbVisualStyle
  2

 70
     9
 71
     3
 72
     2
 73
     1
 90
        0
 40
-0.6
 41
-30.0
 62
     5
 63
     7
 74
     2
 91
        2
 64
     7
 65
   257
 75
     1
175
     1
 42
40.0
 92
        8
 66
     7
 43
1.0
 76
     1
 77
     6
 78
     2
 67
     7
 79
     3
170
     0
171
     0
290
     0
174
     0
 93
        1
 44
0.0
173
     0
291
     0
 45
0.0
1001
ACAD
1000
AcDbSavedByObjectVersion
1070
     0
  0
VISUALSTYLE
  5
FA
102
{ACAD_XDICTIONARY
360
3195
102
}
102
{ACAD_REACTORS
330
EF
102
}
330
EF
100
AcDbVisualStyle
  2

 70
    11
 71
     2
 72
     2
 73
     1
 90
        0
 40
-0.6
 41
-30.0
 62
     5
 63
     7
 74
     1
 91
        4
 64
     7
 65
   257
 75
     1
175
     1
 42
1.0
 92
        8
 66
     7
 43
1.0
 76
     1
 77
     6
 78
     2
 67
     7
 79
     5
170
     0
171
     0
290
     0
174
     0
 93
        1
 44
-50.0
173
     0
291
     1
 45
0.0
1001
ACAD
1000
AcDbSavedByObjectVersion
1070
     0
  0
VISUALSTYLE
  5
3159
102
{ACAD_XDICTIONARY
360
31B9
102
}
102
{ACAD_REACTORS
330
EF
102
}
330
EF
100
AcDbVisualStyle
  2
EdgeColorOff
 70
    22
 71
     2
 72
     2
 73
     0
 90
        0
 40
-0.6
 41
-30.0
 62
     5
 63
     7
 74
     1
 91
        4
 64
     7
 65
   257
 75
     1
175
     1
 42
1.0
 92
        8
 66
     7
 43
1.0
 76
     1
 77
     6
 78
     2
 67
     7
 79
     5
170
     0
171
     0
290
     0
174
     0
 93
        1
 44
0.0
173
     0
291
     1
 45
0.0
1001
ACAD
1000
AcDbSavedByObjectVersion
1070
     0
  0
VISUALSTYLE
  5
FE
102
{ACAD_XDICTIONARY
360
319D
102
}
102
{ACAD_REACTORS
330
EF
102
}
330
EF
100
AcDbVisualStyle
  2

 70
    15
 71
     2
 72
     2
 73
     1
 90
        0
 40
-0.6
 41
-30.0
 62
     5
 63
     7
 74
     1
 91
        4
 64
     7
 65
   257
 75
     1
175
     1
 42
1.0
 92
        8
 66
     7
 43
1.0
 76
     1
 77
     6
 78
     2
 67
     7
 79
     5
170
     0
171
     0
290
     0
174
     0
 93
        1
 44
0.0
173
     0
291
     1
 45
0.0
1001
ACAD
1000
AcDbSavedByObjectVersion
1070
     0
  0
VISUALSTYLE
  5
F0
102
{ACAD_XDICTIONARY
360
3181
102
}
102
{ACAD_REACTORS
330
EF
102
}
330
EF
100
AcDbVisualStyle
  2

 70
     0
 71
     2
 72
     1
 73
     1
 90
        2
 40
-0.6
 41
30.0
 62
     5
 63
     7
 74
     0
 91
        4
 64
     7
 65
   257
 75
     1
175
     1
 42
1.0
 92
        8
 66
     7
 43
1.0
 76
     1
 77
     6
 78
     2
 67
     7
 79
     5
170
     0
171
     0
290
     0
174
     0
 93
        1
 44
0.0
173
     0
291
     1
 45
0.0
1001
ACAD
1000
AcDbSavedByObjectVersion
1070
     0
  0
VISUALSTYLE
  5
F1
102
{ACAD_XDICTIONARY
360
3183
102
}
102
{ACAD_REACTORS
330
EF
102
}
330
EF
100
AcDbVisualStyle
  2

 70
     1
 71
     2
 72
     1
 73
     1
 90
        2
 40
-0.6
 41
30.0
 62
     5
 63
     7
 74
     1
 91
        4
 64
     7
 65
   257
 75
     1
175
     1
 42
1.0
 92
        0
 66
   257
 43
1.0
 76
     1
 77
     6
 78
     2
 67
     7
 79
     5
170
     0
171
     0
290
     0
174
     0
 93
        1
 44
0.0
173
     0
291
     1
 45
0.0
1001
ACAD
1000
AcDbSavedByObjectVersion
1070
     0
  0
VISUALSTYLE
  5
F2
102
{ACAD_XDICTIONARY
360
3185
102
}
102
{ACAD_REACTORS
330
EF
102
}
330
EF
100
AcDbVisualStyle
  2

 70
     2
 71
     2
 72
     2
 73
     1
 90
        2
 40
-0.6
 41
30.0
 62
     5
 63
     7
 74
     0
 91
        4
 64
     7
 65
   257
 75
     1
175
     1
 42
1.0
 92
        0
 66
     7
 43
1.0
 76
     1
 77
     6
 78
     2
 67
     7
 79
     5
170
     0
171
     0
290
     0
174
     0
 93
        1
 44
0.0
173
     0
291
     1
 45
0.0
1001
ACAD
1000
AcDbSavedByObjectVersion
1070
     0
  0
VISUALSTYLE
  5
F3
102
{ACAD_XDICTIONARY
360
3187
102
}
102
{ACAD_REACTORS
330
EF
102
}
330
EF
100
AcDbVisualStyle
  2

 70
     3
 71
     2
 72
     2
 73
     1
 90
        2
 40
-0.6
 41
30.0
 62
     5
 63
     7
 74
     1
 91
        4
 64
     7
 65
   257
 75
     1
175
     1
 42
1.0
 92
        0
 66
   257
 43
1.0
 76
     1
 77
     6
 78
     2
 67
     7
 79
     5
170
     0
171
     0
290
     0
174
     0
 93
        1
 44
0.0
173
     0
291
     1
 45
0.0
1001
ACAD
1000
AcDbSavedByObjectVersion
1070
     0
  0
VISUALSTYLE
  5
3151
102
{ACAD_XDICTIONARY
360
31A9
102
}
102
{ACAD_REACTORS
330
EF
102
}
330
EF
100
AcDbVisualStyle
  2
Hidden
 70
     6
 71
     1
 72
     2
 73
     2
 90
        0
 40
-0.6
 41
-30.0
 62
     5
 63
     7
 74
     2
 91
        2
 64
     7
 65
   257
 75
     2
175
     1
 42
40.0
 92
        0
 66
   257
 43
1.0
 76
     1
 77
     6
 78
     2
 67
     7
 79
     3
170
     0
171
     0
290
     0
174
     0
 93
        1
 44
0.0
173
     0
291
     0
 45
0.0
1001
ACAD
1000
AcDbSavedByObjectVersion
1070
     0
  0
VISUALSTYLE
  5
3157
102
{ACAD_XDICTIONARY
360
31B5
102
}
102
{ACAD_REACTORS
330
EF
102
}
330
EF
100
AcDbVisualStyle
  2
JitterOff
 70
    20
 71
     2
 72
     2
 73
     0
 90
        0
 40
-0.6
 41
-30.0
 62
     5
 63
     7
 74
     1
 91
        4
 64
     7
 65
   257
 75
     1
175
     1
 42
1.0
 92
       10
 66
     7
 43
1.0
 76
     1
 77
     6
 78
     2
 67
     7
 79
     5
170
     0
171
     0
290
     0
174
     0
 93
        1
 44
0.0
173
     0
291
     1
 45
0.0
1001
ACAD
1000
AcDbSavedByObjectVersion
1070
     0
  0
VISUALSTYLE
  5
FD
102
{ACAD_XDICTIONARY
360
319B
102
}
102
{ACAD_REACTORS
330
EF
102
}
330
EF
100
AcDbVisualStyle
  2

 70
    14
 71
     2
 72
     2
 73
     1
 90
        0
 40
-0.6
 41
-30.0
 62
     5
 63
     7
 74
     1
 91
        4
 64
     7
 65
   257
 75
     7
175
     7
 42
1.0
 92
        8
 66
     7
 43
1.0
 76
     1
 77
     6
 78
     2
 67
     7
 79
     5
170
     0
171
     0
290
     0
174
     0
 93
        1
 44
0.0
173
     0
291
     1
 45
0.0
1001
ACAD
1000
AcDbSavedByObjectVersion
1070
     0
  0
VISUALSTYLE
  5
3158
102
{ACAD_XDICTIONARY
360
31B7
102
}
102
{ACAD_REACTORS
330
EF
102
}
330
EF
100
AcDbVisualStyle
  2
OverhangOff
 70
    21
 71
     2
 72
     2
 73
     0
 90
        0
 40
-0.6
 41
-30.0
 62
     5
 63
     7
 74
     1
 91
        4
 64
     7
 65
   257
 75
     1
175
     1
 42
1.0
 92
        9
 66
     7
 43
1.0
 76
     1
 77
     6
 78
     2
 67
     7
 79
     5
170
     0
171
     0
290
     0
174
     0
 93
        1
 44
0.0
173
     0
291
     1
 45
0.0
1001
ACAD
1000
AcDbSavedByObjectVersion
1070
     0
  0
VISUALSTYLE
  5
F9
102
{ACAD_XDICTIONARY
360
3193
102
}
102
{ACAD_REACTORS
330
EF
102
}
330
EF
100
AcDbVisualStyle
  2

 70
     8
 71
     2
 72
     2
 73
     1
 90
        0
 40
-0.6
 41
-30.0
 62
     5
 63
     7
 74
     1
 91
        0
 64
     7
 65
   257
 75
     1
175
     1
 42
1.0
 92
        8
 66
     8
 43
1.0
 76
     1
 77
     6
 78
     2
 67
     7
 79
     5
170
     0
171
     0
290
     0
174
     0
 93
       13
 44
0.0
173
     0
291
     0
 45
0.0
1001
ACAD
1000
AcDbSavedByObjectVersion
1070
     0
  0
VISUALSTYLE
  5
3156
102
{ACAD_XDICTIONARY
360
31B3
102
}
102
{ACAD_REACTORS
330
EF
102
}
330
EF
100
AcDbVisualStyle
  2
Shaded
 70
    27
 71
     2
 72
     2
 73
     1
 90
        2
 40
-0.6
 41
30.0
 62
     5
 63
     7
 74
     0
 91
        4
 64
     7
 65
   257
 75
     1
175
     1
 42
1.0
 92
        8
 66
   257
 43
1.0
 76
     1
 77
     6
 78
     2
 67
     8
 79
     3
170
     0
171
     0
290
     0
174
     0
 93
        5
 44
0.0
173
     0
291
     0
 45
0.0
1001
ACAD
1000
AcDbSavedByObjectVersion
1070
     0
  0
VISUALSTYLE
  5
3155
102
{ACAD_XDICTIONARY
360
31B1
102
}
102
{ACAD_REACTORS
330
EF
102
}
330
EF
100
AcDbVisualStyle
  2
Shaded with edges
 70
    26
 71
     2
 72
     2
 73
     1
 90
        2
 40
-0.6
 41
30.0
 62
     5
 63
     7
 74
     1
 91
       10
 64
     7
 65
   257
 75
     2
175
     1
 42
1.0
 92
        8
 66
   257
 43
1.0
 76
     1
 77
     6
 78
     2
 67
     7
 79
     3
170
     0
171
     0
290
     0
174
     0
 93
        5
 44
0.0
173
     0
291
     0
 45
0.0
1001
ACAD
1000
AcDbSavedByObjectVersion
1070
     0
  0
VISUALSTYLE
  5
3152
102
{ACAD_XDICTIONARY
360
31AB
102
}
102
{ACAD_REACTORS
330
EF
102
}
330
EF
100
AcDbVisualStyle
  2
Shades of Gray
 70
    23
 71
     2
 72
     2
 73
     3
 90
        0
 40
-0.6
 41
-30.0
 62
     5
 63
     7
 74
     2
 91
        2
 64
     7
 65
     7
 75
     1
175
     1
 42
40.0
 92
        8
 66
     7
 43
1.0
 76
     1
 77
     6
 78
     2
 67
     7
 79
     3
170
     0
171
     0
290
     0
174
     0
 93
        1
 44
0.0
173
     0
291
     0
 45
0.0
1001
ACAD
1000
AcDbSavedByObjectVersion
1070
     0
  0
VISUALSTYLE
  5
3153
102
{ACAD_XDICTIONARY
360
31AD
102
}
102
{ACAD_REACTORS
330
EF
102
}
330
EF
100
AcDbVisualStyle
  2
Sketchy
 70
    24
 71
     1
 72
     2
 73
     2
 90
        0
 40
-0.6
 41
-30.0
 62
     5
 63
     7
 74
     2
 91
        2
 64
     7
 65
     7
 75
     1
175
     1
 42
40.0
 92
       11
 66
     7
 43
1.0
 76
     1
 77
     6
 78
     2
 67
     7
 79
     6
170
     0
171
     0
290
     0
174
     0
 93
        1
 44
0.0
173
     0
291
     0
 45
0.0
1001
ACAD
1000
AcDbSavedByObjectVersion
1070
     0
  0
VISUALSTYLE
  5
FC
102
{ACAD_XDICTIONARY
360
3199
102
}
102
{ACAD_REACTORS
330
EF
102
}
330
EF
100
AcDbVisualStyle
  2

 70
    13
 71
     2
 72
     2
 73
     1
 90
        0
 40
-0.6
 41
-30.0
 62
     5
 63
     7
 74
     1
 91
        4
 64
     7
 65
   257
 75
     1
175
     1
 42
1.0
 92
       12
 66
     7
 43
1.0
 76
     1
 77
     6
 78
     2
 67
     7
 79
     5
170
     0
171
     0
290
     0
174
     0
 93
        1
 44
0.0
173
     0
291
     1
 45
0.0
1001
ACAD
1000
AcDbSavedByObjectVersion
1070
     0
  0
VISUALSTYLE
  5
3150
102
{ACAD_XDICTIONARY
360
31A7
102
}
102
{ACAD_REACTORS
330
EF
102
}
330
EF
100
AcDbVisualStyle
  2
Wireframe
 70
     5
 71
     0
 72
     2
 73
     0
 90
        0
 40
-0.6
 41
-30.0
 62
     5
 63
     7
 74
     1
 91
        4
 64
     7
 65
   257
 75
     1
175
     1
 42
1.0
 92
        0
 66
   257
 43
1.0
 76
     1
 77
     6
 78
     2
 67
     7
 79
     3
170
     0
171
     0
290
     0
174
     0
 93
        1
 44
0.0
173
     0
291
     0
 45
0.0
1001
ACAD
1000
AcDbSavedByObjectVersion
1070
     0
  0
VISUALSTYLE
  5
3154
102
{ACAD_XDICTIONARY
360
31AF
102
}
102
{ACAD_REACTORS
330
EF
102
}
330
EF
100
AcDbVisualStyle
  2
X-Ray
 70
    25
 71
     2
 72
     2
 73
     1
 90
        1
 40
0.5
 41
-30.0
 62
     5
 63
     7
 74
     1
 91
        0
 64
     7
 65
   257
 75
     1
175
     1
 42
1.0
 92
        8
 66
     7
 43
1.0
 76
     1
 77
     6
 78
     2
 67
     7
 79
     3
170
     0
171
     0
290
     0
174
     0
 93
       13
 44
0.0
173
     0
291
     0
 45
0.0
1001
ACAD
1000
AcDbSavedByObjectVersion
1070
     0
  0
DICTIONARYVAR
  5
3174
102
{ACAD_REACTORS
330
5E
102
}
330
5E
100
DictionaryVariables
280
     0
  1
1:1
  0
DICTIONARYVAR
  5
3173
102
{ACAD_REACTORS
330
5E
102
}
330
5E
100
DictionaryVariables
280
     0
  1
STANDARD
  0
DICTIONARYVAR
  5
84
102
{ACAD_REACTORS
330
5E
102
}
330
5E
100
DictionaryVariables
280
     0
  1
STANDARD
  0
DICTIONARYVAR
  5
5F
102
{ACAD_REACTORS
330
5E
102
}
330
5E
100
DictionaryVariables
280
     0
  1
2
  0
DICTIONARYVAR
  5
63
102
{ACAD_REACTORS
330
5E
102
}
330
5E
100
DictionaryVariables
280
     0
  1
1
  0
DICTIONARYVAR
  5
70A
102
{ACAD_REACTORS
330
5E
102
}
330
5E
100
DictionaryVariables
280
     0
  1
0
  0
DICTIONARYVAR
  5
3177
102
{ACAD_REACTORS
330
5E
102
}
330
5E
100
DictionaryVariables
280
     0
  1
80.000000
  0
DICTIONARYVAR
  5
3176
102
{ACAD_REACTORS
330
5E
102
}
330
5E
100
DictionaryVariables
280
     0
  1
5.000000
  0
DICTIONARYVAR
  5
709
102
{ACAD_REACTORS
330
5E
102
}
330
5E
100
DictionaryVariables
280
     0
  1
127
  0
DICTIONARYVAR
  5
3175
102
{ACAD_REACTORS
330
5E
102
}
330
5E
100
DictionaryVariables
280
     0
  1
0
  0
DICTIONARY
  5
1785
330
D3
100
AcDbDictionary
280
     1
281
     1
  3
ACAD_XREC_ROUNDTRIP
360
3180
  3
ADSK_XREC_LAYOUTTHUMBNAIL
360
1786
  0
DICTIONARY
  5
317D
330
22
100
AcDbDictionary
280
     1
281
     1
  3
ACAD_XREC_ROUNDTRIP
360
317E
  0
DICTIONARY
  5
718
330
ED
100
AcDbDictionary
280
     1
281
     1
  3
ACAD_XREC_ROUNDTRIP
360
719
  0
DICTIONARY
  5
716
330
EC
100
AcDbDictionary
280
     1
281
     1
  3
ACAD_XREC_ROUNDTRIP
360
717
  0
DICTIONARY
  5
71A
330
EE
100
AcDbDictionary
280
     1
281
     1
  3
ACAD_XREC_ROUNDTRIP
360
71B
  0
DICTIONARY
  5
3179
330
7F
100
AcDbDictionary
280
     1
281
     1
  3
ACAD_ROUNDTRIP_2008_TABLESTYLE_CELLSTYLEMAP
360
317A
  3
ACAD_XREC_ROUNDTRIP
360
317F
  0
DICTIONARY
  5
318B
330
F5
100
AcDbDictionary
280
     1
281
     1
  3
ACAD_XREC_ROUNDTRIP
360
318C
  0
DICTIONARY
  5
318F
330
F7
100
AcDbDictionary
280
     1
281
     1
  3
ACAD_XREC_ROUNDTRIP
360
3190
  0
DICTIONARY
  5
318D
330
F6
100
AcDbDictionary
280
     1
281
     1
  3
ACAD_XREC_ROUNDTRIP
360
318E
  0
DICTIONARY
  5
3189
330
F4
100
AcDbDictionary
280
     1
281
     1
  3
ACAD_XREC_ROUNDTRIP
360
318A
  0
DICTIONARY
  5
3197
330
FB
100
AcDbDictionary
280
     1
281
     1
  3
ACAD_XREC_ROUNDTRIP
360
3198
  0
DICTIONARY
  5
319F
330
FF
100
AcDbDictionary
280
     1
281
     1
  3
ACAD_XREC_ROUNDTRIP
360
31A0
  0
DICTIONARY
  5
3191
330
F8
100
AcDbDictionary
280
     1
281
     1
  3
ACAD_XREC_ROUNDTRIP
360
3192
  0
DICTIONARY
  5
3195
330
FA
100
AcDbDictionary
280
     1
281
     1
  3
ACAD_XREC_ROUNDTRIP
360
3196
  0
DICTIONARY
  5
31B9
330
3159
100
AcDbDictionary
280
     1
281
     1
  3
ACAD_XREC_ROUNDTRIP
360
31BA
  0
DICTIONARY
  5
319D
330
FE
100
AcDbDictionary
280
     1
281
     1
  3
ACAD_XREC_ROUNDTRIP
360
319E
  0
DICTIONARY
  5
3181
330
F0
100
AcDbDictionary
280
     1
281
     1
  3
ACAD_XREC_ROUNDTRIP
360
3182
  0
DICTIONARY
  5
3183
330
F1
100
AcDbDictionary
280
     1
281
     1
  3
ACAD_XREC_ROUNDTRIP
360
3184
  0
DICTIONARY
  5
3185
330
F2
100
AcDbDictionary
280
     1
281
     1
  3
ACAD_XREC_ROUNDTRIP
360
3186
  0
DICTIONARY
  5
3187
330
F3
100
AcDbDictionary
280
     1
281
     1
  3
ACAD_XREC_ROUNDTRIP
360
3188
  0
DICTIONARY
  5
31A9
330
3151
100
AcDbDictionary
280
     1
281
     1
  3
ACAD_XREC_ROUNDTRIP
360
31AA
  0
DICTIONARY
  5
31B5
330
3157
100
AcDbDictionary
280
     1
281
     1
  3
ACAD_XREC_ROUNDTRIP
360
31B6
  0
DICTIONARY
  5
319B
330
FD
100
AcDbDictionary
280
     1
281
     1
  3
ACAD_XREC_ROUNDTRIP
360
319C
  0
DICTIONARY
  5
31B7
330
3158
100
AcDbDictionary
280
     1
281
     1
  3
ACAD_XREC_ROUNDTRIP
360
31B8
  0
DICTIONARY
  5
3193
330
F9
100
AcDbDictionary
280
     1
281
     1
  3
ACAD_XREC_ROUNDTRIP
360
3194
  0
DICTIONARY
  5
31B3
330
3156
100
AcDbDictionary
280
     1
281
     1
  3
ACAD_XREC_ROUNDTRIP
360
31B4
  0
DICTIONARY
  5
31B1
330
3155
100
AcDbDictionary
280
     1
281
     1
  3
ACAD_XREC_ROUNDTRIP
360
31B2
  0
DICTIONARY
  5
31AB
330
3152
100
AcDbDictionary
280
     1
281
     1
  3
ACAD_XREC_ROUNDTRIP
360
31AC
  0
DICTIONARY
  5
31AD
330
3153
100
AcDbDictionary
280
     1
281
     1
  3
ACAD_XREC_ROUNDTRIP
360
31AE
  0
DICTIONARY
  5
3199
330
FC
100
AcDbDictionary
280
     1
281
     1
  3
ACAD_XREC_ROUNDTRIP
360
319A
  0
DICTIONARY
  5
31A7
330
3150
100
AcDbDictionary
280
     1
281
     1
  3
ACAD_XREC_ROUNDTRIP
360
31A8
  0
DICTIONARY
  5
31AF
330
3154
100
AcDbDictionary
280
     1
281
     1
  3
ACAD_XREC_ROUNDTRIP
360
31B0
  0
XRECORD
  5
3180
102
{ACAD_REACTORS
330
1785
102
}
330
1785
100
AcDbXrecord
280
     1
102
SHADEPLOT
 70
     0
102
SHADEPLOTRESLEVEL
 70
     2
102
SHADEPLOTCUSTOMDPI
 70
   300
  0
XRECORD
  5
1786
102
{ACAD_REACTORS
330
1785
102
}
330
1785
100
AcDbXrecord
280
     1
310
28000000630000008C0000000100080000000000B036000000000000000000000001000000000000FFFFFF0000000000FFFFFF000000000000000000000000000000000000000000000000000000000000000000330000006600000099000000CC000000FF00000000330000333300006633000099330000CC330000FF3300
310
0000660000336600006666000099660000CC660000FF66000000990000339900006699000099990000CC990000FF99000000CC000033CC000066CC000099CC0000CCCC0000FFCC000000FF000033FF000066FF000099FF0000CCFF0000FFFF000000003300330033006600330099003300CC003300FF003300003333003333
310
33006633330099333300CC333300FF33330000663300336633006666330099663300CC663300FF66330000993300339933006699330099993300CC993300FF99330000CC330033CC330066CC330099CC3300CCCC3300FFCC330000FF330033FF330066FF330099FF3300CCFF3300FFFF330000006600330066006600660099
310
006600CC006600FF00660000336600333366006633660099336600CC336600FF33660000666600336666006666660099666600CC666600FF66660000996600339966006699660099996600CC996600FF99660000CC660033CC660066CC660099CC6600CCCC6600FFCC660000FF660033FF660066FF660099FF6600CCFF6600
310
FFFF660000009900330099006600990099009900CC009900FF00990000339900333399006633990099339900CC339900FF33990000669900336699006666990099669900CC669900FF66990000999900339999006699990099999900CC999900FF99990000CC990033CC990066CC990099CC9900CCCC9900FFCC990000FF99
310
0033FF990066FF990099FF9900CCFF9900FFFF99000000CC003300CC006600CC009900CC00CC00CC00FF00CC000033CC003333CC006633CC009933CC00CC33CC00FF33CC000066CC003366CC006666CC009966CC00CC66CC00FF66CC000099CC003399CC006699CC009999CC00CC99CC00FF99CC0000CCCC0033CCCC0066CC
310
CC0099CCCC00CCCCCC00FFCCCC0000FFCC0033FFCC0066FFCC0099FFCC00CCFFCC00FFFFCC000000FF003300FF006600FF009900FF00CC00FF00FF00FF000033FF003333FF006633FF009933FF00CC33FF00FF33FF000066FF003366FF006666FF009966FF00CC66FF00FF66FF000099FF003399FF006699FF009999FF00CC
310
99FF00FF99FF0000CCFF0033CCFF0066CCFF0099CCFF00CCCCFF00FFCCFF0000FFFF0033FFFF0066FFFF0099FFFF00CCFFFF00FFFFFF00000000000D0D0D001A1A1A00282828003535350043434300505050005D5D5D006B6B6B00787878008686860093939300A1A1A100AEAEAE00BBBBBB00C9C9C900D6D6D600E4E4E400
310
F1F1F100FFFFFF0000000000000000000000000000000000000000000000000000000000000000000000000000000000E2E2E2E2E2E2E2E2E2E2E2E2E2E2E2E2E2E2E2E2E2E2E2E2E2E2E2E2E2E2E2E2E2E2E2E2E2E2E2E2E2E2E2E2E2E2E2E2E2E2E2E2E2E2E2E2E2E2E2E2E2E2E2E2E2E2E2E2E2E2E2E2E2E2E2E2E2E2E2
310
E2E2E2E2E2E2E2E2E2E2E2E2E2E2E2E2E2E2E2E200E2E2E2E2E2E2E2E2E2E2E2E2E2E2E2E2E2E2E2E2E2E2E2E2E2E2E2E2E2E2E2E2E2E2E2E2E2E2E2E2E2E2E2E2E2E2E2E2E2E2E2E2E2E2E2E2E2E2E2E2E2E2E2E2E2E2E2E2E2E2E2E2E2E2E2E2E2E2E2E2E2E2E2E2E2E2E2E2E2E2E2E2E2E2E2E2E2E2E200E2E2E2E2E2E2
310
E2E2E2F5F5F5F5F5F5F5F5F5E2E2E2E2E2E2E2E2E2E2E2E2E2E2E2F5F5F5F5F5F5F5F5F5E2E2E2E2E2E2E2E2E2E2E2E2E2E2E2F5F5F5F5F5F5F5F5F5E2E2E2E2E2E2E2E2E2E2E2E2E2E2E2F5F5F5F5F5F5F5F5F5E2E2E2E2E2E2E2E2E200E2E2F5F5F5F5F5F5F5F5F5F5F5F5F5F5F5F5F5F5F5F5F5F5F5F5F5F5F5F5F5F5F5
310
F5F5F5F5F5F5F5F5F5F5F5F5F5F5F5F5F5F5F5F5F5F5F5F5F5F5F5F5F5F5F5F5F5F5F5F5F5F5F5F5F5F5F5F5F5F5F5F5F5F5F5F5F5F5F5F5F5F5F5F5F5F5F5F5E2E200E2E2F5E2E2E2E2E2E2E2E2E2E2E2E2E2E2E2E2E2E2E2E2E2E2E2E2E2E2E2E2E2E2E2E2E2E2E2E2E2E2E2E2E2E2E2E2E2E2E2E2E2E2E2E2E2E2E2E2E2
310
E2E2E2E2E2E2E2E2E2E2E2E2E2E2E2E2E2E2E2E2E2E2E2E2E2E2E2E2E2E2E2E2E2E2E2E2F5E2E200E2E2F5E2E2E2E2E2E2E2E2E2E2E2E2E2E2E2E2E2E2E2E2E2E2E2E2E2E2E2E2E2E2E2E2E2E2E2E2E2E2E2E2E2E2E2E2F5F5F5F5F5F5F5F5F5F5F5F5F5F5F5F5F5F5F5F5F5F5F5F5F5F5E2E2E2E2E2E2E2E2E2E2E2E2E2E2
310
E2E2E2E2E2E2E2F5E2F5E2E200E2E2F5E2F5F5F5F5F5F5F5F5F5F5F5F5F5F5F5F5F5F5F5F5F5F5F5F5F5F5F5F5F5F5F5F5F5F5F5F5F5F5F5F5F5F5F5F5F5F5F5F5F5F5F5F5F5F5F5F5F5F5F5F5F5F5F5F5F5F5F5F5F5E2E2E2E2E2E2E2E2E2E2E2E2E2E2E2E2E2E2E2E2E2F5E2F5E2E200E2E2F5E2E2E2E2E2E2E2E2E2E2E2
310
E2E2E2F5F5F5F5F5F5F5F5F5F5F5F5F5F5F5F5F5F5F5F5F5F5F5F5F5F5F5F5F5F5F5F5F5F5F5F5F5F5F5F5F5F5F5F5F5F5F5F5F5F5F5F5F5F5F5F5E2E2E2E2E2E2E2E2E2E2E2E2E2E2E2E2E2E2E2E2E2F5E2F5E2E200E2E2F5E2E2E2E2E2E2E2E2E2E2E2E2E2E2E2E2E2E2E2E2E2E2E2E2E2E2F5F5F5F5F5F5F5F5F5F5F5F5
310
F5F5F5F5F5F5F5F5F5F5F5F5F5F5F5F5F5F5F5F5F5F5F5F5F5F5F5F5F5F5F5F5F5F5F5F5F5F5F5F5F5F5F5F5F5F5F5F5F5F5F5F5F5F5E2F5E2E200E2E2F5E2E2E2E2E2E2E2E2E2E2E2E2E2E2E2E2E2E2E2E2E2E2E2E2E2E2F5F5F5F5F5F5F5F5F5F5F5F5F5F5F5F5F5F5F5F5F5F5F5F5F5F5F5F5F5F5F5F5F5F5F5F5F5F5F5
310
F5F5F5F5F5F5F5F5F5F5F5F5F5F5F5F5F5F5F5F5F5F5F5F5F5F5F5E2F5E2E200E2E2F5E2F5F5F5F5F5F5F5F5F5F5F5F5F5F5F5F5F5F5F5F5F5F5F5F5F5F5F5F5F5F5F5F5F5F5F5F5F5F5F5F5F5F5F5F5F5F5F5F5F5F5F5F5F5F5F5F5F5F5F5F5F5F5F5F5F5F5F5F5F5F5F5F5F5F5F5F5F5F5F5F5E2E2E2E2E2E2E2E2E2E2E2
310
E2F5E2E200E2F5F5E2F5F5F5F5F5F5F5F5F5F5F5F5F5F5F5F5F5F5F5F5F5F5F5F5F5F5F5F5F5F5F5F5F5F5F5F5F5F5F5F5F5F5F5F5F5F5F5F5F5F5F5F5F5F5F5F5F5F5F5F5F5F5F5F5F5F5F5F5F5F5F5F5F5F5F5F5F5F5F5F5E5E2E2E2E2E2E2E2E5E2E2E2F5F5E200E2F5F5E2F5F5F5F5F5F5F5F5F5F5F5F5F5F5F5F5F5F5
310
F5F5F5F5F5F5F5F5F5F5F5F5F5F5F5F5F5F5F5F5F5F5F5F5F5F5F5F5F5F5F5F5F5F5F5F5F5F5F5F5F5F5F5F5F5F5F5F5F5F5F5F5F5F5F5F5F5F5F5F5F5F5E2E2E2E2F5F5E5E5E5E2E2E2F5F5E200E2F5F5E2F5F5F5F5F5F5F5F5F5F5F5F5F5F5F5F5F5F5F5F5F5F5F5F5F5F5F5F5F5F5F5F5F5F5F5F5F5F5F5F5F5F5F5F5F5
310
F5F5F5F5F5F5F5F5F5F5F5F5F5F5F5F5F5F5F5F5F5F5F5F5F5F5F5F5F5F5F5F5F5F5F5E2E5F5F5E5E5F5F5E5E2E2E2F5F5E200E2F5F5E2F5F5F5F5F5F5F5F5F5F5F5F5F5F5F5F5F5F5F5F5F5F5F5F5F5F5F5F5F5F5F5F5F5F5F5F5F5F5F5F5F5F5F5F5F5F5F5F5F5F5F5F5F5F5F5F5F5F5F5F5F5F5F5F5F5F5F5F5F5F5F5F5
310
F5F5F5F5F5F5F5F5E2E2E5E5F5F5F5E5E2E2E2E2F5F5E200E2F5F5E2F5F5F5F5F5F5F5F5F5F5F5F5F5F5F5F5F5F5F5F5F5F5F5F5F5F5F5F5F5F5F5F5F5F5F5F5F5F5F5F5F5F5F5F5F5F5F5F5F5F5F5F5F5F5F5F5F5F5F5F5F5F5F5F5F5F5F5F5F5F5F5F5F5F5F5F5F5F5F5F5E5E5E5F5F5F5F5E5E2E2E2E2F5F5E200E2F5F5
310
E2F5F5F5F5F5F5F5F5F5F5F5F5F5F5F5F5F5F5F5F5F5F5F5F5F5F5F5F5F5F5F5F5F5F5F5F5F5F5F5F5F5F5F5F5F5F5F5F5F5F5F5F5F5F5F5F5F5F5F5F5F5F5F5F5F5F5F5F5F5F5F5F5F5F5F5F5F5F5F5F5E2E2E5E5F5F5E5F5E2E2E2E5F5F5E200E2F5F5E2F5F5F5F5F5F5F5F5F5F5F5F5F5F5F5F5F5F5F5F5F5F5F5F5F5F5
310
F5F5F5F5F5F5F5F5F5F5F5F5F5F5F5F5F5F5F5F5F5F5F5F5F5F5F5F5F5F5F5F5F5F5F5F5F5F5F5F5F5F5F5F5F5F5F5F5F5F5F5F5F5F5E2E2F5E5E5E5F5F5E2E2E2E5F5F5E200E2F5F5E2F5F5F5F5F5F5F5F5F5F5F5F5F5F5F5F5F5F5F5F5F5F5F5F5F5F5F5F5F5F5F5F5F5F5F5F5F5F5F5F5F5F5F5F5F5F5F5F5F5F5F5F5F5
310
F5F5F5F5F5F5F5F5F5F5F5F5F5F5F5F5F5F5F5F5F5F5F5F5F5F5F5E2E2E2E2E5E5E5E5E2E2E2E2F5F5E200E2F5F5E2F5F5F5F5F5F5F5F5F5F5F5F5F5F5F5F5F5F5F5F5F5F5F5F5F5F5F5F5F5F5F5F5F5F5F5F5F5F5F5F5F5F5F5F5F5F5F5F5F5F5F5F5F5F5F5F5F5F5F5F5F5F5F5F5F5F5F5F5F5F5F5F5F5F5F5F5F5F5F5F5
310
E2E2E2E2E5E2E2E2E5E2E2E2F5F5E200E2F5F5E2F5F5F5F5F5F5F5F5F5F5F5F5F5F5F5F5F5F5F5F5F5F5F5F5F5F5F5F5F5F5F5F5F5F5F5F5F5F5F5F5F5F5F5F5F5F5F5F5F5F5F5F5F5F5F5F5F5F5F5F5F5F5F5F5F5F5F5F5F5F5F5F5F5F5F5F5F5F5F5F5E2E2E2E2E2E2E2E2E2E2E2E2F5F5E200E2E2F5E2F5F5F5F5F5F5F5
310
F5F5F5F5F5F5F5F5F5F5F5F5F5F5F5F5F5F5F5F5F5F5F5F5F5F5F5F5F5F5F5F5F5F5F5F5F5F5F5F5F5F5F5F5F5F5F5F5F5F5F5F5F5F5F5F5F5F5F5F5F5F5F5F5F5F5F5F5F5F5F5F5F5F5F5F5F5F5F5E5E5F5F5F5E2F5E2E200E2E2F5E2F5F5F5F5F5F5F5F5F5F5F5F5F5F5F5F5F5F5F5F5F5F5F5F5F5F5F5F5F5F5F5F5F5F5
310
F5F5F5F5F5F5F5F5F5F5F5F5F5F5F5F5F5F5F5F5F5F5F5F5F5F5F5F5F5F5F5F5F5F5F5F5F5F5F5F5F5F5F5F5F5F5F5F5F5F5F5F5F5E2F5F5F5E2F5E2E200E2E2F5E2F5F5F5F5F5F5F5F5F5F5F5F5F5F5F5F5F5F5F5F5F5F5F5F5F5F5F5F5F5F5F5F5F5F5F5F5F5F5F5F5F5F5F5F5F5F5F5F5F5F5F5F5F5F5F5F5F5F5F5F5F5
310
F5F5F5F5F5F5F5F5F5F5F5F5F5F5F5F5F5F5F5F5F5F5F5F5F5F5F5F5F5F5E2F5E2E200E2E2F5E2F5F5F5F5F5F5F5F5F5F5F5F5F5F5F5F5F5F5F5F5F5F5F5F5F5F5F5F5F5F5F5F5F5F5F5F5F5F5F5F5F5F5F5F5F5F5F5F5F5F5F5F5F5F5F5F5F5F5F5F5F5F5F5F5F5F5F5F5F5F5F5F5F5F5F5F5F5F5F5F5F5F5F5F5F5F5F5F5
310
F5F5F5E2F5E2E200E2E2F5E2F5F5F5F5F5F5F5F5F5F5F5F5F5F5F5F5F5F5F5F5F5F5F5F5F5F5F5F5F5F5F5F5F5F5F5F5F5F5F5F5F5F5F5F5F5F5F5F5F5F5F5F5F5F5F5F5F5F5F5F5F5F5F5F5F5F5F5F5F5F5F5F5F5F5F5F5F5F5F5F5F5F5F5F5F5F5F5F5F5F5F5E2F5E2E200E2E2F5E2F5F5F5F5F5F5F5F5F5F5F5F5F5F5F5
310
F5F5F5F5F5F5F5F5F5F5F5F5F5F5F5F5F5F5F5F5F5F5F5F5F5F5F5F5F5F5F5F5F5F5F5F5F5F5F5F5F5F5F5F5F5F5F5F5F5F5F5F5F5F5F5F5F5F5F5F5F5F5F5F5F5F5F5F5F5F5F5F5F5F5F5F5E2F5E2E200E2E2F5E2F5F5F5F5F5F5F5F5F5F5F5F5F5F5F5F5F5F5F5F5F5F5F5F5F5F5F5F5F5F5F5F5F5F5F5F5F5F5F5F5F5F5
310
F5F5F5F5F5F5F5F5F5F5F5F5F5F5F5F5F5F5F5F5F5F5F5F5F5F5F5F5F5F5F5F5F5F5F5F5F5F5F5F5F5F5F5F5F5F5F5F5F5E2F5E2E200E2E2F5E2F5F5F5F5F5F5F5F5F5F5F5F5F5F5F5F5F5F5F5F5F5F5F5F5F5F5F5F5F5F5F5F5F5F5F5F5F5F5F5F5F5F5F5F5F5F5F5F5F5F5F5F5F5F5F5F5F5F5F5F5F5F5F5F5F5F5F5F5F5
310
F5F5F5F5F5F5F5F5F5F5F5F5F5F5F5F5F5F5F5F5F5F5E2F5E2E200E2E2F5E2F5F5F5F5F5F5E2E2E2E2E2E2F5F5F5F5F5F5F5F5F5F5F5F5F5F5F5F5F5F5F5F5F5F5F5F5F5F5F5F5F5F5F5F5F5F5F5F5F5F5F5F5F5F5F5F5F5F5F5F5F5F5F5F5F5F5F5F5F5F5F5F5F5F5F5F5F5F5F5F5F5F5F5F5F5F5F5F5F5F5F5E2F5E2E200
310
E2E2F5E2F5F5F5F5E2E2F5F5F5F5F5F5E21BF5F5F5F5F5F5F5F5F5F5F5F5F5F5F5F5F5F5F5F5F5F5F5F5F5F5F5F51B1BF5F5F51B1B1BF5F5F51B1B1BF5F5F5F5F5F5F5F5F5F5F5F5F5F5F5F5F5F5F5F5F5F5F5F5F5F5F5F5F5F5F5F5F5F5F5E2F5E2E200E2E2F5E2F5F5F5E2F5F5F5F5F5F5F5F5F51B1BF5F5F5F5F5F5F5F5
310
F5F5F5F5F5F5F5F5F5F5F5F5F5F5F5F5F5F5F51B1BF5F51B1B1B1B1B1BF51B1B1BF5F5F5F5F5F5F5F5F5F5F5F5F5F5F5F5F5F5F5F5F5F5F5F5E2E2E2E2F5F5F5F5F5F5F5E2F5E2E200E2E2F5E2F5F5E2F5F5F5F5F5F5F5F5F5F51B1B1BF5F5F5F5F5F5F5F5F5F5F5F5F5F5F5F5F5F5F5F5F5F5F5F5F5BE1B1BF5F51B1B1B1B
310
1BF5F51B1B1BF5F5F5F5F5F5F5F5F5F5F5F5F5F5F5F5F5F5F5F5F5F5E2E2F5F5F5F5E2E2F5F5F5F5F5E2F5E2E200E2E2F5E2F5F5E2F5F5F5F5F5F5F5BEBEBE1B1B1BE2F5F5F5F5F5F5F5F5F5F5F5BEF5F5F5F5F5F5F5F5F5F5BEBEBE1B1BF5F51B1B1B1B1BF5F51B1B1BBEBEBEF5F5F5F5F5F5F5F5BEBEF5F5F5F5F5F5F5BE
310
E2BEF5F5F5F5F5F5F5E2E2F5F5F5E2F5E2E200E2E2F5E2F5E2F5F5F5F5F5F5F53A3A3ABE1B1B1BE5F5F5F5F5F5F5F5F5F5F5BEBEBEBEBEF5F5F5F53A3ABEBEBEBE1BE5E5E5E5E51BE5E5E5E5E51B1BBE3A3A3A3AF5F5F5F5BEBEBEBEBEBEF5F5F5F51BE2BEBEBE3AF5F5F5F5F5F5E2E2F5F5E2F5E2E200E2E2F5E2F5E2F5F5
310
F5F53A3A3AF5F53A3A1B1B1BE5F5F5F5F5F5F5F5F5F5F5F5BEF5F5F5F5F5F53A3AF5ECF5BEBE1BE5E5E5E5E51BE5E5E5E5E51B1B3A3A3AF53A3A3A3AF5BEF5F5BEBEF5F5F5F5F51BBEBEF53A3A3A3A3AF5F5F5F5E2E2F5E2F5E2E200E2E2F5E2F5E2F5F5F53A3A3AF5F53A3AF51B1B1BE5E5F5F5F5F5F5F5F5F5F5F5BEF5F5
310
F53A3A3A3A3A3AEC3A3A3A1BE5E5E5E5E51BE5E5E5E5E51B1BF53AF53A3A3A3A3A3A3AF5F5F5F5F5F5F5F5E21B3A3A3AF53A3A3A3AF5F5F5F5F5E2F5E2F5E2E200E2E2F5E2F5E2F5F53A3A3AF5F53A3AF5F51B1B1BE5E5F5F5F5F5F5F5F5F5BEBEBEF5F5F53ABEBE3AF5F5EC3AE23A1BE5E5E5E5E51BE5E5E5E5E51B1B3AF5
310
3A3A3A3A3A3A3A3A3A3AF5F5F5F5F5F51B1B3A3A3A3AF53A3A3A3A3A3AF5F5E2F5E2F5E2E200E2F5F5E2F5E2F53A3AF5F5F53A3AF5F53A1B1B1BE5F5F5F5F5F5F5F5F5F5BEBEBEF5F5F53A3A3AF5F53AECE2F53A1BE5E5E5E5E51BE5E5E5E5E51B1BF53AF53ABEBEBEBEBE3A3A3A3AF5F5F5F5F51B1B3A3A3A3A3AF53A3A3A
310
3A3AF5F5E2E2E2F5F5E200E2F5F5E2F5E2F53AF5F53A3A3AF5F53A3A1B1B1BE5F5F5F5F5F5F5F5F5F5F5F5BEF5F5F53A3AF5F53A3AECE23A3A1BE5E5E5E5E51BE5E5E5E5E51B1B3AF53AF5BEBEBEBEBE3A3A3A3AF5F5F5F5F51B1B3A3A3A3A3A3A3A3A3A3A3AF5F5F5E2E2F5F5E200E2F5F5E2F5E2F53AF53AF53AF5F53A3A
310
F51B1B1BE5F5F5F5F5F5F5F5F5F5F5F5BEF5F5F53AF5F53A3AF5EC3AF53A1B1BE5E5E51B1B1BE5E5E51B1B3AF53AF53AF53AF53AF53A3A3A3AF5F5F5F5F51B1B3A3A3A3A3A3A3A3A3A3A3AF5F5F5E2E2F5F5E200E2F5F5E2F5F5E23A3AF53AF53A3A3AF5F528F528E2F5F5F5F5F5F5F5F5F5F5F5BEF5F5BE3AF53A3AF5F5EC
310
E23ABE28F5F528282828282828F5F5283A3A3A3AF53AF53AF53A3A3A3A3AF5F5F5F5F5E2283AF53A3A3A3A3A3A3A3A3AF5F5E2F5E2F5F5E200E2F5F5E2F5F5E23AF53AF53AF53AF5F53A282828F5F5F5F5F5F5F5F5F5F5F5BEBEBEBEF5BEBEBEBEBEBEBEBEBEBE282828282828282828282828283A3A3A3A3A3A3A3A3A3A3A
310
3A3A3AF5F5F5F5F528283A3A3A3A3A3A3A3A3A3A3AF5F5E2F5E2F5F5E200E2F5F5E2F5F5F53AE2F53AF53AF5F53A3AE23AF5F5F5F5F5F5F5F5F5F5F5F5F5F5F5F5F53A3AF5F5BEBE3AE23A3A3A3A3A3A3A3A3AF53AF5F53A3AF5F53AEC3A3A3AF53AF53A3A3A3AF5F5F5F5F5F5E2F5F53AF53A3AF53A3A3A3AF5E2E2F5E2F5
310
F5E200E2F5F5E2F5F5F5F5F5E2E23AF5F53AE2E2F5F5F5F5F5F5F5F5F5F5F5F5F5F5F5F5F5F5F53AF5F53AF53AEC3AF53AE23AF53AF53AF53A3A3A3A3AF5F53AF5ECF53AF53A3A3A3A3A3A3A3AF5F5F5F5F5E2F53A3A3AF53A3A3AF53A3A3AE2F5F5E2F5F5E200E2F5F5E2F5F5F5F5F5F5E2E2E2E2E2E23AF5F5F5F5F5F5F5
310
F5F5F5F5F5F5F5F5F5F5F5F53AF53AF53AF5ECE23A3A3AF53A3A3AEC3AF53AF53AF5F53AF53AEC3A3A3AF53AF53AF53AF53AF5F5F5F5F5F5E2E2F5F53AF53AF5F53A3AE2F5F5F5E2F5F5E200E2F5F5E2F5F5F5F5E2E2F5F5F5F5F53AE23AE2F5F5F5F5F5F5F5F5F5F5F5F5F5F5F5F5F53A3A3A3AF53AEC3AF53AEC3AF5F53A
310
3AF53A3A3AF5F53AF53AF5ECF53AF53AF53AF53A3A3A3AF5F5F5F5F5F5F5E2E2E2F53AF53A3AE2E2F5F5F5F5E2F5F5E200E2F5F5E2F5F5E2E2F5F5F5F50F0F0F3A3AF53AE2F5F5F5F5F5F5F5F5F5F5F5F5F5F5F5F53A3AF5F53AF5ECE23A3A3AF53AF5F53A3AF53AF5F53AF53AF53AEC3A3A3AF53AF53AF5F53A3AF5F5F5F5
310
F5F5F5F5F5E2E2E2E2E2E2F5F5F5F5F5F5E2F5F5E200E2E2F5E2F5F5E2F5F5F50F0F0F0F0F3AF53AF53AF5F5F5F5F5F5F5F5BEF5F5F5F5F5F5BEBEF5F53A3A3AEC3AF53AEC3AF53AF5BEBEBE3ABEBEBE3AF53AF5ECF53AF53AF53A3A3AF5F53AF5F5F5F5F5F5F5F5E2E2E2E2E2E2E2E2F5F5F5F5F5E2F5E2E200E2E2F5E2F5
310
E2E2F5F50F0F0FF5F50F3A3AF53AF53AF5F5F5F5F5F5F5BEBEBEBEBEBEBEBEBEF53A3AF5F5ECE23A3AECF53AF53AECBEBE3ABEBEBEF53AF53AECF53A3AF53AF5F53A3AF53AF5F5F5F5F5F5F5F5E2E2E2E2E2E2E2E2F5F5F5F5F5E2F5E2E200E2E2F5E2F5E2F5F50F0F0FF50FF50F3A3A3AF53A3AF5F5F5F5F5F5BEBEF5F5BE
310
BEBEF5F5BE3A3AF5F53AEC3AF53A3AF5F53AF53ABEBE3ABEBEBE3AF53AF5EC3A3AF53AF53AF5F53A3A3AF5F5F5F5F5E2E2E2E2E2E2E2E2E2E2E2E2E2E2E2F5E2F5E2E200E2E2F5E2F5E2F50F0F0FF50FF50FF53AF5F5F53A3AF5F5F5F5F5BEBEBEF5F5F5F50F0F0F0F3AF5F53AF5ECE2F53A3A3AF5F53AEC3AF53AF5F53A3A
310
3AF5F5EC3A3A3AF53AF53AF5F53A3AF5F5F5F5F5E2E2E2E2E2E2E2E2E2E2E2E2E2E2F5F5E2F5E2E200E2E2F5E2F5E2F50FF5F50FF50FF50F0F3A3A3A3AE2E2F5F5F5BEBEF5F5F50F0F0F0FECF50FF5F53AF53AECE23A3A3A3AC3F5F53AF53A3AF53A3AF5F5F53AECF53AF53AF53AF53AF5F53AF5F5F5F5F5F5E2E2E2E2E2E2
310
E2E2E2E2E2E2F5F5F5E2F5E2E200E2E2F5E2F5E2F50F0FF5F50FF50FF50FF5F5F5F5E2F5F5F5F5BEBEBE0F0F0F0FF50FEC0F0FF53AF53AF5EC3A3A3AC3C3C33AF5EC3A3A3A3A3AF5F53A3A3AECF53A3AF53AF53AF53AF53AF5F5F5F5F5F5E2E2E2E2E2F5F5F5E2E2E2E2F5F5F5E2F5E2E200E2E2F5E2F5E2F50FF50FF5F50F
310
F50F0F0F0F0F0F0FF5F5F5F5F5BEBE0FF50FF50FF5ECF50F3AF53AF5F5EC3AF53AC3C3C33A3AECF53A3A3AF5F53AF53AF5F53A3AF53AF53AF53AF53A3AF5F5F5F5F5F5F5F5F5F5F5F5F5F5F5F5F5F5F5F5F5E2F5E2E200E2E2F5E2F5E2F50F0FF50FF5F50FF50FF50F0F0F0FF5F5F5F5F5BEF50FF5F50FF50FEC0F0FF53AF5
310
F53ABEE2F53A3AC3C3F53A3AF5F53AF5F53AF53AF5F5EC3A3AF5F53AF53AF53AF53AF5F5F5F5F5F5F5F5F5F5F5F5F5F5F5F5F5F5F5F5F5E2F5E2E200E2E2F5E2F5F5E20FF50FF50F0FF50FF50FF50F0FE2F5F5F5F5F5F5F50F0FF5F50FF5ECF50F3A3A3A3ABE3A3A3AC3C3C3C3F5F53A3AF53AF53A3A3A3A3A3A3AF53A3AF5
310
F53AF53AF53A3AF5F5F5F5F5F5F5F5F5F5F5F5F5F5F5F5F5F5F5F5F5E2F5E2E200E2E2F5E2F5F5E20F0FF50F0FF50FF50FF50F0F0FF5F5F5F5F5F5F5F50F0F0FF5F50FECF50FF5F5F5BEBEBEF5F5F5C3C3C33AF5EC3A3A3A3A3AF5F5BEF5F53AF53A3A3AF5F53AF53AF53AF5F5F5F5F5F5F5F5F5F5F5F5F5F5F5F5F5F5F5F5
310
F5E2F5E2E200E2E2F5E2F5F5F5E2F50F0FF50FF50FF50FF50FF5F5F5F5F5F5F5F5F50FF50F0FF5F5EC0F0F0F0F0F0FBE0F0F0F0FC3C3C3F53AECF53A3AF53AF5BEF5F5F53A3A3AF53A3AF5F53AF53A3AF5F5F5F5F5F5F5F5F5F5F5F5F5F5F5F5F5F5F5F5F5E2F5E2E200E2E2F5E2F5F5F5E2E2E2F50FF50FF50FE2E20FF5F5
310
F5F5F5F5F5F5F50FF5F50F0FF5F50F0F0FEC0FF5F50FECF50FC3C3C33AF53A3AF53A3A3ABEBEF5F5F53A3ABEBE3AF53AF5F53ABE3AF5F5F5F5F5F5F5F53AE23AE2E23A3A3AF5F5F5F5F5E2F5E2E200E2E2F5E2F5F5F5F5F5E2E2E2E2E2E2E2E2F5F5F5F5F5F5F5F5F5F5F50F0FF5F50F0FECF50F0FECF5F50F0FEC0FF5C3C3
310
C3F53A3AF53A3A3A3ABEBEF5F5F53AF53ABEBEBEBEBEBEBEBEBEF5F5F5F5F5F5F53AE23AF5F53A3AF53AE2E2F5F5F5E2F5E2E200E2E2F5E2F5F5F5F5F5F5F5F5F5F5F5F5F5F5F5F5F5F5F5F5F5F5F5F50FF50FF5F50FECF5F50FEC0F0F0FF5ECF50FC3C3C33A3A3A3A3A3A3AF5F5BEBEF5F53A3A3ABE3ABEBEBEBEF5F53AF5
310
F5F5F5F5F53A3A3AF5F53A3AF5F53AF5E2F5F5F5E2F5E2E200E2E2F5E2F5F5E2E2E2E2E2E2E2F5E2E2E2E2E2E2E2F5F5F5F5F5F5F50F0FF50FF5F5EC0FF50FEC0FF5F50FEC0FF50FF5F5F5F5F5F5F5F5F5F5F5BEF5F5F5F5F5F53A3A3A3A3AF53A3A3AF5F5F5F5F5E2F53AF5F53A3AF5F53A3AF5F5E2F5F5E2F5E2E200E2E2
310
F5E2F5F5E2E2E2E2E2E2E2F5E2E2E2E2E2E2E2F5F5F5F5F5F5F50FF50FF50FF5EC0F0F0FECF5F50FF5ECF5F50FF5F5F5F5F5F5F5F5F5F5BEBEF5F5F5F5F5F53A3AC3C3F53AF5F53AF5F5F5F5E2E2F53AF53A3AF5F53AF53AF5F5F5E2F5E2F5E2E200E2E2F5E2F5F5F5F5F5F5F5F5F5F5F5F5F5F5F5F5F5F5F5F5F5F5F5F50F
310
0FF50FF50FECF50F0FECF50FF50FECF50F0FF5F5F5F5F5F5F5F5F5F5BEBEF5F5F5F5F5F53AC3C3C33AF53A3A3AF5F5F5F5E2F5F53A3A3AF5F53A3A3A3AF5F5F5E2F5E2F5E2E200E2F5F5E2F5F5F5F5F5F5F5F5F5F5F5F5F5F5F5F5F5F5F5F5F5F5F5F50FF50FF50F0FECF5F50FEC0FF50FF5EC0F0F0FF5F5F5F5F5F5F5F5F5
310
F5BEBEF5F5F5F5F5F5C3C3C3C33A3AF5F53AF5F5F5F5E2F5F53A3AF5F53ABEF5BE3AF5F5F5E2F5E2F5F5E200E2F5F5E2F5F5F5F5F5F5E2E2E2E2E2E2F5F5F5F5F5F5F5F5F5F5F5F50F0FF50FF5F5EC0FF50FECF50FF5F5EC0FF50FF5F5F5F5F5F5F5F5F5F5F5BEBEF5F5F5F5F5F5C3C3C3F53A3AF53AF5F5BEF5E2F5F53AF5
310
F53A3ABEBEBE3AF5F5F5F5E2E2F5F5E200E2F5F5E2F5F5F5F5E2E2F5F5F5F5F5F5E21BF5F5F5F5F5F5F5F5F5F50FF50FF50FF5EC0F0F0FEC0FF50F0FECF5F50F0F0F0F0F0F0F0F0F0F0F0FBE0F0F0F0F0F0FC3C3C3C3F53AF53A3AF5BEBEF50F0F0F3AF53A3AF5BEBEBE3AF5F5F5F5E2E2F5F5E200E2F5F5E2F5F5F5E2F5F5
310
F5F5F5F5F5F5F51B1BF5F5F5F5F5F5F5F5F50F0FF50FF50FECF50F0FECF50FF50FECF50FF50F0FF50FF50FF5ECF50F0F0F0FF5F50F0FF5C3C3C3C33AF53AF53ABEBEBEF5E20F0F3A3AF53AF5BEBEBE3AF5F5F5E2F5E2F5F5E200E2F5F5E2F5F5E2F5F5F5F5F5F5F5F5F5F51B1B1BF5F5F5F5F5F5F5F50FF50FF50FF5ECF5F5
310
0FEC0FF50FF5EC0FF50F0FF50FF50FF50FEC0F0FF50FF5F50F0FF5F5C3C3C3C33ABEF53A3AF5F5BEF5E2F50F3AF53AF53ABEBE3AF5F5F5F5E2F5E2F5F5E200E2F5F5E2F5F5E2F5F5F5F5F5F5F5BEBEBE1B1B1BE2F5F5F5F5F5F5F50F0FF50FF50FEC0FF50FECF50FF5F5ECF50FF50F0FF50FF50FF5EC0F0F0FF5F50F0FF5F5
310
0F0FF5F53ABEBE3AF5F5F5BEBEF5F50FF53A3A3A3A3A3A3AF5F5F5F5F5E2F5E2F5F5E200E2F5F5E2F5E2F5F5F5F5F5F5F53A3A3ABE1B1B1BE5F5F5F5F5F5F5F50FF50FF50FF5ECF50F0FEC0FF50F0FEC0FF50F0F0F0FF50F0F0FECF50FF5F50F0FF5F50F0F0FF5F5F5F5BEF5F5F5F5F5F5F5F5E20F0FF5F5F5F5F5F5F5F5F5
310
F5E2F5F5E2F5F5E200E2F5F5E2F5E2F5F5F5F53A3A3A3AF53A3A1B1B1BE5F5F5F5F5F5F5F50FF5F50FF50FEC0FF50FECF50FF5F5ECF50FF50F0FF50FF5F50FECF50FF50F0FF5F50F0FF50FF5F5F5F5BEF5F5F5F5F5F5F5F5F5E20FF5F5F5F5F5F5F5F5F5E2F5F5F5E2F5F5E200E2F5F5E2F5E2F5F5F53ABEBEBEF5F53A3A1B
310
1B1BE5F5F5F5F5F5F5F50F0FF5F50FF50FF50F0FEC0FF50F0FEC0FF5BE0FF50FF50FF5F5EC0F0F0F0FF5F50F0FF5F50FF5F5F5F5BEF5F5F5F5F5F5F5F5F5F50FE2F5F5F5F5F5F5E2E2E2F5F5F5E2F5F5E200E2F5F5E2F5E2F5F53A3ABEBEBEF53AF53A1B1B1BE5E5F5F5F5F5F5F50F0F0FF5F50FEC0FF50F0FF50FF5F50FBE
310
BEBE0FBEBE0FF50FF5F50F0F0FF5F50F0FF5F50F0FF5F5F5F5BEF5F5F5F5F5F5F5F5F5F5F5F5E2E2E2E2E2E2E2F5F5F5F5F5E2F5F5E200E2E2F5E2F5E2F5F53A3A3AF5F53AF53AF51B1B1BE5F5F5F5F5F5F5F50FF50F0FF5F5ECF50F0FEC0FF5F50FECBEBEBE0FBEBEF50FF50FECF50FF5F50F0FF5F50FF50FF5F5F5F5BEF5
310
F5F5F5F5F5F5E2E2E2E2E2E2E2E2E2E2E2E2E2E2E2E2F5E2F5E2E200E2E2F5E2F5E2F53A3A3AF5F53AF53AF53A1B1B1BE5F5F5F5F5F5F5F50FF5F50F0F0FEC0FF50FECF5F50F0FBEBEBEF50FBEBE0FF50FF5ECF50FF50F0FF5F50FF50F0FF5F5F5F5BEF5F5F5F5F5F5F5E2E2E2E2E2E2E2E2E2E2E2E2E2E2E2E2F5E2F5E2E2
310
00E2E2F5E2F5E2F53A3AF5F53AF53AF53AF51B1B1BE5F5F5F5F5F5F5F50F0FF5F50FF5ECF50F0FECF50F0FF5ECF50F0F0FF50FF50FF50FEC0F0F0F0FF5F50FF50FF50FF5F5F5F5BEF5F5F5F5F5F5F5F5F5E2F5F5F5F5F5F5E2F5F5F5F5F5F5F5E2F5E2E200E2E2F5E2F5F5E23AF5F53AF53AF53AF53A28F5E2E2F5F5F5F5F5
310
F5F50F0F0FF5F50FEC0FF50FEC0F0FF5F5EC0F0FF50F0FF50FF50FF5ECF50F0FF5F50FF50FF50F0FF5F5BEBEBEF5F5F5F5F5F5F5F5E2E2E2E2E2E2E2E2E2E2E2E2E2F5F5F5E2F5E2E200E2E2F5E2F5F5E23AF53AF53AF53AF53AF5282828F5F5F5F5F5F5F5F50FF50F0F0FF5ECF50F0FEC0FF5F5F5EC0FF5F50FF50FF50FF5
310
0FEC0F0FF5F50F0F0FF50FF50FF5F5BEBEBEF5F5F5F5F5F5F5F5E2E2E2E2E2E2E2E2E2E2E2E2E2F5F5F5E2F5E2E200E2E2F5E2F5F5F53AE2F53AF53AF53AF53AF53AF5F5F5F5F5F5F5F5F50FF5F50FF50FEC0FF50FECF5F50F0FECF5F50F0F0FF50FF50FF5ECF50FF50F0FF5F50FF50F0FF5F5F5F5BEF5F5F5F5F5F5F5F5F5
310
F5F5F5F5F5F5F5F5F5F5F5F5F5F5F5E2F5E2E200E2E2F5E2F5F5F5F5E2E2E23AF53AF5E2E2E2F5F5F5F5F5F5F5F5F5F50F0FF5F50FF5ECF50F0FECF50F0F0FECF50F0F0FF50FF50FF50FEC0F0F0F0FF5F50FF50FF50FF5F5F5F5BEF5F5F5F5F5F5F5F5F5F5F5F5F5F5F5F5F5F5F5F5F5F5F5F5E2F5E2E200E2E2F5E2F5F5F5
310
F5F5F5E2E2E2E2E2E2F5F5F5F5F5F5F5F5F5F5F5F50F0F0FF5F50F0F0F0F0F0F0F0FF5F50F0F0F0F0F0F0F0F0F0F0F0FF50F0FF5F50FF50FF50F0FF5F5F5F5BEF5F5F5F5F5F5F5F5F5F5F5F5F5F5F5F5F5F5F5F5F5F5F5F5E2F5E2E200E2E2F5E2F5F5F5F5E2E2F5F5F5F5F53A3A3AF5F5F5F5F5F5F5F5F5F50FF50F0F0FF5
310
0F5E5E5E0F0FF5F50F0F5E5E5E5E5E5E5E5E5E5E0F0F0FF5F50FF50FF50FF50FF5F5F5F5BEF5F5F5F5F5F5F5F5F5F5F5F5F5F5F5F5F5F5F5F5F5F5F5F5E2F5E2E200E2E2F5E2F5F5F5E2E2F5F5F50F0F0F0F3AF53AF5F5F5F5F5F5F5F5F50FF5F50FF50F0FF55E5E0FF5F50F0F0F5E5E5E5EF55E5EF5F55E0FF50FF50FF50F
310
F50FF50F0FF5F5F5F5BEF5F5F5F5F5F5F5F5F5F5F5F5F5F5F5F5F5F5F5F5F5F5F5F5E2F5E2E200E2E2F5E2F5F5E2F5F5F50F0F0F0FF53AF53AF53AF5F5F5F5F5F5F5F50F0F0F0F0FF50F5E5E5E0FF50FF50F0FF55E5E5E5E5EF5F55E5E0F0F0F0FF50FF50FF50FF50FF5F5F5F5BEF5F5F5F5F5F5F5F5F5F5F5F5F5F5F5F5F5
310
F5F5F5F5F5F5F5E2F5E2E200E2E2F5E2F5F5E2F5F50F0FF50FF50F0F3AF53AF5E2F5F5F5F5F5F5F50F0F0FF50F0F0F5EF55E0F0FF50FF50FF5F5F55E5EF5F55E5EF50FF50FF50FF50FF50FF50F0FF5F5F5F5BEF5F5F5F5F5F5F5F5F5F5F5F5F5F5F5F5F5F5F5F5F5F5F5F5E2F5E2E200E2E2F5E2F5E2F5F50F0F0FF5F50F0F
310
3AF53AF5F53AF5F5F5F5F5F5F5F50F0F5E0F0F0FF5F55E5E0F0F0F0F0F5E5EF55EF5F55E5EF5F50F0F5E0F0F0F0F0F0F0F0F5EF5F5F5BEBEF5F5F5F5F5F5F5F5F5F5F5F5F5F5F5F5F5F5F5F5F5F5F5F5E2F5E2E200E2E2F5E2F5E2F5F50FF50F0FF5F50F0F3AF5F53A3AF5F5F5F5F5F5F55E5EF5F55E5EF5F55E5EF5F55EF5
310
5EF55EF55E5EF55E5EF5F55E5EF55E5E5EF5F55E5EF5F55EF5F5F5F5BEF5F5F5F5F5F5F5F5F5F5F5F5F5F5F5F5F5F5F5F5F5F5F5F5E2F5E2E200E2E2F5E2F5E2F5F50FF5F50F0FF5F53A3A3A3A3AE2F5F5F5F5F5F5F55EF55E5E5EF5F55E5E5E5EF5F55EBEBEBEBEBE5EBEBEBEBE5EF55EF55EF55E5EF5F55E5E5E5EF5F5F5
310
F5BEF5F5F5F5F5F5F5F5F5F5F5F5F5F5F5F5F5F5F5F5F5F5F5F5E2F5E2E200E2E2F5E2F5E2F50FF50FF5F50F0F0F0FF5F5F5F5E2E2F5F5F5F5F5F55E5EF55EF5F55E5EF55E5E5EF5F5BEF5BEBEBE5EBEBEBEBEF55EF55E5EF5F55E5EF5F55EF55EF5F5F5F5BEF5F5F5F5F5F5F5F5F5F5F5F5F5F5F5F5F5F5F5F5F5F5F5F5E2
310
F5E2E200E2E2F5E2F5E2F50F0FF50FF5F50FF50F0F0F0F0F0FF5F5F5F5F5F5F55EF55EF5F55E5EF5F55EF55E5EF5BEBEBEBEBE5EBEBEBEBE5EF55E5E5E5EF5F55E5E5EF55E5EF5F5BEBEBEF5F5F5F5F5F5F5F5F5F5F5F5F5F5F5F5F5F5F5F5F5F5F5F5E2F5E2E200E2F5F5E2F5E2F50FF50FF50FF5F50FF50FF50F0FE2F5F5
310
F5F5F5F5F55E5EF5F55E5EF5F55E5EF5F55E5EF5F5F5F5BE5EF5F5F5F5F55E5EF55E5E5EF5F55EF55EF55EF5F5BEBEBEF5F5F5F5F5F5F5F5F5F5F5F5F5F5F5F5F5F5F5F5F5F5F5F5E2F5F5E200E2F5F5E2F5E2E20FF5F50FF50FF5F50FF50F0FF50FF5F5F5F5F5F5F55EF5F55E5EF5F55E5E5E5EF5F55E5EF5BEBEBE5EBEBE
310
BEF55EF55EF55EF55E5EF5F55EF55E5EF5F5BEBEBEF5F5F5F5F5F5F5F5F5F5F5F5F5F5F5F5F5F5F5F5F5F5F5F5E2F5F5E200E2F5F5E2F5F5E20F0FF5F50F0F0FF5F50FF50F0FF5F5F5F5F5F5F5F55EF55E5EF5F55E5EF55EF55EF5F55EF5BEBEBE5EBEBEBEF5F55EF55E5EF5F55E5EF5F55EF55EF5F5BEBEBEF5F5F5F5F5F5
310
F5F5F5F5F5F5F5F5F5F5F5F5F5F5F5F5F5F5E2F5F5E200E2F5F5E2F5F5E20F0F0FF5F5F50F0FF5F50F0FE2F5F5F5F5F5F5F5F55E5E5EF5F55E5EF5F55E5EF55EF5F55E5EF5F55EF5F55E5E5EF55EF55E5EF5F55E5EF5F55E5EF5F5BEBEBEF5F5F5F5F5F5F5F5F5F5F5F5F5F5F5F5F5F5F5F5F5F5F5F5E2F5F5E200E2F5F5E2
310
F5F5F50FE20F0FF5F5F50F0FF5E20FF5F5F5F5F5F5F5F5F55E5EF5F55EF55E5EBE5E5E5EF55EF55E5E5E5E5E5E5E5E5E5E5E5E5E5E5E5EF5F55E5EF5F55EF5BEBEBEBEF5F5F5F5F5F5F5F5F5F5F5F5F5F5F5F5F5F5F5F5F5F5F5F5E2F5F5E200E2F5F5E2F5F5F5F5F5E2E2E2F5F5E2E2E2F5F5F5F5F5F5F5F5F5F5F55EF5F5
310
5EF55E5EF5BE5E5EF55EF55E5E5E5EF55EF55EF55EF5F55EF55EF55E5EF5F55E5EF55EF5F5F5F5BEF5F5F5F5F5F5F5F5F5F5F5F5F5F5F5F5F5F5F5F5F5F5F5F5E2F5F5E200E2F5F5E2F5F5F5F5F5F5F5F5E2E2F5F5F5F5F5F5F5F5F5F5F5F5F5F55EF55EF55EF55EBEBE5E5E5EF55EF55E5EF5F55E5EF55EF55EF55E5E5EF5
310
5EF55EF5F55E5E5EF5F5F5F5BEF5F5F5F5F5F5F5F5F5F5F5F5F5F5F5F5F5F5F5F5F5F5F5F5E2F5F5E200E2F5F5E2F5F5E2E2E2E2E2E2E2F5E2E2E2E2E2E2E2F5F5F5F5F5F5F55E5E5E5E5E5E5EBEBE5E5EF55EF55E5EF5F55E5EF55EF55EF55E5EF55E5EF55EF55EF5F55E5EF5F5F5F5BEF5F5F5F5F5F5F5F5F5F5F5F5F5F5
310
F5F5F5F5F5F5F5F5F5F5E2F5F5E200E2F5F5E2F5F5E2E2E2E2E2E2E2F5E2E2E2E2E2E2E2F5F5F5F5F5F5F55E5E5EF55EF55E5EBE5E5E5E5EF5F55EF55EF55E5E5EF5F55EF55E5E5E5EF5F55EF55EF55E5EF5F5F5F5BEF5F5F5F5F5F5F5F5F5F5F5F5F5F5F5F5F5F5F5F5F5F5F5F5E2F5F5E200E2F5F5E2F5F5F5F5F5F5F5F5
310
F5F5F5F5F5F5F5F5F5F5F5F5F5F5F5F55E5E5E5E5E5EF5F5BE5E5E5E5E5E5E5E5E5E5E5EF55E5EF5F55E5E5E5E5E5E5E5E5E5E5E5E5EF5BEBEBEBEF5F5F5F5F5F5F5F5F5F5F5F5F5F5F5F5F5F5F5F5F5F5F5F5E2F5F5E200E2E2F5E2F5F5F5F5F5F5F5F5F5F5F5F5F5F5F5F5F5F5F5F5F5F5F5F55EF55EF5F55E5EF5F55E5E
310
5E5EF5F5BE5EF5F55EF5F55EBE5EF55EF55E5EF5F55E5EF5F55E5EF5F5F5F5BEF5F5F5F5F5F5F5F5F5F5F5F5F5F5F5F5F5F5F5F5F5F5F5F5E2F5E2E200E2E2F5E2F5F5F5F5F5F5F5F5F5F5F5F5F5F5F5F5F5F5F5F5F5F5F5F55E5EF55EF5F55E5EF55EF55EF5F5BEBEBEBEBE5EBEBEBEBEF55EF55E5EF5F55E5EF5F55E5E5E
310
F5F5F5F5BEF5F5F5F5F5F5F5F5F5F5F5F5F5F5F5F5F5F5F5F5F5F5F5F5E2F5E2E200E2E2F5E2F5F5F5F5F5F5F5F5F5F5F5F5F5F5F5F5F5F5F5F5F5F5F5F55EF55EF55EF5F55E5E5E5EF5F55EBEF5BEBEBE5EBEBEBEBE5EF55EF55EF55E5EF5F55E5EF55EF5F5F5F5BEF5F5F5F5F5F5F5F5F5F5F5F5F5F5F5F5F5F5F5F5F5F5
310
F5F5E2F5E2E200E2E2F5E2F5F5F5F5F5F5F5F5F5F5F5F5F5F5F5F5F5F5F5F5F5F5F5F55E5EF55EF55EF5F55E5EF5F55E5EBEBEBEBEBE5EBEBEBEBEF55EF55E5E5E5EF5F55E5EF5F55EF5F5BEBEBEF5F5F5F5F5F5F5F5F5F5F5F5F5F5F5F5F5F5F5F5F5F5F5F5E2F5E2E200E2E2F5E2F5F5F5F5F5F5F5F5F5F5F5F5F5F5F5F5
310
F5F5F5F5F5F5F5F55EF55EF55E5E5EF5F55EF55E5EF5F5F5F5F5BE5EF5F5F5F55EF55EF55E5EF5F55E5EF5F55E5EF5F5BEBEBEF5F5F5F5F5F5F5F5F5F5F5F5F5F5F5F5F5F5F5F5F5F5F5F5E2F5E2E200E2E2F5E2F5F5F5F5F5F5F5F5F5F5F5F5F5F5F5F5F5F5F5F5F5F5F5F55E5EF55EF5F55E5EF55E5E5EF5F55EF5BEBEBE
310
5EBEBEBEF5F55EF55E5EF5F55E5EF5F55EF55EF5F5BEBEBEF5F5F5F5F5F5F5F5F5F5F5F5F5F5F5F5F5F5F5F5F5F5F5F5E2F5E2E200E2E2F5E2F5F5F5F5F5F5F5F5F5F5F5F5F5F5F5F5F5F5F5F5F5F5F5F55EF55EF55EF5F55E5E5E5EF5F55EF5F5BEBEBE5EBEBEBEF55EF55EF55EF55E5EF5F55EF55E5EF5F5BEBEBEF5F5F5
310
F5F5F5F5F5F5F5F5F5F5F5F5F5F5F5F5F5F5F5F5F5E2F5E2E200E2E2F5E2F5F5F5F5F5F5F5F5F5F5F5F5F5F5F5F5F5F5F5F5F5F5F5F55E5EF55E5E5EF5F55E5EF55E5EF55EF55EF55E5EF55E5EF5F55E5EF55EBE5EF5F55EF55EF55EF5F5BEBEBEF5F5F5F5F5F5F5F5F5F5F5F5F5F5F5F5F5F5F5F5F5F5F5F5E2F5E2E200E2
310
E2F5E2F5F5F5F5F5F5F5F5F5F5F5F5F5F5F5F5F5F5F5F5F5F5F5F5BEBEBEBEBEBEBE5E5E5E5EF5F55EF55E5E5E5E5E5E5E5E5E5E5E5E5E5EBEF5F55EF55EF55E5EF5BEBEBEBEF5F5F5F5F5F5F5F5F5F5F5F5F5F5F5F5F5F5F5F5F5F5F5F5E2F5E2E200E2E2F5E2F5F5F5F5F5F5F5F5F5F5F5F5F5F5F5F5F5F5F5F5F5F5F5F5
310
BEBEBEBEBEBEBEBEBEBEBEBEBEBEBEBEBEBEBEBEBEBEBEBEBEBEBE5E5EBEF55E5E5EF55EF55EF5F5F5F5BEF5F5F5F5F5F5F5F5F5F5F5F5F5F5F5F5F5F5F5F5F5F5F5F5E2F5E2E200E2E2F5E2F5F5F5F5F5F5F5F5F5F5F5F5F5F5F5F5F5F5F5F5F5F5F5F55EF5BEBEBEF5BEBEBEBEBEBEBEBEBEBEBEF5F5BEBEBEBEF5F5F5BE
310
BE5EBE5E5EF5F55EF55E5EF5F5F5F5BEF5F5F5F5F5F5F5F5F5F5F5F5F5F5F5F5F5F5F5F5F5F5F5F5E2F5E2E200E2E2F5E2F5F5F5F5F5F5F5F5F5F5F5F5F5F5F5F5F5F5F5F5F5F5F5F55E5E5E5E5E5E5EBEBEBE5EF5BEBEBE5EF5F5F5BEBEBEBEF5F5F55EBE5EBE5EF5F55E5E5EF55EF5F5F5F5BEF5F5F5F5F5F5F5F5F5F5F5
310
F5F5F5F5F5F5F5F5F5F5F5F5F5E2F5E2E200E2E2F5E2F5F5F5F5F5F5F5F5F5F5F5F5F5F5F5F5F5F5F5F5F5F5F5F55E5E5EF55E5E5EF5F5F55E5E5E5E5E5EF5F5F5F5F5F5F5F5F5F55E5E5EBE5E5E5E5E5E5E5E5EF5BEBEBEBEF5F5F5F5F5F5F5F5F5F5F5F5F5F5F5F5F5F5F5F5F5F5F5F5E2F5E2E200E2E2F5E2F5F5F5F5F5
310
F5F5F5F5F5F5F5F5F5F5F5F5F5F5F5F5F5F5F5F5F5F5F5F5F5F5F5F5F5F5F5F5F5F5F5F5F5F5F5F5F5F5F5F5F5F5F5BEF5F5F5F5F5F5F5F5F5F5F5F5BEF5F5F5F5F5F5F5F5F5F5F5F5F5F5F5F5F5F5F5F5F5F5F5F5F5E2F5E2E200E2E2F5E2F5F5F5F5F5F5F5F5F5F5F5F5F5F5F5F5F5F5F5F5F5F5F5F5F5F5F5F5F5F5F5F5
310
F5F5F5F5F5F5F5F5F5F5F5F5F5F5F5F5F5F5F5F5F5F5F5F5F5F5F5F5F5F5F5F5F5F5F5F5F5F5F5F5F5F5F5F5F5F5F5F5F5F5F5F5F5F5F5F5F5F5F5E2F5E2E200E2E2F5E2E2E2E2E2E2E2E2E2E2E2E2E2E2E2E2E2E2E2E2E2E2E2E2E2E2E2E2E2E2F5F5F5F5F5F5F5F5F5F5F5F5F5F5F5F5F5F5F5F5F5F5F5F5F5F5F5F5F5F5
310
F5F5F5F5F5F5F5F5F5F5F5F5F5F5F5F5F5F5F5F5F5F5F5F5F5F5F5F5F5F5F5F5E2F5E2E200E2E2F5E2E2E2E2E2E2E2E2E2E2E2E2E2E2E2E2E2E2E2E2E2E2E2E2E2E2E2E2E2E2F5F5F5F5F5F5F5F5F5F5F5F5F5F5F5F5F5F5F5F5F5F5F5F5F5F5F5F5F5F5F5F5F5F5F5F5F5F5F5F5F5F5F5F5F5F5F5F5F5F5F5F5F5F5F5F5F5
310
F5F5F5F5F5E2F5E2E200E2F5F5E2F5F5F5F5F5F5F5F5F5F5F5F5F5F5F5F5F5F5F5F5F5F5F5F5F5F5F5F5F5F5F5F5F5F5F5F5F5F5F5F5F5F5F5F5F5F5F5F5F5F5F5F5F5F5F5F5F5F5F5F5F5F5F5F5F5F5F5F5F5F5F5F5F5F5F5F5F5F5F5F5F5F5F5F5F5F5F5F5F5F5F5E2F5F5E200E2F5F5E2F5F5F5F5F5F5F5F5F5F5F5F5F5
310
F5F5F5F5F5F5F5F5F5F5F5F5F5F5F5F5F5F5F5F5F5F5F5F5F5F5F5F5F5F5F5F5F5F5F5F5F5F5F5F5F5F5F5F5F5F5F5F5F5F5F5F5F5F5F5F5F5F5F5F5F5F5F5F5F5F5F5F5F5F5F5F5F5F5F5F5F5F5E2F5F5E200E2F5F5E2F5F5F5F5F5F5F5F5F5F5F5F5F5F5F5F5F5F5F5F5F5F5F5F5F5F5F5F5F5F5F5F5F5F5F5F5F5F5F5F5
310
F5F5F5F5F5F5F5F5F5F5F5F5F5F5F5F5F5F5F5F5F5F5F5F5F5F5F5F5F5F5F5F5F5F5F5F5F5F5F5F5F5F5F5F5F5F5F5F5F5F5F5E2F5F5E200E2F5F5E2E2E2E2E2E2E2E2E2E2E2E2E2E2E2E2E2E2E2E2E2E2E2E2E2E2E2F5F5F5F5F5F5F5F5F5F5F5F5F5F5F5F5F5F5F5F5F5F5F5F5F5F5F5F5F5F5F5F5F5F5F5F5F5F5F5F5F5
310
F5F5F5F5F5F5F5F5F5F5F5F5F5F5F5F5F5F5F5F5F5F5F5F5E2F5F5E200E2F5F5E2E2E2E2E2E2E2E2E2E2E2E2E2E2E2E2E2E2E2E2E2E2E2E2E2E2E2F5F5F5F5F5F5F5F5F5F5F5F5F5F5F5F5F5F5F5F5F5F5F5F5F5F5F5F5F5F5F5F5F5F5F5F5F5F5F5F5F5F5F5F5F5F5F5F5F5F5F5F5F5F5F5F5F5F5F5F5F5F5F5F5F5E2F5F5
310
E200E2F5F5E2F5F5F5F5F5F5F5F5F5F5F5F5F5F5F5F5F5F5F5F5F5F5F5F5F5F5F5F5F5F5F5F5F5F5F5F5F5F5F5F5F5F5F5F5F5F5F5F5F5F5F5F5F5F5F5F5F5F5F5F5F5F5F5F5F5F5F5F5F5F5F5F5F5F5F5F5F5F5F5F5F5F5F5F5F5F5F5F5F5F5F5E2F5F5E200E2F5F5E2E2E2E2E2E2E2E2E2E2E2E2E2E2E2E2E2E2E2E2E2E2
310
E2E2F5F5F5F5F5F5F5F5F5F5F5F5F5F5F5F5F5F5F5F5F5F5F5F5F5F5F5F5F5F5F5F5F5F5F5F5F5F5F5F5F5F5F5F5F5F5F5F5F5F5F5F5F5F5F5F5F5F5F5F5F5F5F5F5F5F5F5F5E2F5F5E200E2F5F5E2E2E2E2E2E2E2E2E2E2E2E2E2E2E2E2E2E2E2E2E2E2E2E2F5F5F5F5F5F5F5F5F5F5F5F5F5F5F5F5F5F5F5F5F5F5F5F5F5
310
F5F5F5F5F5F5F5F5F5F5F5F5F5F5F5F5F5F5F5F5F5F5F5F5F5F5F5F5F5F5F5F5F5F5F5F5F5F5F5F5F5F5F5E2F5F5E200E2F5F5E2E2E2E2E2E2E2E2E2E2E2E2E2E2E2E2E2E2E2E2E2E2E2F5F5F5F5F5F5F5F5F5F5F5F5F5F5F5F5F5F5F5F5F5F5F5F5F5F5F5F5F5F5F5F5F5F5F5F5F5F5F5F5F5F5F5F5F5F5F5F5F5F5F5F5F5
310
F5F5F5F5F5F5F5F5F5F5F5F5F5F5F5F5E2F5F5E200E2F5F5E2E2E2E2E2E2E2E2E2E2E2E2E2E2E2E2E2E2E2E2E2E2E2F5F5F5F5F5F5F5F5F5F5F5F5F5F5F5F5F5F5F5F5F5F5F5F5F5F5F5F5F5F5F5F5F5F5F5F5F5F5F5F5F5F5F5F5F5F5F5F5F5F5F5F5F5F5F5F5F5F5F5F5F5F5F5F5F5F5F5F5F5E2F5F5E200E2E2F5E2E2E2
310
E2E2E2E2E2E2E2E2E2E2E2E2E2E2E2E2E2E2E2E2F5F5F5F5F5F5F5F5F5F5F5F5F5F5F5F5F5F5F5F5F5F5F5F5F5F5F5F5F5F5F5F5F5F5F5F5F5F5F5F5F5F5F5F5F5F5F5F5F5F5F5F5F5F5F5F5F5F5F5F5F5F5F5F5F5F5F5F5F5E2F5E2E200E2E2F5E2E2E2E2E2E2E2E2E2E2E2E2E2E2E2E2E2E2E2E2E2E2E2F5F5F5F5F5F5F5
310
F5F5F5F5F5F5F5F5F5F5F5F5F5F5F5F5F5F5F5F5F5F5F5F5F5F5F5F5F5F5F5F5F5F5F5F5F5F5F5F5F5F5F5F5F5F5F5F5F5F5F5F5F5F5F5F5F5F5F5F5F5F5E2F5E2E200E2E2F5E2E2E2E2E2E2E2E2E2E2E2E2E2E2E2E2E2E2E2E2E2E2E2E2E2E2E2E2E2E2E2E2E2E2E2E2E2E2E2E2E2E2E2E2E2E2E2F5F5F5F5F5F5F5F5F5F5
310
F5F5F5F5F5F5F5F5F5F5F5F5F5F5F5F5F5F5F5F5F5F5F5F5F5F5F5F5F5F5F5F5F5F5F5E2F5E2E200E2E2F5E2E2E2E2E2E2E2E2E2E2E2E2E2E2E2E2E2E2E2E2E2E2E2E2E2E2E2E2E2E2E2E2E2E2E2E2E2E2E2E2E2E2E2E2E2E2E2F5F5F5F5F5F5F5F5F5F5F5F5F5F5F5F5F5F5F5F5F5F5F5F5F5F5F5F5F5F5F5F5F5F5F5F5F5
310
F5F5F5F5F5F5F5F5E2F5E2E200E2E2F5E2E2E2E2E2E2E2E2E2E2E2E2E2E2E2E2E2E2E2E2E2E2E2E2E2E2E2E2E2E2E2E2E2E2E2E2E2E2E2E2E2E2E2E2E2E2E2F5F5F5F5F5F5F5F5F5F5F5F5F5F5F5F5F5F5F5F5F5F5F5F5F5F5F5F5F5F5F5F5F5F5F5F5F5F5F5F5F5F5F5F5F5E2F5E2E200E2E2F5E2E2E2E2E2E2E2E2E2E2E2
310
E2E2E2E2E2E2E2E2E2E2E2E2E2E2E2E2E2E2E2E2E2E2E2E2E2E2E2E2E2E2E2E2E2E2E2E2F5F5F5F5F5F5F5F5F5F5F5F5F5F5F5F5F5F5F5F5F5F5F5F5F5F5F5F5F5F5F5F5F5F5F5F5F5F5F5F5F5F5F5F5F5E2F5E2E200E2E2F5E2E2E2E2E2E2E2E2E2E2E2E2E2E2E2E2E2E2E2E2E2E2E2E2E2E2E2E2E2E2E2E2E2E2E2E2E2E2
310
E2E2E2E2E2E2E2E2E2E2E2E2E2E2E2E2E2E2E2E2E2E2E2E2E2E2E2E2E2E2E2E2E2E2E2E2E2E2E2E2E2E2E2E2E2E2E2E2E2E2E2E2E2E2E2F5E2E200E2E2F5F5F5F5F5F5F5F5F5F5F5F5F5F5F5F5F5F5F5F5F5F5F5F5F5F5F5F5F5F5F5F5F5F5F5F5F5F5F5F5F5F5F5F5F5F5F5F5F5F5F5F5F5F5F5F5F5F5F5F5F5F5F5F5F5F5
310
F5F5F5F5F5F5F5F5F5F5F5F5F5F5F5F5F5F5F5F5F5F5F5F5F5F5F5F5F5E2E200E2E2E2E2E2E2E2E2E2F5F5F5F5F5F5F5F5F5E2E2E2E2E2E2E2E2E2E2E2E2E2E2E2F5F5F5F5F5F5F5F5F5E2E2E2E2E2E2E2E2E2E2E2E2E2E2E2F5F5F5F5F5F5F5F5F5E2E2E2E2E2E2E2E2E2E2E2E2E2E2E2F5F5F5F5F5F5F5F5F5E2E2E2E2E2
310
E2E2E2E200E2E2E2E2E2E2E2E2E2E2E2E2E2E2E2E2E2E2E2E2E2E2E2E2E2E2E2E2E2E2E2E2E2E2E2E2E2E2E2E2E2E2E2E2E2E2E2E2E2E2E2E2E2E2E2E2E2E2E2E2E2E2E2E2E2E2E2E2E2E2E2E2E2E2E2E2E2E2E2E2E2E2E2E2E2E2E2E2E2E2E2E2E2E2E2E2E2E2E200E2E2E2E2E2E2E2E2E2E2E2E2E2E2E2E2E2E2E2E2E2E2
310
E2E2E2E2E2E2E2E2E2E2E2E2E2E2E2E2E2E2E2E2E2E2E2E2E2E2E2E2E2E2E2E2E2E2E2E2E2E2E2E2E2E2E2E2E2E2E2E2E2E2E2E2E2E2E2E2E2E2E2E2E2E2E2E2E2E2E2E2E2E2E2E2E2E2E2E2E200
  0
XRECORD
  5
317E
102
{ACAD_REACTORS
330
317D
102
}
330
317D
100
AcDbXrecord
280
     1
102
SHADEPLOT
 70
     0
102
SHADEPLOTRESLEVEL
 70
     2
102
SHADEPLOTCUSTOMDPI
 70
   300
  0
XRECORD
  5
719
102
{ACAD_REACTORS
330
718
102
}
330
718
100
AcDbXrecord
280
     1
102
MATERIAL
148
0.0
149
0.0
149
0.0
 93
        0
 94
      127
282
     0
 72
     1
 77
     1
171
     1
175
     1
179
     1
273
     0
  0
XRECORD
  5
717
102
{ACAD_REACTORS
330
716
102
}
330
716
100
AcDbXrecord
280
     1
102
MATERIAL
148
0.0
149
0.0
149
0.0
 93
        0
 94
      127
282
     0
 72
     1
 77
     1
171
     1
175
     1
179
     1
273
     0
  0
XRECORD
  5
71B
102
{ACAD_REACTORS
330
71A
102
}
330
71A
100
AcDbXrecord
280
     1
102
MATERIAL
148
0.0
149
0.0
149
0.0
 93
        0
 94
      127
282
     0
 72
     1
 77
     1
171
     1
175
     1
179
     1
273
     0
  0
CELLSTYLEMAP
  5
317A
102
{ACAD_REACTORS
330
3179
102
}
330
3179
100
AcDbCellStyleMap
 90
        3
300
CELLSTYLE
  1
TABLEFORMAT_BEGIN
 90
        5
170
     1
 91
        0
 92
    32768
 62
   257
 93
        1
300
CONTENTFORMAT
  1
CONTENTFORMAT_BEGIN
 90
        0
 91
        0
 92
      512
 93
        0
300

 40
0.0
140
1.0
 94
        5
 62
     0
340
11
144
6.0
309
CONTENTFORMAT_END
171
     1
301
MARGIN
  1
CELLMARGIN_BEGIN
 40
1.5
 40
1.5
 40
1.5
 40
1.5
 40
0.18
 40
0.18
309
CELLMARGIN_END
 94
        6
 95
        1
302
GRIDFORMAT
  1
GRIDFORMAT_BEGIN
 90
        0
 91
        1
 62
     0
 92
       -2
340
0
 93
        0
 40
0.045
309
GRIDFORMAT_END
 95
        2
302
GRIDFORMAT
  1
GRIDFORMAT_BEGIN
 90
        0
 91
        1
 62
     0
 92
       -2
340
0
 93
        0
 40
0.045
309
GRIDFORMAT_END
 95
        4
302
GRIDFORMAT
  1
GRIDFORMAT_BEGIN
 90
        0
 91
        1
 62
     0
 92
       -2
340
0
 93
        0
 40
0.045
309
GRIDFORMAT_END
 95
        8
302
GRIDFORMAT
  1
GRIDFORMAT_BEGIN
 90
        0
 91
        1
 62
     0
 92
       -2
340
0
 93
        0
 40
0.045
309
GRIDFORMAT_END
 95
       16
302
GRIDFORMAT
  1
GRIDFORMAT_BEGIN
 90
        0
 91
        1
 62
     0
 92
       -2
340
0
 93
        0
 40
0.045
309
GRIDFORMAT_END
 95
       32
302
GRIDFORMAT
  1
GRIDFORMAT_BEGIN
 90
        0
 91
        1
 62
     0
 92
       -2
340
0
 93
        0
 40
0.045
309
GRIDFORMAT_END
309
TABLEFORMAT_END
  1
CELLSTYLE_BEGIN
 90
        1
 91
        1
300
_TITLE
309
CELLSTYLE_END
300
CELLSTYLE
  1
TABLEFORMAT_BEGIN
 90
        5
170
     1
 91
        0
 92
        0
 62
   257
 93
        1
300
CONTENTFORMAT
  1
CONTENTFORMAT_BEGIN
 90
        0
 91
        0
 92
      512
 93
        0
300

 40
0.0
140
1.0
 94
        5
 62
     0
340
11
144
4.5
309
CONTENTFORMAT_END
171
     1
301
MARGIN
  1
CELLMARGIN_BEGIN
 40
1.5
 40
1.5
 40
1.5
 40
1.5
 40
0.18
 40
0.18
309
CELLMARGIN_END
 94
        6
 95
        1
302
GRIDFORMAT
  1
GRIDFORMAT_BEGIN
 90
        0
 91
        1
 62
     0
 92
       -2
340
0
 93
        0
 40
0.045
309
GRIDFORMAT_END
 95
        2
302
GRIDFORMAT
  1
GRIDFORMAT_BEGIN
 90
        0
 91
        1
 62
     0
 92
       -2
340
0
 93
        0
 40
0.045
309
GRIDFORMAT_END
 95
        4
302
GRIDFORMAT
  1
GRIDFORMAT_BEGIN
 90
        0
 91
        1
 62
     0
 92
       -2
340
0
 93
        0
 40
0.045
309
GRIDFORMAT_END
 95
        8
302
GRIDFORMAT
  1
GRIDFORMAT_BEGIN
 90
        0
 91
        1
 62
     0
 92
       -2
340
0
 93
        0
 40
0.045
309
GRIDFORMAT_END
 95
       16
302
GRIDFORMAT
  1
GRIDFORMAT_BEGIN
 90
        0
 91
        1
 62
     0
 92
       -2
340
0
 93
        0
 40
0.045
309
GRIDFORMAT_END
 95
       32
302
GRIDFORMAT
  1
GRIDFORMAT_BEGIN
 90
        0
 91
        1
 62
     0
 92
       -2
340
0
 93
        0
 40
0.045
309
GRIDFORMAT_END
309
TABLEFORMAT_END
  1
CELLSTYLE_BEGIN
 90
        2
 91
        1
300
_HEADER
309
CELLSTYLE_END
300
CELLSTYLE
  1
TABLEFORMAT_BEGIN
 90
        5
170
     1
 91
        0
 92
        0
 62
   257
 93
        1
300
CONTENTFORMAT
  1
CONTENTFORMAT_BEGIN
 90
        0
 91
        0
 92
      512
 93
        0
300

 40
0.0
140
1.0
 94
        2
 62
     0
340
11
144
4.5
309
CONTENTFORMAT_END
171
     1
301
MARGIN
  1
CELLMARGIN_BEGIN
 40
1.5
 40
1.5
 40
1.5
 40
1.5
 40
0.18
 40
0.18
309
CELLMARGIN_END
 94
        6
 95
        1
302
GRIDFORMAT
  1
GRIDFORMAT_BEGIN
 90
        0
 91
        1
 62
     0
 92
       -2
340
0
 93
        0
 40
0.045
309
GRIDFORMAT_END
 95
        2
302
GRIDFORMAT
  1
GRIDFORMAT_BEGIN
 90
        0
 91
        1
 62
     0
 92
       -2
340
0
 93
        0
 40
0.045
309
GRIDFORMAT_END
 95
        4
302
GRIDFORMAT
  1
GRIDFORMAT_BEGIN
 90
        0
 91
        1
 62
     0
 92
       -2
340
0
 93
        0
 40
0.045
309
GRIDFORMAT_END
 95
        8
302
GRIDFORMAT
  1
GRIDFORMAT_BEGIN
 90
        0
 91
        1
 62
     0
 92
       -2
340
0
 93
        0
 40
0.045
309
GRIDFORMAT_END
 95
       16
302
GRIDFORMAT
  1
GRIDFORMAT_BEGIN
 90
        0
 91
        1
 62
     0
 92
       -2
340
0
 93
        0
 40
0.045
309
GRIDFORMAT_END
 95
       32
302
GRIDFORMAT
  1
GRIDFORMAT_BEGIN
 90
        0
 91
        1
 62
     0
 92
       -2
340
0
 93
        0
 40
0.045
309
GRIDFORMAT_END
309
TABLEFORMAT_END
  1
CELLSTYLE_BEGIN
 90
        3
 91
        2
300
_DATA
309
CELLSTYLE_END
  0
XRECORD
  5
317F
102
{ACAD_REACTORS
330
3179
102
}
330
3179
100
AcDbXrecord
280
     1
102
ACAD_ROUNDTRIP_PRE2007_TABLESTYLE
 90
      512
 91
        0
  1

 92
      512
 93
        0
  2

 94
      512
 95
        0
  3

  0
XRECORD
  5
318C
102
{ACAD_REACTORS
330
318B
102
}
330
318B
100
AcDbXrecord
280
     1
102
RTVSPropertyOp0
 70
     1
102
RTVSPropertyOp1
 70
     1
102
RTVSPropertyOp2
 70
     1
102
RTVSPropertyOp3
 70
     1
102
RTVSPropertyOp4
 70
     1
102
RTVSPropertyOp5
 70
     1
102
RTVSPropertyOp6
 70
     1
102
RTVSPropertyOp7
 70
     1
102
RTVSPropertyOp8
 70
     1
102
RTVSPropertyOp9
 70
     1
102
RTVSPropertyOp10
 70
     1
102
RTVSPropertyOp11
 70
     1
102
RTVSPropertyOp12
 70
     1
102
RTVSPropertyOp13
 70
     1
102
RTVSPropertyOp14
 70
     1
102
RTVSPropertyOp15
 70
     1
102
RTVSPropertyOp16
 70
     1
102
RTVSPropertyOp17
 70
     1
102
RTVSPropertyOp18
 70
     1
102
RTVSPropertyOp19
 70
     1
102
RTVSPropertyOp20
 70
     1
102
RTVSPropertyOp21
 70
     1
102
RTVSPropertyOp22
 70
     1
102
RTVSPropertyOp23
 70
     1
102
RTVSPropertyOp24
 70
     1
102
RTVSPropertyOp25
 70
     1
102
RTVSPropertyOp26
 70
     1
102
RTVSPropertyOp27
 70
     1
102
RTVSPropertyOp28
 70
     1
102
RTVSPropertyOp29
 70
     1
102
RTVSPropertyOp30
 70
     1
102
RTVSPropertyOp31
 70
     1
102
RTVSPropertyOp32
 70
     1
  0
XRECORD
  5
3190
102
{ACAD_REACTORS
330
318F
102
}
330
318F
100
AcDbXrecord
280
     1
102
RTVSPropertyOp0
 70
     1
102
RTVSPropertyOp1
 70
     1
102
RTVSPropertyOp2
 70
     1
102
RTVSPropertyOp3
 70
     1
102
RTVSPropertyOp4
 70
     1
102
RTVSPropertyOp5
 70
     1
102
RTVSPropertyOp6
 70
     1
102
RTVSPropertyOp7
 70
     1
102
RTVSPropertyOp8
 70
     1
102
RTVSPropertyOp9
 70
     1
102
RTVSPropertyOp10
 70
     1
102
RTVSPropertyOp11
 70
     1
102
RTVSPropertyOp12
 70
     1
102
RTVSPropertyOp13
 70
     1
102
RTVSPropertyOp14
 70
     1
102
RTVSPropertyOp15
 70
     1
102
RTVSPropertyOp16
 70
     1
102
RTVSPropertyOp17
 70
     1
102
RTVSPropertyOp18
 70
     1
102
RTVSPropertyOp19
 70
     1
102
RTVSPropertyOp20
 70
     1
102
RTVSPropertyOp21
 70
     1
102
RTVSPropertyOp22
 70
     1
102
RTVSPropertyOp23
 70
     1
102
RTVSPropertyOp24
 70
     1
102
RTVSPropertyOp25
 70
     1
102
RTVSPropertyOp26
 70
     1
102
RTVSPropertyOp27
 70
     1
102
RTVSPropertyOp28
 70
     1
102
RTVSPropertyOp29
 70
     1
102
RTVSPropertyOp30
 70
     1
102
RTVSPropertyOp31
 70
     1
102
RTVSPropertyOp32
 70
     1
  0
XRECORD
  5
318E
102
{ACAD_REACTORS
330
318D
102
}
330
318D
100
AcDbXrecord
280
     1
102
RTVSPropertyOp0
 70
     1
102
RTVSPropertyOp1
 70
     1
102
RTVSPropertyOp2
 70
     1
102
RTVSPropertyOp3
 70
     1
102
RTVSPropertyOp4
 70
     1
102
RTVSPropertyOp5
 70
     1
102
RTVSPropertyOp6
 70
     1
102
RTVSPropertyOp7
 70
     1
102
RTVSPropertyOp8
 70
     1
102
RTVSPropertyOp9
 70
     1
102
RTVSPropertyOp10
 70
     1
102
RTVSPropertyOp11
 70
     1
102
RTVSPropertyOp12
 70
     1
102
RTVSPropertyOp13
 70
     1
102
RTVSPropertyOp14
 70
     1
102
RTVSPropertyOp15
 70
     1
102
RTVSPropertyOp16
 70
     1
102
RTVSPropertyOp17
 70
     1
102
RTVSPropertyOp18
 70
     1
102
RTVSPropertyOp19
 70
     1
102
RTVSPropertyOp20
 70
     1
102
RTVSPropertyOp21
 70
     1
102
RTVSPropertyOp22
 70
     1
102
RTVSPropertyOp23
 70
     1
102
RTVSPropertyOp24
 70
     1
102
RTVSPropertyOp25
 70
     1
102
RTVSPropertyOp26
 70
     1
102
RTVSPropertyOp27
 70
     1
102
RTVSPropertyOp28
 70
     1
102
RTVSPropertyOp29
 70
     1
102
RTVSPropertyOp30
 70
     1
102
RTVSPropertyOp31
 70
     1
102
RTVSPropertyOp32
 70
     1
  0
XRECORD
  5
318A
102
{ACAD_REACTORS
330
3189
102
}
330
3189
100
AcDbXrecord
280
     1
102
RTVSPropertyOp0
 70
     1
102
RTVSPropertyOp1
 70
     1
102
RTVSPropertyOp2
 70
     1
102
RTVSPropertyOp3
 70
     1
102
RTVSPropertyOp4
 70
     1
102
RTVSPropertyOp5
 70
     1
102
RTVSPropertyOp6
 70
     1
102
RTVSPropertyOp7
 70
     1
102
RTVSPropertyOp8
 70
     1
102
RTVSPropertyOp9
 70
     1
102
RTVSPropertyOp10
 70
     1
102
RTVSPropertyOp11
 70
     1
102
RTVSPropertyOp12
 70
     1
102
RTVSPropertyOp13
 70
     1
102
RTVSPropertyOp14
 70
     1
102
RTVSPropertyOp15
 70
     1
102
RTVSPropertyOp16
 70
     1
102
RTVSPropertyOp17
 70
     1
102
RTVSPropertyOp18
 70
     1
102
RTVSPropertyOp19
 70
     1
102
RTVSPropertyOp20
 70
     1
102
RTVSPropertyOp21
 70
     1
102
RTVSPropertyOp22
 70
     1
102
RTVSPropertyOp23
 70
     1
102
RTVSPropertyOp24
 70
     1
102
RTVSPropertyOp25
 70
     1
102
RTVSPropertyOp26
 70
     1
102
RTVSPropertyOp27
 70
     1
102
RTVSPropertyOp28
 70
     1
102
RTVSPropertyOp29
 70
     1
102
RTVSPropertyOp30
 70
     1
102
RTVSPropertyOp31
 70
     1
102
RTVSPropertyOp32
 70
     1
  0
XRECORD
  5
3198
102
{ACAD_REACTORS
330
3197
102
}
330
3197
100
AcDbXrecord
280
     1
102
RTVSPropertyOp0
 70
     1
102
RTVSPropertyOp1
 70
     1
102
RTVSPropertyOp2
 70
     1
102
RTVSPropertyOp3
 70
     1
102
RTVSPropertyOp4
 70
     1
102
RTVSPropertyOp5
 70
     1
102
RTVSPropertyOp6
 70
     1
102
RTVSPropertyOp7
 70
     1
102
RTVSPropertyOp8
 70
     1
102
RTVSPropertyOp9
 70
     1
102
RTVSPropertyOp10
 70
     1
102
RTVSPropertyOp11
 70
     1
102
RTVSPropertyOp12
 70
     1
102
RTVSPropertyOp13
 70
     1
102
RTVSPropertyOp14
 70
     1
102
RTVSPropertyOp15
 70
     1
102
RTVSPropertyOp16
 70
     1
102
RTVSPropertyOp17
 70
     1
102
RTVSPropertyOp18
 70
     1
102
RTVSPropertyOp19
 70
     1
102
RTVSPropertyOp20
 70
     1
102
RTVSPropertyOp21
 70
     1
102
RTVSPropertyOp22
 70
     1
102
RTVSPropertyOp23
 70
     1
102
RTVSPropertyOp24
 70
     1
102
RTVSPropertyOp25
 70
     1
102
RTVSPropertyOp26
 70
     1
102
RTVSPropertyOp27
 70
     1
102
RTVSPropertyOp28
 70
     1
102
RTVSPropertyOp29
 70
     1
102
RTVSPropertyOp30
 70
     1
102
RTVSPropertyOp31
 70
     1
102
RTVSPropertyOp32
 70
     1
  0
XRECORD
  5
31A0
102
{ACAD_REACTORS
330
319F
102
}
330
319F
100
AcDbXrecord
280
     1
102
RTVSPropertyOp0
 70
     1
102
RTVSPropertyOp1
 70
     1
102
RTVSPropertyOp2
 70
     1
102
RTVSPropertyOp3
 70
     1
102
RTVSPropertyOp4
 70
     1
102
RTVSPropertyOp5
 70
     1
102
RTVSPropertyOp6
 70
     1
102
RTVSPropertyOp7
 70
     1
102
RTVSPropertyOp8
 70
     1
102
RTVSPropertyOp9
 70
     1
102
RTVSPropertyOp10
 70
     1
102
RTVSPropertyOp11
 70
     1
102
RTVSPropertyOp12
 70
     1
102
RTVSPropertyOp13
 70
     1
102
RTVSPropertyOp14
 70
     1
102
RTVSPropertyOp15
 70
     1
102
RTVSPropertyOp16
 70
     1
102
RTVSPropertyOp17
 70
     1
102
RTVSPropertyOp18
 70
     1
102
RTVSPropertyOp19
 70
     1
102
RTVSPropertyOp20
 70
     1
102
RTVSPropertyOp21
 70
     1
102
RTVSPropertyOp22
 70
     1
102
RTVSPropertyOp23
 70
     1
102
RTVSPropertyOp24
 70
     1
102
RTVSPropertyOp25
 70
     1
102
RTVSPropertyOp26
 70
     1
102
RTVSPropertyOp27
 70
     1
102
RTVSPropertyOp28
 70
     1
102
RTVSPropertyOp29
 70
     1
102
RTVSPropertyOp30
 70
     1
102
RTVSPropertyOp31
 70
     1
102
RTVSPropertyOp32
 70
     1
  0
XRECORD
  5
3192
102
{ACAD_REACTORS
330
3191
102
}
330
3191
100
AcDbXrecord
280
     1
102
RTVSPropertyOp0
 70
     1
102
RTVSPropertyOp1
 70
     1
102
RTVSPropertyOp2
 70
     1
102
RTVSPropertyOp3
 70
     1
102
RTVSPropertyOp4
 70
     1
102
RTVSPropertyOp5
 70
     1
102
RTVSPropertyOp6
 70
     1
102
RTVSPropertyOp7
 70
     1
102
RTVSPropertyOp8
 70
     1
102
RTVSPropertyOp9
 70
     1
102
RTVSPropertyOp10
 70
     1
102
RTVSPropertyOp11
 70
     1
102
RTVSPropertyOp12
 70
     1
102
RTVSPropertyOp13
 70
     1
102
RTVSPropertyOp14
 70
     1
102
RTVSPropertyOp15
 70
     1
102
RTVSPropertyOp16
 70
     1
102
RTVSPropertyOp17
 70
     1
102
RTVSPropertyOp18
 70
     1
102
RTVSPropertyOp19
 70
     1
102
RTVSPropertyOp20
 70
     1
102
RTVSPropertyOp21
 70
     1
102
RTVSPropertyOp22
 70
     1
102
RTVSPropertyOp23
 70
     1
102
RTVSPropertyOp24
 70
     1
102
RTVSPropertyOp25
 70
     1
102
RTVSPropertyOp26
 70
     1
102
RTVSPropertyOp27
 70
     1
102
RTVSPropertyOp28
 70
     1
102
RTVSPropertyOp29
 70
     1
102
RTVSPropertyOp30
 70
     1
102
RTVSPropertyOp31
 70
     1
102
RTVSPropertyOp32
 70
     1
  0
XRECORD
  5
3196
102
{ACAD_REACTORS
330
3195
102
}
330
3195
100
AcDbXrecord
280
     1
102
RTVSPropertyOp0
 70
     1
102
RTVSPropertyOp1
 70
     1
102
RTVSPropertyOp2
 70
     1
102
RTVSPropertyOp3
 70
     1
102
RTVSPropertyOp4
 70
     1
102
RTVSPropertyOp5
 70
     1
102
RTVSPropertyOp6
 70
     1
102
RTVSPropertyOp7
 70
     1
102
RTVSPropertyOp8
 70
     1
102
RTVSPropertyOp9
 70
     1
102
RTVSPropertyOp10
 70
     1
102
RTVSPropertyOp11
 70
     1
102
RTVSPropertyOp12
 70
     1
102
RTVSPropertyOp13
 70
     1
102
RTVSPropertyOp14
 70
     1
102
RTVSPropertyOp15
 70
     1
102
RTVSPropertyOp16
 70
     1
102
RTVSPropertyOp17
 70
     1
102
RTVSPropertyOp18
 70
     1
102
RTVSPropertyOp19
 70
     1
102
RTVSPropertyOp20
 70
     1
102
RTVSPropertyOp21
 70
     1
102
RTVSPropertyOp22
 70
     1
102
RTVSPropertyOp23
 70
     1
102
RTVSPropertyOp24
 70
     1
102
RTVSPropertyOp25
 70
     1
102
RTVSPropertyOp26
 70
     1
102
RTVSPropertyOp27
 70
     1
102
RTVSPropertyOp28
 70
     1
102
RTVSPropertyOp29
 70
     1
102
RTVSPropertyOp30
 70
     1
102
RTVSPropertyOp31
 70
     1
102
RTVSPropertyOp32
 70
     1
  0
XRECORD
  5
31BA
102
{ACAD_REACTORS
330
31B9
102
}
330
31B9
100
AcDbXrecord
280
     1
102
RTVSPropertyOp0
 70
     0
102
RTVSPropertyOp1
 70
     0
102
RTVSPropertyOp2
 70
     0
102
RTVSPropertyOp3
 70
     0
102
RTVSPropertyOp4
 70
     0
102
RTVSPropertyOp5
 70
     0
102
RTVSPropertyOp6
 70
     0
102
RTVSPropertyOp7
 70
     0
102
RTVSPropertyOp8
 70
     0
102
RTVSPropertyOp9
 70
     0
102
RTVSPropertyOp10
 70
     0
102
RTVSPropertyOp11
 70
     0
102
RTVSPropertyOp12
 70
     0
102
RTVSPropertyOp13
 70
     0
102
RTVSPropertyOp14
 70
     2
102
RTVSPropertyOp15
 70
     0
102
RTVSPropertyOp16
 70
     0
102
RTVSPropertyOp17
 70
     0
102
RTVSPropertyOp18
 70
     0
102
RTVSPropertyOp19
 70
     0
102
RTVSPropertyOp20
 70
     0
102
RTVSPropertyOp21
 70
     0
102
RTVSPropertyOp22
 70
     0
102
RTVSPropertyOp23
 70
     0
102
RTVSPropertyOp24
 70
     0
102
RTVSPropertyOp25
 70
     0
102
RTVSPropertyOp26
 70
     0
102
RTVSPropertyOp27
 70
     0
102
RTVSPropertyOp28
 70
     0
102
RTVSPropertyOp29
 70
     0
102
RTVSPropertyOp30
 70
     0
102
RTVSPropertyOp31
 70
     0
102
RTVSPropertyOp32
 70
     0
  0
XRECORD
  5
319E
102
{ACAD_REACTORS
330
319D
102
}
330
319D
100
AcDbXrecord
280
     1
102
RTVSPropertyOp0
 70
     1
102
RTVSPropertyOp1
 70
     1
102
RTVSPropertyOp2
 70
     1
102
RTVSPropertyOp3
 70
     1
102
RTVSPropertyOp4
 70
     1
102
RTVSPropertyOp5
 70
     1
102
RTVSPropertyOp6
 70
     1
102
RTVSPropertyOp7
 70
     1
102
RTVSPropertyOp8
 70
     1
102
RTVSPropertyOp9
 70
     1
102
RTVSPropertyOp10
 70
     1
102
RTVSPropertyOp11
 70
     1
102
RTVSPropertyOp12
 70
     1
102
RTVSPropertyOp13
 70
     1
102
RTVSPropertyOp14
 70
     1
102
RTVSPropertyOp15
 70
     1
102
RTVSPropertyOp16
 70
     1
102
RTVSPropertyOp17
 70
     1
102
RTVSPropertyOp18
 70
     1
102
RTVSPropertyOp19
 70
     1
102
RTVSPropertyOp20
 70
     1
102
RTVSPropertyOp21
 70
     1
102
RTVSPropertyOp22
 70
     1
102
RTVSPropertyOp23
 70
     1
102
RTVSPropertyOp24
 70
     1
102
RTVSPropertyOp25
 70
     1
102
RTVSPropertyOp26
 70
     1
102
RTVSPropertyOp27
 70
     1
102
RTVSPropertyOp28
 70
     1
102
RTVSPropertyOp29
 70
     1
102
RTVSPropertyOp30
 70
     1
102
RTVSPropertyOp31
 70
     1
102
RTVSPropertyOp32
 70
     1
  0
XRECORD
  5
3182
102
{ACAD_REACTORS
330
3181
102
}
330
3181
100
AcDbXrecord
280
     1
102
RTVSPropertyOp0
 70
     1
102
RTVSPropertyOp1
 70
     1
102
RTVSPropertyOp2
 70
     1
102
RTVSPropertyOp3
 70
     1
102
RTVSPropertyOp4
 70
     1
102
RTVSPropertyOp5
 70
     1
102
RTVSPropertyOp6
 70
     1
102
RTVSPropertyOp7
 70
     1
102
RTVSPropertyOp8
 70
     1
102
RTVSPropertyOp9
 70
     1
102
RTVSPropertyOp10
 70
     1
102
RTVSPropertyOp11
 70
     1
102
RTVSPropertyOp12
 70
     1
102
RTVSPropertyOp13
 70
     1
102
RTVSPropertyOp14
 70
     1
102
RTVSPropertyOp15
 70
     1
102
RTVSPropertyOp16
 70
     1
102
RTVSPropertyOp17
 70
     1
102
RTVSPropertyOp18
 70
     1
102
RTVSPropertyOp19
 70
     1
102
RTVSPropertyOp20
 70
     1
102
RTVSPropertyOp21
 70
     1
102
RTVSPropertyOp22
 70
     1
102
RTVSPropertyOp23
 70
     1
102
RTVSPropertyOp24
 70
     1
102
RTVSPropertyOp25
 70
     1
102
RTVSPropertyOp26
 70
     1
102
RTVSPropertyOp27
 70
     1
102
RTVSPropertyOp28
 70
     1
102
RTVSPropertyOp29
 70
     1
102
RTVSPropertyOp30
 70
     1
102
RTVSPropertyOp31
 70
     1
102
RTVSPropertyOp32
 70
     1
  0
XRECORD
  5
3184
102
{ACAD_REACTORS
330
3183
102
}
330
3183
100
AcDbXrecord
280
     1
102
RTVSPropertyOp0
 70
     1
102
RTVSPropertyOp1
 70
     1
102
RTVSPropertyOp2
 70
     1
102
RTVSPropertyOp3
 70
     1
102
RTVSPropertyOp4
 70
     1
102
RTVSPropertyOp5
 70
     1
102
RTVSPropertyOp6
 70
     1
102
RTVSPropertyOp7
 70
     1
102
RTVSPropertyOp8
 70
     1
102
RTVSPropertyOp9
 70
     1
102
RTVSPropertyOp10
 70
     1
102
RTVSPropertyOp11
 70
     1
102
RTVSPropertyOp12
 70
     1
102
RTVSPropertyOp13
 70
     1
102
RTVSPropertyOp14
 70
     1
102
RTVSPropertyOp15
 70
     1
102
RTVSPropertyOp16
 70
     1
102
RTVSPropertyOp17
 70
     1
102
RTVSPropertyOp18
 70
     1
102
RTVSPropertyOp19
 70
     1
102
RTVSPropertyOp20
 70
     1
102
RTVSPropertyOp21
 70
     1
102
RTVSPropertyOp22
 70
     1
102
RTVSPropertyOp23
 70
     1
102
RTVSPropertyOp24
 70
     1
102
RTVSPropertyOp25
 70
     1
102
RTVSPropertyOp26
 70
     1
102
RTVSPropertyOp27
 70
     1
102
RTVSPropertyOp28
 70
     1
102
RTVSPropertyOp29
 70
     1
102
RTVSPropertyOp30
 70
     1
102
RTVSPropertyOp31
 70
     1
102
RTVSPropertyOp32
 70
     1
  0
XRECORD
  5
3186
102
{ACAD_REACTORS
330
3185
102
}
330
3185
100
AcDbXrecord
280
     1
102
RTVSPropertyOp0
 70
     1
102
RTVSPropertyOp1
 70
     1
102
RTVSPropertyOp2
 70
     1
102
RTVSPropertyOp3
 70
     1
102
RTVSPropertyOp4
 70
     1
102
RTVSPropertyOp5
 70
     1
102
RTVSPropertyOp6
 70
     1
102
RTVSPropertyOp7
 70
     1
102
RTVSPropertyOp8
 70
     1
102
RTVSPropertyOp9
 70
     1
102
RTVSPropertyOp10
 70
     1
102
RTVSPropertyOp11
 70
     1
102
RTVSPropertyOp12
 70
     1
102
RTVSPropertyOp13
 70
     1
102
RTVSPropertyOp14
 70
     1
102
RTVSPropertyOp15
 70
     1
102
RTVSPropertyOp16
 70
     1
102
RTVSPropertyOp17
 70
     1
102
RTVSPropertyOp18
 70
     1
102
RTVSPropertyOp19
 70
     1
102
RTVSPropertyOp20
 70
     1
102
RTVSPropertyOp21
 70
     1
102
RTVSPropertyOp22
 70
     1
102
RTVSPropertyOp23
 70
     1
102
RTVSPropertyOp24
 70
     1
102
RTVSPropertyOp25
 70
     1
102
RTVSPropertyOp26
 70
     1
102
RTVSPropertyOp27
 70
     1
102
RTVSPropertyOp28
 70
     1
102
RTVSPropertyOp29
 70
     1
102
RTVSPropertyOp30
 70
     1
102
RTVSPropertyOp31
 70
     1
102
RTVSPropertyOp32
 70
     1
  0
XRECORD
  5
3188
102
{ACAD_REACTORS
330
3187
102
}
330
3187
100
AcDbXrecord
280
     1
102
RTVSPropertyOp0
 70
     1
102
RTVSPropertyOp1
 70
     1
102
RTVSPropertyOp2
 70
     1
102
RTVSPropertyOp3
 70
     1
102
RTVSPropertyOp4
 70
     1
102
RTVSPropertyOp5
 70
     1
102
RTVSPropertyOp6
 70
     1
102
RTVSPropertyOp7
 70
     1
102
RTVSPropertyOp8
 70
     1
102
RTVSPropertyOp9
 70
     1
102
RTVSPropertyOp10
 70
     1
102
RTVSPropertyOp11
 70
     1
102
RTVSPropertyOp12
 70
     1
102
RTVSPropertyOp13
 70
     1
102
RTVSPropertyOp14
 70
     1
102
RTVSPropertyOp15
 70
     1
102
RTVSPropertyOp16
 70
     1
102
RTVSPropertyOp17
 70
     1
102
RTVSPropertyOp18
 70
     1
102
RTVSPropertyOp19
 70
     1
102
RTVSPropertyOp20
 70
     1
102
RTVSPropertyOp21
 70
     1
102
RTVSPropertyOp22
 70
     1
102
RTVSPropertyOp23
 70
     1
102
RTVSPropertyOp24
 70
     1
102
RTVSPropertyOp25
 70
     1
102
RTVSPropertyOp26
 70
     1
102
RTVSPropertyOp27
 70
     1
102
RTVSPropertyOp28
 70
     1
102
RTVSPropertyOp29
 70
     1
102
RTVSPropertyOp30
 70
     1
102
RTVSPropertyOp31
 70
     1
102
RTVSPropertyOp32
 70
     1
  0
XRECORD
  5
31AA
102
{ACAD_REACTORS
330
31A9
102
}
330
31A9
100
AcDbXrecord
280
     1
102
RTVSPropertyOp0
 70
     1
102
RTVSPropertyOp1
 70
     1
102
RTVSPropertyOp2
 70
     1
102
RTVSPropertyOp3
 70
     1
102
RTVSPropertyOp4
 70
     1
102
RTVSPropertyOp5
 70
     1
102
RTVSPropertyOp6
 70
     1
102
RTVSPropertyOp7
 70
     1
102
RTVSPropertyOp8
 70
     1
102
RTVSPropertyOp9
 70
     1
102
RTVSPropertyOp10
 70
     1
102
RTVSPropertyOp11
 70
     1
102
RTVSPropertyOp12
 70
     1
102
RTVSPropertyOp13
 70
     1
102
RTVSPropertyOp14
 70
     1
102
RTVSPropertyOp15
 70
     1
102
RTVSPropertyOp16
 70
     1
102
RTVSPropertyOp17
 70
     1
102
RTVSPropertyOp18
 70
     1
102
RTVSPropertyOp19
 70
     1
102
RTVSPropertyOp20
 70
     1
102
RTVSPropertyOp21
 70
     1
102
RTVSPropertyOp22
 70
     1
102
RTVSPropertyOp23
 70
     1
102
RTVSPropertyOp24
 70
     1
102
RTVSPropertyOp25
 70
     1
102
RTVSPropertyOp26
 70
     1
102
RTVSPropertyOp27
 70
     1
102
RTVSPropertyOp28
 70
     1
102
RTVSPropertyOp29
 70
     1
102
RTVSPropertyOp30
 70
     1
102
RTVSPropertyOp31
 70
     1
102
RTVSPropertyOp32
 70
     1
  0
XRECORD
  5
31B6
102
{ACAD_REACTORS
330
31B5
102
}
330
31B5
100
AcDbXrecord
280
     1
102
RTVSPropertyOp0
 70
     0
102
RTVSPropertyOp1
 70
     0
102
RTVSPropertyOp2
 70
     0
102
RTVSPropertyOp3
 70
     0
102
RTVSPropertyOp4
 70
     0
102
RTVSPropertyOp5
 70
     0
102
RTVSPropertyOp6
 70
     0
102
RTVSPropertyOp7
 70
     0
102
RTVSPropertyOp8
 70
     0
102
RTVSPropertyOp9
 70
     0
102
RTVSPropertyOp10
 70
     0
102
RTVSPropertyOp11
 70
     0
102
RTVSPropertyOp12
 70
     0
102
RTVSPropertyOp13
 70
     0
102
RTVSPropertyOp14
 70
     2
102
RTVSPropertyOp15
 70
     0
102
RTVSPropertyOp16
 70
     0
102
RTVSPropertyOp17
 70
     0
102
RTVSPropertyOp18
 70
     0
102
RTVSPropertyOp19
 70
     0
102
RTVSPropertyOp20
 70
     0
102
RTVSPropertyOp21
 70
     0
102
RTVSPropertyOp22
 70
     0
102
RTVSPropertyOp23
 70
     0
102
RTVSPropertyOp24
 70
     0
102
RTVSPropertyOp25
 70
     0
102
RTVSPropertyOp26
 70
     0
102
RTVSPropertyOp27
 70
     0
102
RTVSPropertyOp28
 70
     0
102
RTVSPropertyOp29
 70
     0
102
RTVSPropertyOp30
 70
     0
102
RTVSPropertyOp31
 70
     0
102
RTVSPropertyOp32
 70
     0
  0
XRECORD
  5
319C
102
{ACAD_REACTORS
330
319B
102
}
330
319B
100
AcDbXrecord
280
     1
102
RTVSPropertyOp0
 70
     1
102
RTVSPropertyOp1
 70
     1
102
RTVSPropertyOp2
 70
     1
102
RTVSPropertyOp3
 70
     1
102
RTVSPropertyOp4
 70
     1
102
RTVSPropertyOp5
 70
     1
102
RTVSPropertyOp6
 70
     1
102
RTVSPropertyOp7
 70
     1
102
RTVSPropertyOp8
 70
     1
102
RTVSPropertyOp9
 70
     1
102
RTVSPropertyOp10
 70
     1
102
RTVSPropertyOp11
 70
     1
102
RTVSPropertyOp12
 70
     1
102
RTVSPropertyOp13
 70
     1
102
RTVSPropertyOp14
 70
     1
102
RTVSPropertyOp15
 70
     1
102
RTVSPropertyOp16
 70
     1
102
RTVSPropertyOp17
 70
     1
102
RTVSPropertyOp18
 70
     1
102
RTVSPropertyOp19
 70
     1
102
RTVSPropertyOp20
 70
     1
102
RTVSPropertyOp21
 70
     1
102
RTVSPropertyOp22
 70
     1
102
RTVSPropertyOp23
 70
     1
102
RTVSPropertyOp24
 70
     1
102
RTVSPropertyOp25
 70
     1
102
RTVSPropertyOp26
 70
     1
102
RTVSPropertyOp27
 70
     1
102
RTVSPropertyOp28
 70
     1
102
RTVSPropertyOp29
 70
     1
102
RTVSPropertyOp30
 70
     1
102
RTVSPropertyOp31
 70
     1
102
RTVSPropertyOp32
 70
     1
  0
XRECORD
  5
31B8
102
{ACAD_REACTORS
330
31B7
102
}
330
31B7
100
AcDbXrecord
280
     1
102
RTVSPropertyOp0
 70
     0
102
RTVSPropertyOp1
 70
     0
102
RTVSPropertyOp2
 70
     0
102
RTVSPropertyOp3
 70
     0
102
RTVSPropertyOp4
 70
     0
102
RTVSPropertyOp5
 70
     0
102
RTVSPropertyOp6
 70
     0
102
RTVSPropertyOp7
 70
     0
102
RTVSPropertyOp8
 70
     0
102
RTVSPropertyOp9
 70
     0
102
RTVSPropertyOp10
 70
     0
102
RTVSPropertyOp11
 70
     0
102
RTVSPropertyOp12
 70
     0
102
RTVSPropertyOp13
 70
     0
102
RTVSPropertyOp14
 70
     2
102
RTVSPropertyOp15
 70
     0
102
RTVSPropertyOp16
 70
     0
102
RTVSPropertyOp17
 70
     0
102
RTVSPropertyOp18
 70
     0
102
RTVSPropertyOp19
 70
     0
102
RTVSPropertyOp20
 70
     0
102
RTVSPropertyOp21
 70
     0
102
RTVSPropertyOp22
 70
     0
102
RTVSPropertyOp23
 70
     0
102
RTVSPropertyOp24
 70
     0
102
RTVSPropertyOp25
 70
     0
102
RTVSPropertyOp26
 70
     0
102
RTVSPropertyOp27
 70
     0
102
RTVSPropertyOp28
 70
     0
102
RTVSPropertyOp29
 70
     0
102
RTVSPropertyOp30
 70
     0
102
RTVSPropertyOp31
 70
     0
102
RTVSPropertyOp32
 70
     0
  0
XRECORD
  5
3194
102
{ACAD_REACTORS
330
3193
102
}
330
3193
100
AcDbXrecord
280
     1
102
RTVSPropertyOp0
 70
     1
102
RTVSPropertyOp1
 70
     1
102
RTVSPropertyOp2
 70
     1
102
RTVSPropertyOp3
 70
     1
102
RTVSPropertyOp4
 70
     1
102
RTVSPropertyOp5
 70
     1
102
RTVSPropertyOp6
 70
     1
102
RTVSPropertyOp7
 70
     1
102
RTVSPropertyOp8
 70
     1
102
RTVSPropertyOp9
 70
     1
102
RTVSPropertyOp10
 70
     1
102
RTVSPropertyOp11
 70
     1
102
RTVSPropertyOp12
 70
     1
102
RTVSPropertyOp13
 70
     1
102
RTVSPropertyOp14
 70
     1
102
RTVSPropertyOp15
 70
     1
102
RTVSPropertyOp16
 70
     1
102
RTVSPropertyOp17
 70
     1
102
RTVSPropertyOp18
 70
     1
102
RTVSPropertyOp19
 70
     1
102
RTVSPropertyOp20
 70
     1
102
RTVSPropertyOp21
 70
     1
102
RTVSPropertyOp22
 70
     1
102
RTVSPropertyOp23
 70
     1
102
RTVSPropertyOp24
 70
     1
102
RTVSPropertyOp25
 70
     1
102
RTVSPropertyOp26
 70
     1
102
RTVSPropertyOp27
 70
     1
102
RTVSPropertyOp28
 70
     1
102
RTVSPropertyOp29
 70
     1
102
RTVSPropertyOp30
 70
     1
102
RTVSPropertyOp31
 70
     1
102
RTVSPropertyOp32
 70
     1
  0
XRECORD
  5
31B4
102
{ACAD_REACTORS
330
31B3
102
}
330
31B3
100
AcDbXrecord
280
     1
102
RTVSPropertyOp0
 70
     1
102
RTVSPropertyOp1
 70
     1
102
RTVSPropertyOp2
 70
     1
102
RTVSPropertyOp3
 70
     1
102
RTVSPropertyOp4
 70
     1
102
RTVSPropertyOp5
 70
     1
102
RTVSPropertyOp6
 70
     1
102
RTVSPropertyOp7
 70
     1
102
RTVSPropertyOp8
 70
     1
102
RTVSPropertyOp9
 70
     1
102
RTVSPropertyOp10
 70
     1
102
RTVSPropertyOp11
 70
     1
102
RTVSPropertyOp12
 70
     1
102
RTVSPropertyOp13
 70
     1
102
RTVSPropertyOp14
 70
     1
102
RTVSPropertyOp15
 70
     1
102
RTVSPropertyOp16
 70
     1
102
RTVSPropertyOp17
 70
     1
102
RTVSPropertyOp18
 70
     1
102
RTVSPropertyOp19
 70
     1
102
RTVSPropertyOp20
 70
     1
102
RTVSPropertyOp21
 70
     1
102
RTVSPropertyOp22
 70
     1
102
RTVSPropertyOp23
 70
     1
102
RTVSPropertyOp24
 70
     1
102
RTVSPropertyOp25
 70
     1
102
RTVSPropertyOp26
 70
     1
102
RTVSPropertyOp27
 70
     1
102
RTVSPropertyOp28
 70
     1
102
RTVSPropertyOp29
 70
     1
102
RTVSPropertyOp30
 70
     1
102
RTVSPropertyOp31
 70
     1
102
RTVSPropertyOp32
 70
     1
  0
XRECORD
  5
31B2
102
{ACAD_REACTORS
330
31B1
102
}
330
31B1
100
AcDbXrecord
280
     1
102
RTVSPropertyOp0
 70
     1
102
RTVSPropertyOp1
 70
     1
102
RTVSPropertyOp2
 70
     1
102
RTVSPropertyOp3
 70
     1
102
RTVSPropertyOp4
 70
     1
102
RTVSPropertyOp5
 70
     1
102
RTVSPropertyOp6
 70
     1
102
RTVSPropertyOp7
 70
     1
102
RTVSPropertyOp8
 70
     1
102
RTVSPropertyOp9
 70
     1
102
RTVSPropertyOp10
 70
     1
102
RTVSPropertyOp11
 70
     1
102
RTVSPropertyOp12
 70
     1
102
RTVSPropertyOp13
 70
     1
102
RTVSPropertyOp14
 70
     1
102
RTVSPropertyOp15
 70
     1
102
RTVSPropertyOp16
 70
     1
102
RTVSPropertyOp17
 70
     1
102
RTVSPropertyOp18
 70
     1
102
RTVSPropertyOp19
 70
     1
102
RTVSPropertyOp20
 70
     1
102
RTVSPropertyOp21
 70
     1
102
RTVSPropertyOp22
 70
     1
102
RTVSPropertyOp23
 70
     1
102
RTVSPropertyOp24
 70
     1
102
RTVSPropertyOp25
 70
     1
102
RTVSPropertyOp26
 70
     1
102
RTVSPropertyOp27
 70
     1
102
RTVSPropertyOp28
 70
     1
102
RTVSPropertyOp29
 70
     1
102
RTVSPropertyOp30
 70
     1
102
RTVSPropertyOp31
 70
     1
102
RTVSPropertyOp32
 70
     1
  0
XRECORD
  5
31AC
102
{ACAD_REACTORS
330
31AB
102
}
330
31AB
100
AcDbXrecord
280
     1
102
RTVSPropertyOp0
 70
     1
102
RTVSPropertyOp1
 70
     1
102
RTVSPropertyOp2
 70
     1
102
RTVSPropertyOp3
 70
     1
102
RTVSPropertyOp4
 70
     1
102
RTVSPropertyOp5
 70
     1
102
RTVSPropertyOp6
 70
     1
102
RTVSPropertyOp7
 70
     1
102
RTVSPropertyOp8
 70
     1
102
RTVSPropertyOp9
 70
     1
102
RTVSPropertyOp10
 70
     1
102
RTVSPropertyOp11
 70
     1
102
RTVSPropertyOp12
 70
     1
102
RTVSPropertyOp13
 70
     1
102
RTVSPropertyOp14
 70
     1
102
RTVSPropertyOp15
 70
     1
102
RTVSPropertyOp16
 70
     1
102
RTVSPropertyOp17
 70
     1
102
RTVSPropertyOp18
 70
     1
102
RTVSPropertyOp19
 70
     1
102
RTVSPropertyOp20
 70
     1
102
RTVSPropertyOp21
 70
     1
102
RTVSPropertyOp22
 70
     1
102
RTVSPropertyOp23
 70
     1
102
RTVSPropertyOp24
 70
     1
102
RTVSPropertyOp25
 70
     1
102
RTVSPropertyOp26
 70
     1
102
RTVSPropertyOp27
 70
     1
102
RTVSPropertyOp28
 70
     1
102
RTVSPropertyOp29
 70
     1
102
RTVSPropertyOp30
 70
     1
102
RTVSPropertyOp31
 70
     1
102
RTVSPropertyOp32
 70
     1
  0
XRECORD
  5
31AE
102
{ACAD_REACTORS
330
31AD
102
}
330
31AD
100
AcDbXrecord
280
     1
102
RTVSPropertyOp0
 70
     1
102
RTVSPropertyOp1
 70
     1
102
RTVSPropertyOp2
 70
     1
102
RTVSPropertyOp3
 70
     1
102
RTVSPropertyOp4
 70
     1
102
RTVSPropertyOp5
 70
     1
102
RTVSPropertyOp6
 70
     1
102
RTVSPropertyOp7
 70
     1
102
RTVSPropertyOp8
 70
     1
102
RTVSPropertyOp9
 70
     1
102
RTVSPropertyOp10
 70
     1
102
RTVSPropertyOp11
 70
     1
102
RTVSPropertyOp12
 70
     1
102
RTVSPropertyOp13
 70
     1
102
RTVSPropertyOp14
 70
     1
102
RTVSPropertyOp15
 70
     1
102
RTVSPropertyOp16
 70
     1
102
RTVSPropertyOp17
 70
     1
102
RTVSPropertyOp18
 70
     1
102
RTVSPropertyOp19
 70
     1
102
RTVSPropertyOp20
 70
     1
102
RTVSPropertyOp21
 70
     1
102
RTVSPropertyOp22
 70
     1
102
RTVSPropertyOp23
 70
     1
102
RTVSPropertyOp24
 70
     1
102
RTVSPropertyOp25
 70
     1
102
RTVSPropertyOp26
 70
     1
102
RTVSPropertyOp27
 70
     1
102
RTVSPropertyOp28
 70
     1
102
RTVSPropertyOp29
 70
     1
102
RTVSPropertyOp30
 70
     1
102
RTVSPropertyOp31
 70
     1
102
RTVSPropertyOp32
 70
     1
  0
XRECORD
  5
319A
102
{ACAD_REACTORS
330
3199
102
}
330
3199
100
AcDbXrecord
280
     1
102
RTVSPropertyOp0
 70
     1
102
RTVSPropertyOp1
 70
     1
102
RTVSPropertyOp2
 70
     1
102
RTVSPropertyOp3
 70
     1
102
RTVSPropertyOp4
 70
     1
102
RTVSPropertyOp5
 70
     1
102
RTVSPropertyOp6
 70
     1
102
RTVSPropertyOp7
 70
     1
102
RTVSPropertyOp8
 70
     1
102
RTVSPropertyOp9
 70
     1
102
RTVSPropertyOp10
 70
     1
102
RTVSPropertyOp11
 70
     1
102
RTVSPropertyOp12
 70
     1
102
RTVSPropertyOp13
 70
     1
102
RTVSPropertyOp14
 70
     1
102
RTVSPropertyOp15
 70
     1
102
RTVSPropertyOp16
 70
     1
102
RTVSPropertyOp17
 70
     1
102
RTVSPropertyOp18
 70
     1
102
RTVSPropertyOp19
 70
     1
102
RTVSPropertyOp20
 70
     1
102
RTVSPropertyOp21
 70
     1
102
RTVSPropertyOp22
 70
     1
102
RTVSPropertyOp23
 70
     1
102
RTVSPropertyOp24
 70
     1
102
RTVSPropertyOp25
 70
     1
102
RTVSPropertyOp26
 70
     1
102
RTVSPropertyOp27
 70
     1
102
RTVSPropertyOp28
 70
     1
102
RTVSPropertyOp29
 70
     1
102
RTVSPropertyOp30
 70
     1
102
RTVSPropertyOp31
 70
     1
102
RTVSPropertyOp32
 70
     1
  0
XRECORD
  5
31A8
102
{ACAD_REACTORS
330
31A7
102
}
330
31A7
100
AcDbXrecord
280
     1
102
RTVSPropertyOp0
 70
     1
102
RTVSPropertyOp1
 70
     1
102
RTVSPropertyOp2
 70
     1
102
RTVSPropertyOp3
 70
     1
102
RTVSPropertyOp4
 70
     1
102
RTVSPropertyOp5
 70
     1
102
RTVSPropertyOp6
 70
     1
102
RTVSPropertyOp7
 70
     1
102
RTVSPropertyOp8
 70
     1
102
RTVSPropertyOp9
 70
     1
102
RTVSPropertyOp10
 70
     1
102
RTVSPropertyOp11
 70
     1
102
RTVSPropertyOp12
 70
     1
102
RTVSPropertyOp13
 70
     1
102
RTVSPropertyOp14
 70
     1
102
RTVSPropertyOp15
 70
     1
102
RTVSPropertyOp16
 70
     1
102
RTVSPropertyOp17
 70
     1
102
RTVSPropertyOp18
 70
     1
102
RTVSPropertyOp19
 70
     1
102
RTVSPropertyOp20
 70
     1
102
RTVSPropertyOp21
 70
     1
102
RTVSPropertyOp22
 70
     1
102
RTVSPropertyOp23
 70
     1
102
RTVSPropertyOp24
 70
     1
102
RTVSPropertyOp25
 70
     1
102
RTVSPropertyOp26
 70
     1
102
RTVSPropertyOp27
 70
     1
102
RTVSPropertyOp28
 70
     1
102
RTVSPropertyOp29
 70
     1
102
RTVSPropertyOp30
 70
     1
102
RTVSPropertyOp31
 70
     1
102
RTVSPropertyOp32
 70
     1
  0
XRECORD
  5
31B0
102
{ACAD_REACTORS
330
31AF
102
}
330
31AF
100
AcDbXrecord
280
     1
102
RTVSPropertyOp0
 70
     1
102
RTVSPropertyOp1
 70
     1
102
RTVSPropertyOp2
 70
     1
102
RTVSPropertyOp3
 70
     1
102
RTVSPropertyOp4
 70
     1
102
RTVSPropertyOp5
 70
     1
102
RTVSPropertyOp6
 70
     1
102
RTVSPropertyOp7
 70
     1
102
RTVSPropertyOp8
 70
     1
102
RTVSPropertyOp9
 70
     1
102
RTVSPropertyOp10
 70
     1
102
RTVSPropertyOp11
 70
     1
102
RTVSPropertyOp12
 70
     1
102
RTVSPropertyOp13
 70
     1
102
RTVSPropertyOp14
 70
     1
102
RTVSPropertyOp15
 70
     1
102
RTVSPropertyOp16
 70
     1
102
RTVSPropertyOp17
 70
     1
102
RTVSPropertyOp18
 70
     1
102
RTVSPropertyOp19
 70
     1
102
RTVSPropertyOp20
 70
     1
102
RTVSPropertyOp21
 70
     1
102
RTVSPropertyOp22
 70
     1
102
RTVSPropertyOp23
 70
     1
102
RTVSPropertyOp24
 70
     1
102
RTVSPropertyOp25
 70
     1
102
RTVSPropertyOp26
 70
     1
102
RTVSPropertyOp27
 70
     1
102
RTVSPropertyOp28
 70
     1
102
RTVSPropertyOp29
 70
     1
102
RTVSPropertyOp30
 70
     1
102
RTVSPropertyOp31
 70
     1
102
RTVSPropertyOp32
 70
     1
  0
ENDSEC
  0
EOF
